#VERSION:0.83;
#TITLE:M;
#ARTIST:dj TAKA;
#GENRE:ORCHESTRAL;
#MUSIC:M.ogg;
#BANNER:M.png;
#BACKGROUND:M-bg.png;
#CDTITLE:./CDTITLES/DANCE DANCE REVOLUTION EXTREME 3.PNG;
#SAMPLESTART:77.558;
#SAMPLELENGTH:15;
#OFFSET:-0.184;
#BPMS:0=179.951,200.5=180.951,272=177.951;
#STOPS:56.5=1.834,111=0.917;
#DISPLAYBPM:180;

//--------------- dance-single - B. M'Rey ----------------
#NOTEDATA:;
#STEPSTYPE:dance-single;
#DESCRIPTION:B. M'Rey;
#DIFFICULTY:Beginner;
#METER:6;
#RADARVALUES:0.246969,0.327423,0.128739,0.110348,0,188,174,14,12,0,0,0.246969,0.327423,0.128739,0.110348,0,188,174,14,12,0,0;
#NOTES:
0000
0000
0000
0000
,
0000
0000
0000
0000
,
0000
0000
0000
0000
,
0000
0000
0000
0000
,
0000
0000
0000
0000
0000
0000
0000
1000
,
0000
0000
0000
0001
0000
0000
0000
1000
,
0000
0000
0000
0001
0000
1001
0000
0000
,
0000
0000
0000
0000
0000
0000
0000
0110
,
0000
0000
0000
0000
0000
0000
0000
0001
,
0000
0000
0000
0010
0000
0000
0000
0100
,
0000
0000
0000
1000
0000
0000
0000
0100
,
0000
0000
0000
0010
0000
0000
0000
0001
,
0000
0000
0000
1000
0000
0000
0000
0001
,
0000
1000
0000
0001
0000
1000
0000
0001
,
0000
1001
0000
0000
0100
0000
0000
0000
,
0001
0000
1000
0000
,
0010
0010
0010
0000
,
0001
0000
1000
0000
,
0100
0100
0100
0000
,
0010
0000
0001
0000
,
1000
1000
1000
0000
,
0000
0001
0001
0000
,
0000
0010
0010
0000
,
0010
0000
0100
0000
,
1000
0000
0100
0000
,
0010
0000
0001
0000
,
1000
0000
0001
1000
,
0001
0000
1000
0000
0001
0000
1001
0100
,
0000
0000
0000
0001
0000
0000
0000
1000
,
0000
0000
0000
0010
0000
0010
0000
0010
,
0000
0000
0000
0001
0000
0000
0000
1000
,
0000
0000
0000
0100
0000
0100
0000
0100
,
0000
0000
0000
0010
0000
0000
0000
1000
,
0000
1000
0000
1000
0000
1000
0000
1000
,
0000
0001
0000
0000
0000
0000
0000
0100
,
0000
0010
0000
0000
0000
0000
0000
0001
,
0000
1000
0000
0000
0000
0000
0000
0100
,
0000
0010
0000
0000
0000
0000
0000
0001
,
0000
1000
0000
0001
0000
1000
0000
0100
,
0000
0010
0000
0100
0000
0010
0000
0100
,
0000
0001
0000
0100
0000
0001
0000
0010
,
0000
1000
0000
0010
0000
1000
0000
0010
,
0000
0000
0000
0110
0000
0000
0000
0220
,
0000
0330
0000
0000
0000
0000
0000
0001
,
0000
0000
0000
1001
0000
0000
0000
2002
,
0000
3003
0000
0000
0000
0000
0000
0101
,
0000
0000
0000
0000
0000
0000
0000
0100
,
0000
0000
0000
0010
0000
0000
0000
0001
,
0000
1000
0000
0001
0000
1000
0000
0001
,
0000
0000
0000
2000
0000
0000
0000
0100
,
0000
3100
0000
0000
0000
0000
0000
0000
,
0000
0100
0000
0001
,
0000
0010
1000
0010
,
1000
0000
0000
0000
,
0110
0000
0011
0000
,
0110
0000
1100
0000
,
0001
0001
0001
0001
,
1000
1000
1000
1000
,
0001
0001
0001
0001
,
1000
1000
1000
1000
,
0001
0000
0100
0000
,
0010
0000
1000
0000
,
0100
0100
0100
0100
,
0010
0010
0010
0010
,
0100
0100
0100
0100
,
0010
0010
0010
0010
,
0001
0000
0100
0000
,
0010
0000
1000
0000
,
0110
0000
0000
0000
,
0000
0001
0001
0001
,
0002
0000
0003
0000
,
0000
0100
0100
0100
,
0200
0000
0320
0000
,
0032
0000
2003
0000
,
3002
0000
0000
0000
,
0000
0000
0000
0000
,
0000
0000
0000
0000
,
0000
0000
0000
0000
,
0000
0000
0003
0000
;

//--------------- dance-single - B. M'Rey ----------------
#NOTEDATA:;
#STEPSTYPE:dance-single;
#DESCRIPTION:B. M'Rey;
#DIFFICULTY:Easy;
#METER:9;
#RADARVALUES:0.350749,0.509324,0.312652,0.193109,0,267,233,34,21,0,0,0.350749,0.509324,0.312652,0.193109,0,267,233,34,21,0,0;
#NOTES:
0000
0000
0000
0000
,
0000
0000
0000
0000
,
0000
0000
0000
0000
,
0000
0000
0000
0000
,
0000
0000
0000
0000
0000
0000
0000
0001
,
0000
0000
0000
0001
0000
0000
0000
0001
,
0000
0000
0000
0000
0000
0110
0000
0010
,
0000
0000
0000
0000
0000
0011
0000
0100
,
0000
0000
0000
0000
0000
0101
0000
0010
,
0000
0010
0000
0100
0000
0100
0000
1000
,
0000
1000
0000
0001
0000
0001
0000
0010
,
0000
0010
0000
1000
0000
1000
0000
0001
,
0000
0001
0000
0100
0000
0100
0000
0010
,
0000
0010
0000
0100
0000
0100
0000
1000
,
0000
0110
0001
0000
0010
0000
0001
0000
,
0010
0100
1000
0100
,
0100
1010
1000
0010
,
1000
0001
0100
0001
,
0100
0101
0010
0001
,
1000
0100
0001
1000
,
1000
1001
0010
0100
,
0100
1010
0100
0001
,
1001
0110
0000
0000
,
0000
0000
0000
0001
0001
0000
0000
0000
,
0000
0000
0000
1000
1000
0000
0000
0000
,
0000
0000
0000
0001
0010
0000
0000
0000
,
0000
0000
0000
0100
0100
0000
1000
0000
,
0001
0000
0010
0000
0011
0000
1100
0010
,
0000
0001
0000
1000
0000
0001
0000
0010
,
0000
0100
0000
0001
0000
1000
1000
0001
,
0000
0100
0000
0010
0000
1000
0000
0010
,
0000
0100
0000
1000
0000
0001
0001
0010
,
0000
0100
0000
0010
0000
0001
0000
1000
,
0000
0001
0000
0001
0000
0010
0010
0100
,
0000
1000
0000
0000
0000
1000
0000
0100
,
0000
0010
0000
0000
0000
0010
0000
0001
,
0000
1000
0000
0000
0000
0100
0000
0001
,
0000
1000
0000
0000
0000
0001
0000
1000
,
0000
0010
0000
0100
0000
0100
0100
1000
,
0000
0100
0000
0010
0000
0010
0010
0001
,
0000
0010
0000
0100
0000
0100
0100
0001
,
0000
0100
0000
0010
0000
0010
0010
1001
,
0000
0000
0000
0110
0000
0000
0000
0020
,
0000
0030
0000
0000
0000
0000
0000
0110
,
0000
0000
0000
1001
0000
0000
0000
0200
,
0000
0300
0000
0000
0000
0000
0000
0110
,
0000
0000
0000
0000
0000
0000
0000
0020
,
0000
0000
0000
0230
0000
0000
0000
0310
,
0000
0100
0000
0010
0100
0010
0000
0002
,
0000
0000
0000
2003
0000
0000
0000
0000
,
0000
3000
0000
0000
0000
0000
0000
0000
,
0101
0000
0010
0000
,
1000
0000
0010
0000
,
2000
0000
0000
0000
0001
3000
0001
0000
,
0101
0000
1100
0000
,
0011
0000
1010
0000
,
0110
0001
1000
0100
,
1000
0001
0010
1000
,
0010
1000
0010
0100
,
0100
0010
0001
1000
,
0001
1001
0100
0101
,
0010
1010
0100
1100
,
1001
0000
0001
0000
1000
0000
1000
1000
,
1000
0000
0100
0000
0010
0000
0010
0010
,
0010
0000
1000
0000
0001
0000
0001
0001
,
0001
0000
0100
0000
0010
0000
0010
0010
,
0010
0101
0000
0101
,
0000
0011
0000
0011
,
0000
0000
0000
0001
,
1000
0000
2000
3000
0020
0030
2000
3000
,
0002
0003
0000
0001
,
1000
0000
2000
3000
0200
0300
2000
3000
,
0001
0000
0110
0000
,
0110
0000
0110
0000
,
0020
0000
0032
0000
,
2003
0000
3200
0000
,
0302
0000
2003
0000
,
3020
0000
0000
0000
,
0000
0000
0030
0000
;

//--------------- dance-single - B. M'Rey ----------------
#NOTEDATA:;
#STEPSTYPE:dance-single;
#DESCRIPTION:B. M'Rey;
#DIFFICULTY:Medium;
#METER:13;
#RADARVALUES:0.551739,0.654846,0.441391,0.349435,0.04138,420,372,48,38,0,0,0.551739,0.654846,0.441391,0.349435,0.04138,420,372,48,38,0,0;
#NOTES:
0000
0000
0000
0000
,
0000
0000
0000
0000
,
0000
0000
0000
0000
,
0000
0000
0000
0000
,
0000
0000
0000
0000
0000
0000
0000
0020
,
0000
1000
0000
1000
0000
1000
0000
1030
,
0000
0010
0000
0100
0010
1000
0000
2000
,
0000
3010
0000
1000
0000
1010
0000
0002
,
0000
0013
0000
0001
0000
0011
0000
0101
,
0000
0101
0000
0100
1000
0010
0000
0100
,
0001
0010
0000
0100
1000
0010
0000
1100
,
0000
1010
0000
0100
0001
0010
0000
0100
,
1000
0010
0000
0100
0001
0010
0000
0002
,
0000
2003
0000
3002
0000
1003
0000
0110
,
0000
1001
0001
0000
0010
0000
0100
0000
,
1000
0000
0100
0010
0001
0000
1100
0000
,
1100
1000
0010
0100
,
0001
0000
0100
0010
1000
0000
0101
0000
,
0101
0100
0010
1000
,
0001
0000
0100
0001
1000
0000
1001
0000
,
1001
0000
1000
0010
1000
0000
1010
0000
,
1010
0000
0001
0010
0001
0000
0011
0000
,
0011
0000
0001
0010
1000
0010
0001
0010
,
1000
0000
0001
0010
1000
0010
0001
0010
,
1000
0000
0001
0100
1000
0100
0001
0100
,
1000
0000
0001
0100
1000
0100
0001
0100
,
1000
0000
0100
0001
0010
0001
0100
0010
,
1000
0100
0010
0000
0110
0000
1001
0001
,
1000
0001
0000
1000
0001
1000
0000
0001
,
1000
0001
0000
1001
0000
1001
0000
0100
,
0010
0100
0000
0010
0100
0010
0000
0100
,
0010
0100
0000
0110
0000
0110
0000
0100
,
0001
0100
0000
0010
1000
0010
0000
1100
,
0000
1100
0000
0011
0000
0011
0000
1000
,
0000
0000
0020
0000
0000
0000
0000
0000
0000
0000
0130
0000
0000
0001
0100
0000
,
0000
0000
0002
0000
0000
0000
0000
0000
0000
0000
1003
0000
0000
0010
1000
0000
,
0000
0000
0200
0000
0000
0000
0000
0000
0000
0000
1300
0000
0000
0001
0100
0000
,
0000
2000
0000
0000
0000
3100
0000
0001
,
0100
0010
1000
0100
0000
0010
0000
0001
,
0100
0010
0100
0001
0000
1000
0000
0100
,
1000
0001
1000
0010
0000
1000
0000
0001
,
0100
0010
1000
0010
0000
0001
0000
2020
,
0000
0000
3030
0220
0330
0000
0000
0202
,
0000
0000
0000
0000
0303
0000
0000
0220
,
0000
0000
0330
2002
0000
0000
3003
2200
,
0000
0000
0000
0000
3300
0000
0000
0100
,
0000
0010
0000
0001
0000
1000
0000
0010
,
0000
0100
0000
0001
0000
1000
0000
0100
,
0000
0010
0000
0001
0000
0010
0000
0100
,
1000
0100
1000
0100
0001
0010
0001
0010
,
0000
0100
0000
0000
0000
0010
0000
0100
,
0000
0001
0000
0010
0000
0100
0000
1000
,
0000
0001
0000
0100
0000
0100
0000
0010
,
1000
0010
0100
0001
1000
0010
0100
0000
,
1000
1010
0001
0011
,
1000
1100
0001
0101
,
0200
0000
0302
0000
0023
0000
0130
0100
,
0200
0000
2300
0000
3020
0000
0130
0100
,
0200
0000
0302
0000
2003
0000
3010
0010
,
0020
0000
0230
0000
0302
0000
1003
1000
,
0010
0100
0001
0100
0000
1000
0010
1000
,
0000
0001
0010
0001
0000
1000
0100
1000
,
0100
0001
0100
1000
0100
0001
0100
1000
,
0010
0001
0010
1000
0010
0001
0010
1000
,
0100
0001
0100
1000
0100
0001
0100
1000
,
0010
0001
0010
1000
0010
0001
0010
1000
,
0100
0010
0001
0000
0100
0001
0100
0000
,
0100
0001
1000
0000
1000
0010
0100
0000
,
0002
0000
0000
0000
0000
0000
0000
0000
0003
0000
0000
0000
0100
0000
0000
0010
,
1000
1010
1010
1010
,
2000
0000
0000
0000
0000
0000
0000
0000
3000
0000
0000
0000
0100
0000
0000
0010
,
0001
0011
0011
0011
,
0001
1000
0000
0000
0011
0000
0000
0000
1000
0010
0000
0000
1010
0000
0000
0000
,
0100
0001
0000
0000
0101
0000
0000
0000
0100
0010
0000
0000
0110
0000
0000
0000
,
0001
0010
0100
1000
0001
0010
0100
0001
,
1000
0100
0010
0001
1000
0100
0010
0100
,
0001
0100
0010
1000
0100
0010
0001
0010
,
2002
0000
0000
0000
,
0000
0000
3003
0000
;

//--------------- dance-single - B. M'Rey ----------------
#NOTEDATA:;
#STEPSTYPE:dance-single;
#DESCRIPTION:B. M'Rey;
#DIFFICULTY:Hard;
#METER:15;
#RADARVALUES:0.8171,1.061696,0.303457,0.027587,0.524152,622,589,33,3,0,0,0.8171,1.061696,0.303457,0.027587,0.524152,622,589,33,3,0,0;
#NOTES:
0000
0000
0000
0000
,
0000
0000
0000
0000
,
0000
0000
0000
0000
,
0000
0000
0000
0000
,
0000
0000
0000
0000
0000
0000
0000
1000
,
0010
1000
0010
1000
0010
1000
0010
1000
,
0010
1000
0100
0010
0001
0110
0110
0000
,
1000
0001
1000
0001
1000
1001
1001
0000
,
0001
0010
0001
0010
0001
0011
0011
0100
,
0000
0000
1000
0010
0100
0001
0010
1000
,
0100
0000
0001
0000
0010
0000
0100
0000
1000
0000
0010
0000
0100
0000
0100
0001
,
0100
0001
0010
0000
1000
0000
0100
0000
0001
0000
0010
0000
0100
0000
1000
0000
,
0010
0000
0100
0000
0001
0000
0010
0000
0001
0000
0100
0000
0010
0000
1000
0100
,
1000
0000
0010
0100
0010
0000
0001
0010
0001
0000
0010
0100
0010
0000
0110
0000
,
0000
0000
1001
0000
1000
0000
1000
0000
1000
0100
1000
0000
0010
0100
0010
0000
,
0001
0010
0001
0000
0010
0100
0010
0000
1000
0100
1000
0000
0010
0100
0010
0000
,
0001
0010
0001
0000
1001
0000
1001
0000
0010
0100
0010
0000
0001
0010
0001
0000
,
1000
0010
1000
0000
0100
0010
0100
0000
0001
0010
0001
0000
0010
0100
0010
0000
,
1000
0100
1000
0000
0110
0000
0110
0000
0001
0010
0001
0000
0010
0100
0010
0000
,
1000
0100
1000
0000
0010
0100
0010
0000
0001
0010
0001
0000
0100
0010
0100
0000
,
1000
0100
1000
0000
1100
0000
1100
0000
0010
0100
0010
0100
0010
0100
0010
0100
,
0010
0000
0000
0000
0011
0000
0011
0000
0001
1000
0001
1000
0001
1000
0001
1000
,
0001
0000
0101
0101
0001
0000
0000
0100
,
1000
0001
0010
1000
0100
0001
0010
1000
,
0001
0000
0100
0000
1000
0000
0001
0000
0001
0010
0001
0010
1000
0000
0100
0000
,
0001
0010
1000
0001
0100
1000
0001
0010
,
1000
0000
0010
0000
0001
0000
1000
0000
0100
0001
0100
0000
1000
0001
1000
0000
,
0010
1000
0010
0000
1000
0001
1000
0000
1001
0000
0000
0000
0110
0000
0100
0001
,
0100
0000
1000
0001
1000
0000
0010
1000
0010
0000
1000
0001
1000
0000
0100
0001
,
0100
0000
1000
0001
1000
0000
0010
1000
0010
0000
0110
0000
0110
0000
1000
0001
,
1000
0000
0010
1000
0010
0000
0100
1000
0100
0000
0001
1000
0001
0000
0010
1000
,
0010
0000
1000
0001
1000
0000
0100
0001
0100
0000
1001
0000
1001
0000
0010
1000
,
0010
0000
1000
0001
1000
0000
0100
0001
0100
0000
1000
0001
1000
0000
0010
1000
,
0010
0000
0001
1000
0001
0000
0100
0001
0100
0000
0100
0001
0100
0010
1000
0100
,
0000
0000
0001
0000
0000
0000
0000
0000
0000
0000
0010
0000
0000
0100
1000
0000
,
0000
0010
0000
0000
0100
0001
0010
1000
,
0000
0110
0000
0000
0001
0010
0100
1000
,
0000
1001
0000
0000
0010
0100
0010
1000
,
0001
1000
0001
1000
0001
1000
0001
0010
,
0100
0010
0100
0010
0100
0010
0100
0001
,
0100
0001
0100
0001
0100
0001
0100
0010
,
1000
0010
1000
0010
1000
0010
1000
0010
,
0000
0000
0000
0000
0000
0000
1001
0000
0000
0000
0000
0000
0000
0000
0010
0100
,
0010
0100
0010
0000
0000
0000
0000
0000
0000
0000
0000
0000
0000
0000
0011
0000
,
0000
0000
0000
0000
0000
0000
0110
0000
0000
0000
0000
0000
0000
0000
1000
0001
,
1000
0001
1000
0000
0000
0000
0000
0000
0000
0000
0000
0000
0000
0000
0110
0000
,
0000
0000
0000
1000
0001
0010
0100
0010
,
1000
0100
0001
0010
0100
0010
1000
0010
,
0100
0000
0001
0000
0010
0000
1000
0001
1000
0001
1000
0001
0010
0100
1000
0000
,
0100
0000
0010
0000
0100
0000
0001
0010
0001
0010
0001
0010
0001
0010
0001
0000
,
0010
0000
0100
0000
0000
1000
0001
0100
,
0010
0001
0010
0001
0100
0010
1000
0010
,
0100
0001
0100
0010
1000
0010
0100
0001
,
0010
0000
0100
0000
1000
0000
0010
0000
0001
0010
0100
1000
0100
0010
0001
0000
,
0000
0000
0000
0000
0000
0000
0100
0010
0100
0000
0000
0000
0000
0000
0001
0010
,
0001
0000
0000
0000
0000
0000
0100
1000
0100
0000
0000
0000
0000
0000
0000
0000
,
0001
0001
0001
0001
0001
0001
0001
0001
,
0001
0010
0010
0010
0010
0010
0010
0010
,
0010
0100
0100
0100
0100
0100
0100
0100
,
0100
1000
1000
1000
1000
1000
1000
1000
,
1000
0000
0010
0100
0001
0000
0010
1000
,
0100
0000
0001
0010
0100
0000
1000
0010
,
0100
0100
0010
0010
0100
0100
0010
0010
,
0100
1000
1000
0100
0100
1000
1000
0100
,
0100
0010
0010
0001
0001
0010
0010
0001
,
0001
0010
0010
1000
1000
0010
0010
1000
,
1000
0100
0010
0001
0010
0100
1000
0100
,
0010
0001
0010
0100
1000
0100
0010
0001
,
2002
0000
0000
0000
0000
0000
0000
0000
0000
0000
3003
0000
0010
0000
0000
1000
,
0100
0011
0110
1001
,
0020
0000
0000
0000
0000
0000
0000
0000
0000
0000
0030
0000
0100
0000
0000
0001
,
0010
1000
0100
0010
,
0001
0000
0000
0000
1000
0100
1000
0000
0100
0000
0000
0000
0010
0100
0010
0000
,
0001
0000
0000
0000
0010
0100
0010
0000
1000
0000
0000
0000
0001
0010
0001
0000
,
0010
1000
0010
1000
0010
0100
0001
0100
0001
0100
0010
1000
,
0010
1000
0010
0100
0001
1000
0001
1000
0001
0010
0100
0010
,
0100
0010
0001
1000
0001
0010
0001
0010
0100
0010
0100
1000
,
0020
0000
0000
0000
,
0000
0000
0000
0000
,
0030
0000
0000
0000
;

//--------------- dance-single - B. M'Rey ----------------
#NOTEDATA:;
#STEPSTYPE:dance-single;
#DESCRIPTION:B. M'Rey;
#DIFFICULTY:Challenge;
#METER:18;
#RADARVALUES:0,0,0,0,0;
#NOTES:
0000
0000
0000
0000
,
0000
0000
0000
0000
,
0000
0000
0000
0000
,
0000
0000
0000
0000
,
0000
0000
0000
0000
0000
0000
0000
0000
0000
0000
0000
0000
0000
0000
0001
0100
,
0001
0100
0001
0100
0001
1000
0010
1000
0001
0010
0001
0010
0001
0010
0001
1000
,
0010
1000
0010
1000
0010
1000
0100
1000
0100
0000
1001
0000
1001
0000
0001
1000
,
0001
1000
0001
1000
0001
0010
0001
0010
0100
0000
0110
0000
0110
0000
0001
1000
,
0001
1000
0001
1000
0100
1000
0100
1000
0100
0000
0011
0000
0011
0000
1001
0000
,
0001
1000
0001
0000
0001
0000
0001
0100
0010
0000
0010
0000
0010
0100
0001
0000
,
0001
0010
0001
0000
0001
0010
0001
0000
0001
1000
0010
0000
0010
1000
0010
1000
,
0001
1000
0001
0010
0001
0000
0001
0010
0001
0000
0001
0100
0010
0000
0010
1000
,
0010
0000
0010
0100
0010
0000
0010
0100
0001
0000
0010
0100
0010
0000
0001
0000
,
0001
1000
0100
0000
0100
0010
0100
0000
0100
1000
0100
0000
0100
0000
1001
0000
,
0000
0000
0000
0000
0000
0000
0000
0000
0000
0000
0000
0000
0220
0330
0000
0000
0000
0000
0000
0000
0000
0000
0000
0000
0110
0000
0000
0000
0000
0000
0000
0000
0000
0000
0000
0000
0110
0000
0000
0000
0000
0000
0000
0000
0000
0000
0000
0000
0110
0000
0000
0000
0000
0000
0000
0000
0000
0000
0000
0000
0100
0000
0000
0000
0000
0000
1000
0000
0000
0000
0000
0000
0100
0000
0000
0000
0000
0000
1000
0000
0000
0000
0000
0000
0100
0000
0000
0000
0000
0000
0010
0000
0000
0000
0000
0000
,
0001
0010
0001
0010
0001
0010
0100
0010
0100
0010
0100
1000
0100
1000
0100
1000
,
0100
0010
0001
0000
0110
0000
0110
0000
0100
1000
0100
1000
0100
1000
0100
0010
,
0001
0010
0001
0010
0001
0100
0001
0100
0010
0100
0010
0100
0010
0100
0001
0100
,
0010
1000
0010
0000
0011
0000
0011
0000
0001
1000
0001
1000
0001
1000
0001
0010
,
0001
0010
0001
0010
0100
0010
0100
0010
0100
0010
0001
1000
0100
1000
0100
0010
,
0100
0010
0001
0000
0110
0000
0110
0000
0001
1000
0001
1000
0001
1000
0001
0100
,
0001
0010
0100
0000
0011
0000
0011
0000
0001
1000
0001
1000
0001
1000
0100
1000
,
0100
1000
0100
0000
1100
0000
1100
0000
0001
0000
0100
0000
0001
0000
0010
0000
,
0100
0000
1000
0000
0100
0000
1000
0100
0010
0000
0100
0000
0001
0000
0010
0000
,
0100
0000
0010
0000
0001
0000
0100
0000
0010
1000
0010
1000
0010
0000
1000
0000
,
0001
0000
0100
0000
0010
0000
1000
0010
0001
0000
0100
0000
0010
0000
1000
0000
,
0100
0000
0010
0000
0001
0000
0100
0000
0100
0010
0100
1000
0001
1000
0100
1000
,
0010
0000
0000
0000
0000
0000
0000
0000
0000
0000
0000
0000
0100
0000
0000
0000
0000
0000
0000
0000
0000
0000
0000
0000
0010
0000
0000
0000
0000
0000
0000
0000
0000
0000
0000
0000
0100
0000
0000
0000
0000
0000
0000
0000
0000
0000
0000
0000
0010
0000
0000
0000
0000
0000
0000
0000
0000
0000
0000
0000
0100
0000
0000
0000
0000
0000
0000
0000
0000
0000
0000
0000
0001
0000
0000
0000
0000
0000
0000
0000
0000
0000
0000
0000
0000
0000
0000
0000
0000
0000
0000
0000
0000
0000
0000
0000
1001
0000
0000
0000
0000
0000
0000
0000
0000
0000
0000
0000
0000
0000
0000
0000
0000
0000
0000
0000
0000
0000
0000
0000
0000
0000
0000
0000
0000
0000
0000
0000
0000
0000
0000
0000
0000
0000
0000
0000
0000
0000
0000
0000
0000
0000
0000
0000
0220
0330
0000
0000
0000
0000
0000
0000
0000
0000
0000
0000
0000
0000
0000
0000
0000
0000
0000
0000
0000
0000
0000
0000
0001
0000
0000
0000
0000
0000
0000
0000
0000
0000
0000
0000
1000
0000
0000
0000
0000
0000
0000
0000
0000
0000
0000
0000
,
0001
0100
0001
0010
0100
0010
0100
0010
0100
0010
0001
0010
0001
0100
0001
0100
,
0001
0100
0001
1000
0001
1000
0100
0000
0011
0000
0011
0000
0011
0000
0100
1000
,
0001
1000
0001
1000
0001
1000
0010
1000
0001
1000
0001
0010
0001
0010
0001
0010
,
0001
1000
0001
1000
0010
1000
0010
0000
1100
0000
1100
0000
1100
0000
0010
1000
,
0010
1000
0010
1000
0010
0100
0010
0100
0010
0100
0001
0100
0010
0000
2002
0000
,
3003
0000
0202
0000
0303
0000
0220
0000
0330
0000
2020
0000
3030
0010
0100
0000
,
0000
0000
0010
0000
0000
0000
0001
0000
0000
0000
1000
0000
0000
0100
0010
0000
,
0000
0001
0010
0000
0000
0000
0010
0000
1000
0000
0100
0000
1000
0000
0010
0000
,
0000
0100
0001
0000
0000
0000
0100
0000
0010
0000
0100
0000
1000
0000
0010
0000
,
0000
0100
0001
0000
0000
0000
0100
0000
0010
0000
0100
0000
0010
0000
0010
0100
,
0001
0000
0100
0010
0001
0000
0001
0100
0010
0000
0001
0010
0100
1000
0001
0000
,
0010
1000
0001
0000
0010
0001
0100
0000
0001
0000
0010
0000
0001
0000
0100
1000
,
0010
0000
0001
0010
0001
0000
0010
0100
0001
0000
0010
0100
0001
0010
0001
0000
,
0010
0100
0001
0000
0100
1000
0010
0000
0010
0100
0001
0000
0010
0000
2002
0000
,
3003
0000
0010
0000
0000
0000
0220
0000
0330
0000
0001
0000
0000
0000
0001
1000
,
0001
1000
0001
0000
0000
0000
0100
0000
0000
0000
0010
0000
0000
0000
2020
0000
,
3030
0000
0100
0000
0000
0000
0202
0000
0303
0000
0010
0000
0000
0000
0100
0001
,
0100
0001
0100
0000
0000
0000
0010
0000
0000
0000
1000
0000
0000
0000
0220
0000
,
0330
0000
0000
0000
0000
0000
0001
1000
0010
1000
0010
0100
0010
1000
0010
1000
,
0010
1000
0010
0100
0010
0100
0010
0100
0010
1000
0010
1000
0001
1000
0001
1000
,
0100
1000
0001
1000
0100
1000
0100
1000
0100
1000
0001
1000
0001
0000
0011
0000
,
0011
0000
1001
0000
0001
0010
0001
0010
0001
0010
0001
1000
0001
0010
0100
0000
,
0000
0000
0110
0000
0000
0000
0001
0010
0001
0010
0001
0010
0100
0010
0100
1000
,
0100
1000
0100
1000
0100
0010
0001
0010
0100
0010
0001
0010
0001
0010
0001
0010
,
0100
0010
0100
0010
0100
0010
0001
0010
0001
1000
0010
1000
0010
1000
0010
0100
,
0010
0100
0001
0100
0001
0100
0001
0100
0010
0100
0010
0100
0010
0100
0001
0100
,
0001
0000
0000
0010
0100
0010
0100
0010
0200
0000
0300
0000
0001
0010
0001
0010
,
0200
0000
0300
0000
0100
0010
0001
1000
0002
0000
0003
0000
0001
0010
0100
0000
,
1001
0110
1001
0110
1001
0110
1001
0000
,
0110
1001
0110
1001
0110
1001
0110
0000
,
0101
1010
0101
1010
0101
1010
0101
0000
,
1010
0101
1010
0101
1010
0101
1010
0000
,
1001
1001
0110
0000
1001
1001
0110
0000
,
1001
1001
0110
0000
1001
1001
0110
0000
,
0101
1010
0101
1010
0101
1010
0101
0000
,
1010
0101
1010
0101
1010
0101
1010
0000
,
1100
0011
1100
0011
1100
0011
1100
0000
,
0011
1100
0011
1100
0011
1100
0011
0000
,
0110
0110
1001
0000
0110
0110
0101
0000
,
1010
1010
0101
0000
1010
0101
0101
0000
,
0220
0000
0330
0000
1000
0000
0000
0000
0001
0000
0000
0000
0010
0000
0000
1000
,
0100
0000
0220
0330
0202
0303
2020
3030
,
0220
0000
0330
0000
0001
0000
0000
0000
0100
0000
0000
0000
0010
0000
0000
0010
,
0100
0000
2002
3003
0220
0330
2002
3003
,
0010
1000
0010
1000
0020
0000
0030
0000
0010
0100
0010
0100
0002
0000
0003
0000
,
0010
0100
0010
0100
0002
0000
0003
0000
0001
1000
0001
1000
0020
0000
1030
0000
,
0010
1000
0100
1000
0001
1000
0001
1000
0001
1000
0100
1000
0100
0010
0100
1000
,
0100
0010
0100
0010
0001
0010
0001
0010
0001
0010
0100
0010
0100
0010
0100
0010
,
0001
0010
0001
0010
0001
0100
0001
0100
0001
0100
0001
1000
0001
1000
0001
1000
,
0002
0000
0000
0000
,
0000
0000
0000
0000
,
0003
0000
0000
0000
;
