#VERSION:0.83;
#TITLE:Little Wings;
#ARTIST:小坂りゆ;
#ARTISTTRANSLIT:Riyu Kosaka;
#GENRE:J-POP;
#MUSIC:Little Wings.ogg;
#BANNER:Little Wings-BN.png;
#BACKGROUND:Little Wings-BG.png;
#CDTITLE:./CDTITLES/DANCE DANCE REVOLUTION EXTREME 3.PNG;
#SAMPLESTART:84.426;
#SAMPLELENGTH:15;
#OFFSET:-0.118;
#BPMS:0=148.028;

//--------------- dance-single - B. M'Rey ----------------
#NOTEDATA:;
#STEPSTYPE:dance-single;
#DESCRIPTION:B. M'Rey;
#CREDIT:B. M'Rey;
#DIFFICULTY:Beginner;
#METER:2;
#RADARVALUES:0,0,0,0,0;
#NOTES:
0000
0000
0000
0000
,
0000
0000
0000
0000
,
0000
0000
0000
0000
,
0000
0000
0000
0000
,
1000
0000
0000
0000
,
0010
0000
0000
0000
,
0100
0000
0000
0000
,
0001
0000
0000
0000
,
0010
0000
0000
0000
,
1000
0000
0000
0000
,
0100
0000
0000
0000
,
0000
0000
0000
0000
,
0001
0000
0000
0000
,
1000
0000
0000
0000
,
0010
0000
0000
0000
,
0100
0000
0000
0000
,
1000
0000
0000
0000
,
0001
0000
0000
0000
,
0010
0000
0100
0000
,
0000
0000
0000
0000
,
0001
0000
0000
0000
,
0010
0000
1000
0000
,
0100
0000
0000
0000
,
0001
0000
0010
0000
,
0100
0000
0000
0000
,
1000
0000
0000
0000
,
0001
0000
0000
0000
,
0100
0000
0000
0000
,
0010
0000
1000
0000
,
0010
0000
0000
0000
,
0100
0000
0001
0000
,
0010
0000
0000
0000
,
0100
0000
0010
0000
,
1000
0000
0000
0000
,
0001
0000
0100
0000
,
1000
0000
0000
0000
,
0010
0000
0100
0000
,
0010
0000
0000
0000
,
1000
0000
0001
0000
,
0100
0000
0000
0000
,
0010
0000
1000
0000
,
0100
0000
0001
0000
,
0010
0000
0100
0000
,
0000
0000
0000
0000
,
1100
0000
0000
0000
,
0110
0000
0000
0000
,
0101
0000
0000
0000
,
1000
0000
0000
0000
,
0010
0000
0000
0000
,
0100
0000
0000
0000
,
0001
0000
0000
0000
,
0000
0000
0000
0000
,
1000
0000
0010
0000
,
0100
0000
0000
0000
,
0001
0000
0000
0000
,
1000
0000
0000
0000
,
0010
0000
0000
0000
,
0100
0000
0001
0000
,
1000
0000
0000
0000
,
0000
0000
0000
0000
,
0010
0000
0000
0000
,
0100
0000
0000
0000
,
0001
0000
0000
0000
,
1000
0000
0000
0000
,
0010
0000
0100
0000
,
0001
0000
1000
0000
,
0100
0000
0000
0000
,
0000
0000
0000
0000
,
0001
0000
0000
0000
,
0100
0000
0000
0000
,
1000
0000
0000
0000
;

//--------------- dance-single - B. M'Rey ----------------
#NOTEDATA:;
#STEPSTYPE:dance-single;
#DESCRIPTION:B. M'Rey;
#CREDIT:B. M'Rey;
#DIFFICULTY:Easy;
#METER:5;
#RADARVALUES:0,0,0,0,0;
#NOTES:
0000
0000
0000
0000
,
0000
0000
0000
0000
,
0000
0000
0000
0000
,
0000
0000
0000
0000
,
1000
0000
0010
0000
,
0100
0000
0000
0000
,
0001
0000
0010
0000
,
1000
0000
0000
0000
,
0100
0000
0010
0000
,
1000
0000
0010
0000
,
0200
0000
0000
0300
,
0000
0000
0000
0000
,
0001
0000
0010
0000
,
0001
0000
0000
0000
,
0100
0000
0010
0000
,
1000
0000
0000
0000
,
0010
0000
0100
0000
,
1000
0000
0001
0000
,
0100
0000
0020
0000
,
0000
0000
0000
0000
0000
0030
0000
0000
,
1000
0000
0100
0000
,
1000
0000
0010
0000
,
0100
0000
0001
0000
,
0010
0100
1000
0100
,
0010
0000
0001
0000
,
1000
0001
0010
0000
,
0100
0000
0010
0000
,
1000
0000
0001
0000
,
0100
0100
0010
0010
,
0001
0000
0000
1000
,
0010
0010
0100
0100
,
1000
0000
0000
0000
,
0001
0010
0100
1000
,
0100
0000
0010
0000
,
1000
0100
1000
0100
,
1000
0000
0000
0001
,
0010
0100
0010
0100
,
0001
0000
0000
1000
,
0010
1000
0010
0100
,
0010
0000
0000
1000
,
0001
1000
0010
0100
,
0010
1000
0100
0001
,
0020
0000
2000
0000
,
3030
0000
0100
0000
,
0001
0010
0000
0000
,
1000
0100
0000
0000
,
0010
0100
0000
0000
,
0001
0000
1000
0000
,
0010
0100
0010
0000
,
0001
0010
1000
0100
,
0020
0000
0000
0000
,
0030
0000
0000
0000
,
1000
0100
1000
0010
,
0200
0000
0300
0001
,
0010
0000
0100
0010
,
0200
0000
0300
0000
,
1000
0100
0000
0001
,
0010
0010
0100
1000
,
0110
0000
0011
0000
,
0101
0000
1100
0000
,
0010
1000
0100
0010
,
0002
0000
0003
0001
,
1000
0010
0000
0100
,
0200
0000
0300
0010
,
1000
0000
0000
0010
0000
0000
0000
0000
,
0100
0000
0000
0001
0000
0000
0010
0000
,
1000
0000
0020
0000
,
0000
0000
0000
0000
0000
0030
0000
0000
,
0100
0000
0000
0000
,
1000
0000
0000
0000
,
0001
0000
0000
0000
,
0100
0000
0000
0000
;

//--------------- dance-single - B. M'Rey ----------------
#NOTEDATA:;
#STEPSTYPE:dance-single;
#DESCRIPTION:B. M'Rey;
#CREDIT:B. M'Rey;
#DIFFICULTY:Medium;
#METER:8;
#RADARVALUES:0,0,0,0,0;
#NOTES:
0000
0000
0000
0000
,
0000
0000
0000
0000
,
0000
0000
0000
0000
,
0000
0000
0000
0000
,
1000
0000
0010
1000
0000
0010
0000
0100
,
0000
0000
0001
0000
0000
0000
0001
0010
,
1000
0000
0000
0010
0000
0000
0100
0001
,
0010
0000
1000
0000
,
0010
0000
0100
0001
0000
0010
0000
1000
,
0010
0000
0100
0000
0010
0000
1000
0001
,
1000
0000
0010
0000
,
0100
0000
0010
0001
,
1000
0000
0010
1000
0000
0100
0000
0010
,
0000
0000
1000
0000
0000
0001
1000
0010
,
0100
0000
0001
0010
0000
0000
1000
0000
,
0200
0000
0000
0000
0300
0010
0000
0100
,
0001
0000
0010
1000
0000
0000
0000
0000
,
0100
0000
0001
0010
0000
0000
1000
0000
,
0100
0000
0000
0010
0200
0000
0000
0000
,
0000
0000
0000
0300
,
0001
0010
0001
0010
,
1000
0100
1000
0010
,
0100
0000
0001
0000
0010
0000
0001
1000
,
0001
1000
0010
0100
,
0010
0000
1000
0000
0001
0000
0100
0001
,
0100
0000
0010
0000
1000
0000
0010
1000
,
0100
0000
0010
0000
1000
0001
0000
0010
,
0000
0100
0001
0000
1000
0001
0000
0000
,
0010
0000
0100
0000
1000
0000
0100
0010
,
2000
0000
3000
0000
0000
0001
0000
0010
,
0100
0001
0010
0100
0000
1000
0100
0010
,
0200
0000
0000
0300
0000
0000
0010
1000
,
0010
0000
0100
0000
0010
0000
0001
2000
,
0000
0000
3000
0000
0000
0010
0000
0100
,
0001
0000
0010
1000
0000
0010
0100
0002
,
0000
0000
0003
0000
0000
0000
0010
1000
,
0100
0000
0010
0000
1000
0000
0010
1000
,
0020
0000
0000
0000
0030
0000
0100
0010
,
0100
0000
0001
0010
0000
0001
0100
0010
,
2000
0000
3000
0010
,
0100
0001
0000
1000
,
0010
0000
0100
0010
0001
0000
1000
0000
,
0010
0000
0000
0220
0000
0000
0000
0000
,
0000
0330
0000
0000
0000
0000
0000
0000
,
0001
0010
0000
1000
0000
0010
0100
0000
,
0001
0010
0000
1000
0000
0100
0010
0000
,
1000
0010
0000
0100
0000
0010
0100
0000
,
0001
1000
0000
0010
0100
0000
0000
0000
,
0001
1000
0010
0000
0100
0000
0000
0000
,
0001
1000
0010
0000
0100
0000
0001
1000
,
0020
0000
0000
0000
,
0030
0000
0000
1000
,
0100
0000
0010
0100
0000
1000
0000
0001
,
0000
0010
0100
0000
0000
0001
0010
0001
,
0010
0000
0000
1000
0000
0000
0010
1000
,
0010
0000
0100
0000
0010
1000
0000
0000
,
0001
0000
0100
0010
0000
1000
0000
0100
,
1000
0000
0010
0000
0100
0000
0001
0010
,
0002
0000
0100
0000
,
1003
0000
0000
0000
0010
0100
0010
0100
,
1000
0000
0100
1000
0000
0100
0000
0020
,
0000
0000
0030
0000
0000
0001
0010
1000
,
0100
0000
0100
0010
0000
0000
1000
0000
,
0200
0000
0000
0000
0300
0001
0100
1000
,
0010
0000
0100
0010
0000
0000
0000
0000
,
0001
0000
1000
0010
0000
0100
0010
0000
,
0001
0000
0000
1000
0002
0000
0000
0000
,
0000
0000
0000
0003
,
1000
0100
0010
0001
0000
0000
0000
0000
,
1000
0100
0010
0001
0000
0000
0000
0000
,
1000
0100
0010
0001
0000
0000
0000
0000
,
1000
0100
0010
0001
0000
0000
0000
0000
;

//--------------- dance-single - B. M'Rey ----------------
#NOTEDATA:;
#STEPSTYPE:dance-single;
#DESCRIPTION:B. M'Rey;
#CREDIT:B. M'Rey;
#DIFFICULTY:Hard;
#METER:11;
#RADARVALUES:0,0,0,0,0;
#NOTES:
0000
0000
0000
0000
,
0000
0000
0000
0000
,
0000
0000
0000
0000
,
0000
0000
0000
0000
0001
1000
0010
0100
,
0010
0000
0010
1000
0000
0100
0000
0010
,
0000
0100
0001
0000
0001
0010
0100
0010
,
0100
0000
0100
0010
0000
0010
0100
0010
,
0002
0010
0010
0013
,
0001
0000
0100
0010
0000
0100
0000
0100
,
0010
0000
0010
0000
0100
1000
0100
1000
,
0010
0000
0001
1000
0001
0000
0100
1000
,
0001
0000
0010
1000
0010
0000
0100
0010
,
0100
0000
0001
0010
0000
1000
0000
0010
,
0000
0010
0001
0000
0001
0100
0001
0100
,
0010
0000
0010
1000
0000
0000
0100
0000
,
0020
0000
0000
0030
0001
0100
0010
1000
,
0010
0000
0010
0100
0000
0100
0000
0100
,
0010
0000
0100
0010
0000
0010
0001
1000
,
0001
0000
0010
0100
0020
0000
1000
0000
,
0001
1000
0001
0130
,
0010
0000
0001
0100
0000
0100
0010
1000
,
0010
0000
0010
0100
1000
0000
0010
1000
,
0010
0000
0010
0000
0001
0000
0001
1000
,
0010
0001
0010
0100
,
0001
0000
0010
1000
0100
0000
0001
0000
,
0001
1000
0001
0000
0100
1000
0001
0000
,
0001
0000
0001
1000
0010
1000
0000
1000
,
0001
0000
0001
0000
0100
1000
0100
0000
,
0001
1000
0100
1000
0100
1000
0001
0100
,
0001
0000
0001
0000
0010
0100
0000
0100
,
0010
1000
0100
1000
0000
0100
0010
0100
,
0000
1000
0100
0000
0100
0000
0001
0010
,
0001
1000
0001
0100
0010
0000
0010
0100
,
0000
0010
0001
0000
0100
0010
0000
1000
,
0010
1000
0010
0100
0000
0100
0001
0100
,
0000
1000
0010
0000
0001
0100
0001
1000
,
0100
0000
0010
0100
0000
0010
0100
0010
,
0100
0000
0001
0000
0010
0000
0001
0010
,
0100
0000
0100
0010
0100
0000
0001
0010
,
0100
0000
1000
0000
0100
0000
0001
0100
,
0010
0000
0010
0100
0000
0010
0001
0000
,
0010
0000
1000
0100
0010
0000
0001
0000
,
0100
0000
0100
0020
0000
0000
0031
0000
,
0100
0000
0010
0000
0100
0000
0001
0010
,
1100
1100
0000
0001
1000
0010
1000
0010
,
0110
0110
0000
0001
1000
0001
0100
0001
,
0110
0110
0000
0010
1000
0001
0010
0100
,
1000
0000
1000
0100
0000
0100
1000
0000
,
0010
0000
0001
0000
0100
0000
0001
0100
0000
0000
0001
0000
1000
0000
0010
0000
,
0100
0000
0010
0000
0100
0000
0010
0000
1000
0000
0001
0000
0010
0000
0001
0020
,
0000
1000
0100
1000
,
0130
0010
1000
0010
0100
0001
0010
0001
,
0010
0000
0010
0001
0000
0100
0000
0010
,
0000
0100
1000
0000
1000
0010
0100
0010
,
0100
0000
0100
0010
0000
0010
0100
0010
,
1000
0000
0010
0001
0010
0000
1000
0000
,
1000
0000
0100
0010
0000
0100
0000
0100
,
0010
0000
0010
0000
0100
0001
0100
0001
,
0010
0000
1000
0001
1000
0000
0100
0001
,
1000
0000
0010
0001
0010
0000
0100
0010
,
0100
0000
1000
0010
0000
0001
0000
0010
,
0000
0010
1000
0000
1000
0100
1000
0100
,
0010
0000
0010
0001
0000
0000
0100
0000
,
0020
0000
0000
0030
1000
0100
0010
0001
,
0010
0000
0010
0100
0000
0100
0000
0100
,
0010
0000
0100
0010
0000
0010
1000
0001
,
1000
0000
0010
0100
0020
0000
0000
0000
,
0000
0000
0000
0030
,
1000
0100
0010
0001
0000
0000
0000
0000
,
0001
0010
0100
1000
0000
0000
0000
0000
,
0010
1000
0001
0100
0010
0000
0000
0000
,
0100
0000
1000
0000
;
