#TITLE:LUCKY;
#SUBTITLE:(DANCE MIX);
#ARTIST:HELEN;
#TITLETRANSLIT:;
#SUBTITLETRANSLIT:;
#ARTISTTRANSLIT:;
#GENRE:;
#CREDIT:;
#MUSIC:Lucky (Dance Mix).ogg;
#BANNER:Lucky (Dance Mix)-bn.png;
#BACKGROUND:Lucky (Dance Mix)-bg.png;
#CDTITLE:./CDTITLES/SAIFAM.PNG;
#SAMPLESTART:31.230;
#SAMPLELENGTH:12.000;
#SELECTABLE:YES;
#OFFSET:-0.479;
#BPMS:0.000=124.988
,127.000=62.494
,135.000=124.988
;
#STOPS:;
#BGCHANGES:;
#FGCHANGES:;

//--------------- dance-single - B. M'Rey ----------------
#NOTES:
     dance-single:
     B. M'Rey:
     Beginner:
     1:
     0.11538,0.143401,0.008241,0,0,98,97,1,0,0,0,0.11538,0.143401,0.008241,0,0,98,97,1,0,0,0:
0000
0000
0000
0000
,
0000
0000
0000
0000
,
0000
0000
0000
0000
,
0000
0000
0000
1000
,
0000
0000
0000
0000
,
0001
0000
0000
0100
,
0100
0100
0000
0010
,
0000
0000
0000
0001
,
0000
0000
0000
0000
,
1000
0000
0000
0100
,
0000
0010
0000
1001
,
0000
0000
0000
0001
,
0000
0000
0100
1000
,
0000
0000
0010
0100
,
0000
0000
0000
0001
,
0000
0000
0000
0000
,
1000
0001
0000
0000
,
0100
0010
0000
0001
,
0001
0001
0000
1000
,
0000
0010
0000
0100
,
0000
0010
0000
0001
,
0001
0001
0000
1000
,
0000
0000
0100
0010
,
0000
0000
0000
0001
,
0000
0000
0000
0010
,
0010
0010
0100
1000
,
0000
0000
0000
0100
,
0000
0000
0000
0001
,
0000
0000
0000
0010
,
0010
0010
0100
1000
,
0000
0000
0000
0100
,
0000
0000
0000
0001
,
0000
0000
0000
0100
,
0000
0000
0000
0010
,
0000
0000
0001
1000
,
0000
0000
0100
1000
,
0000
0000
0010
0100
,
0000
0000
0000
0001
,
0000
0000
0000
0100
,
0000
0000
0000
1000
,
0100
1000
0000
0010
,
0000
0000
0000
0000
,
0001
0010
0000
0000
,
1000
0100
0000
0010
,
0010
0010
0000
0001
,
0000
1000
0000
0010
,
0000
0100
0000
0001
,
0001
0001
0000
1000
,
0000
0000
0000
0010
,
0000
0000
0000
0100
,
1000
0100
0000
0000
,
0001
0010
0000
0100
,
0100
0100
0000
1000
,
0000
0001
0000
0100
,
0000
0010
0000
1000
,
0001
1000
0000
0010
,
0000
0000
0000
0100
,
0000
0000
0000
0001
;

//--------------- dance-single - B. M'Rey ----------------
#NOTES:
     dance-single:
     B. M'Rey:
     Easy:
     2:
     0.188376,0.215102,0.016483,0.008241,0.008241,160,158,2,1,0,0,0.188376,0.215102,0.016483,0.008241,0.008241,160,158,2,1,0,0:
0000
0000
0000
0000
,
0000
0000
0000
0000
,
0000
0000
0000
0000
,
0000
0000
0000
0001
,
1000
0010
0000
0000
,
0010
0100
0000
0100
,
0010
0001
1000
0011
,
0000
0000
0000
0010
,
1000
0010
0000
0000
,
0010
0001
0000
0001
,
1000
0010
0100
0001
,
0000
0000
0000
0001
,
0000
0010
0000
0000
1000
0000
0010
0000
,
0000
0100
0000
0000
0010
0000
0100
0000
,
0000
1000
0000
0100
0000
0001
0000
0000
,
0000
0000
0000
0100
,
0010
0001
0000
0000
,
1000
0001
0010
0100
,
0010
0001
0100
0010
,
0100
0001
1000
0010
,
0100
0001
0000
0010
,
0100
0001
0000
0001
,
0000
0010
0000
0000
1000
0000
0010
0000
,
0000
1000
0000
0010
0000
0000
0100
0000
,
1000
0001
0000
0100
,
0000
0010
0000
0010
,
1000
0001
0000
0001
,
0010
0001
0000
0010
,
0100
0001
0000
0001
,
0000
1000
0000
0010
,
0100
0010
0000
0001
,
1000
0001
0000
0100
,
0000
0010
0000
0100
,
0000
0000
0000
0000
0000
0010
0000
0000
0000
1000
0000
0000
0100
0000
0000
0000
,
0000
0010
0000
0000
0100
0000
0010
0000
,
0000
1000
0000
0000
0100
0000
0001
0000
,
0000
0100
0000
0000
0010
0000
0002
0000
,
0000
0003
0000
0100
,
0000
0010
0000
0000
0100
0000
0010
0000
,
0000
1000
0000
0000
0010
0000
0001
0000
,
0100
0001
0100
0010
,
0000
0001
0000
0100
,
1000
0100
0000
0000
,
0010
0001
0100
0010
,
0100
0001
1000
0100
,
0010
0100
0010
0001
,
0010
0001
0000
0010
,
1000
0001
0000
0010
,
0000
0001
0000
0000
0010
0000
0001
0000
,
0000
0010
0000
0100
0000
0000
0010
0000
,
0100
0001
0000
0000
,
0100
0001
0100
0010
,
1000
0100
1000
0010
,
1000
0100
0010
0001
,
0010
0001
0000
0100
,
1000
0100
0000
0010
,
0000
0100
0000
0000
1000
0000
0001
0000
,
0000
0010
0000
1000
0000
0000
1001
0000
;

//--------------- dance-single - B. M'Rey ----------------
#NOTES:
     dance-single:
     B. M'Rey:
     Medium:
     6:
     0.315529,0.406303,0.214277,0,0.028845,268,242,26,0,0,0,0.315529,0.406303,0.214277,0,0.028845,268,242,26,0,0,0:
0000
0000
0000
0000
,
0000
0000
0000
0000
,
0000
0000
0000
0000
,
0000
0000
0000
1000
,
0001
0010
0001
0010
,
0001
0010
0001
0000
0000
0000
1001
0000
,
1001
0000
1001
0000
0010
0100
0010
0000
,
0000
0000
0001
1000
,
0001
0010
0001
0010
0000
0000
1000
0000
,
0100
1000
0100
0000
0000
0010
0100
0000
,
0001
0000
1000
0000
0010
0100
1001
0000
,
0000
0000
0000
0001
1000
0000
0001
0000
,
0010
0001
0000
0000
0100
0000
0010
0000
,
1000
0100
0000
0000
0001
0000
0010
0000
,
0001
1000
0000
0001
0000
1001
0000
0000
,
0000
0000
0000
0000
1000
0001
1000
0000
,
0010
0100
0010
1000
0000
0001
0010
0000
,
0001
0010
0001
0000
1000
0100
1000
0000
,
1000
0000
1000
0000
0001
0010
0001
0000
,
0001
0000
0001
0000
0010
0100
1000
0000
,
0001
1000
0001
1000
0000
0000
0010
0100
,
0001
0010
0001
0000
1000
0000
0001
0000
,
0000
0100
0000
0000
0010
0000
1000
0000
,
0000
0100
1000
0100
0000
0000
0001
0000
,
0010
0100
0001
1001
,
1001
1001
1001
0100
,
0010
1000
0000
0001
,
0100
0010
0000
0001
,
1000
0010
0100
1001
,
1001
1001
1001
0010
,
0100
0001
0000
1000
,
0010
0000
0000
0000
0100
0000
0000
0000
0000
0000
0000
0000
0001
0000
0000
0010
,
0000
0000
0001
0000
1000
0000
0000
0100
0000
0000
0010
0000
1000
0000
0000
0001
,
0000
0100
0000
0010
0000
0001
0001
0000
0000
1000
1000
0000
0001
0000
0000
0000
,
0000
0100
0000
0000
0010
0000
1000
0000
,
0100
1000
0000
0000
0010
0000
0100
0000
,
0001
0010
0000
0000
0001
0000
0001
0000
,
1000
0010
0100
1000
,
0000
0010
0000
0000
0100
0000
0001
0000
,
0000
0010
0000
0000
0001
0000
1000
0001
,
1000
0001
1000
0000
0010
0000
0100
0000
,
0000
0001
0010
0001
0000
1000
0100
0000
,
0010
0100
0010
0100
0000
0000
0001
0000
,
0010
0001
0010
0000
1000
0100
1001
0000
,
0110
0000
0101
0000
0010
1000
1010
0000
,
0101
0000
0110
0000
0001
1000
0001
0000
,
0001
0010
0100
1000
0000
0000
0100
0010
,
0100
0010
0100
0000
0001
0000
1000
0000
,
0000
0010
0000
0000
0100
0000
0001
0000
,
0000
0010
0001
0010
0000
1000
0100
0000
,
0001
0010
0001
0010
0000
0000
0100
0000
,
0010
0100
0010
0000
1000
0100
1001
0000
,
0110
0000
0101
0000
0010
1000
1010
0000
,
0110
0000
0101
0000
0001
0010
1000
0000
,
0001
1000
0010
0100
0000
0000
1000
0100
,
1000
0100
1000
0000
0001
0000
0010
0000
,
0000
0100
0000
0000
0001
0000
1000
0000
,
0000
0010
0100
1000
0000
0000
1001
0000
;

//--------------- dance-single - B. M'Rey ----------------
#NOTES:
     dance-single:
     B. M'Rey:
     Hard:
     7:
     0.397944,0.478004,0.354382,0.123622,0.028845,338,295,43,15,0,0,0.397944,0.478004,0.354382,0.123622,0.028845,338,295,43,15,0,0:
0000
0000
0000
0000
,
0000
0000
0000
0000
,
0000
0000
0000
0000
,
0000
0000
0000
1010
,
0010
0100
0001
1000
0000
1000
0100
0000
,
0001
0100
0010
0000
0010
1000
1010
0000
,
1100
0000
0110
0000
0100
1000
0001
0000
,
0100
0010
1000
0100
,
0100
0010
0100
1000
0000
1000
0010
0000
,
0001
0100
0001
0000
0010
0100
0101
0000
,
0101
0000
1010
0000
0001
0010
0001
0000
,
0000
0000
0000
1000
0010
0000
0100
0010
,
0000
1000
0100
0000
0001
0010
0001
0000
,
0100
1000
0000
0100
0001
0000
0001
0100
,
0010
0000
0001
1000
0000
1000
0001
0000
,
0000
0000
0000
0000
0100
0010
0100
0000
,
0100
1000
0100
1000
0001
1000
0100
0000
,
0100
0010
0100
0000
0001
1000
0110
0000
,
0011
0000
0101
0000
0001
0010
1100
0000
,
0011
0000
0100
0000
0001
1000
0001
0000
,
0100
0010
0001
0100
0000
1000
0001
0010
,
0100
1000
0100
0000
0110
0000
0002
0000
,
0103
2000
0000
0000
3001
0000
0110
0000
,
0001
0100
0010
1000
0000
0010
0001
1000
,
0001
0000
0100
0000
0100
0010
0110
0000
,
0011
1100
1100
0100
,
0001
0100
0001
0000
0110
0000
0001
0000
,
0001
0100
0001
0000
0110
0000
0100
0000
,
0001
1000
0001
0000
0001
0000
0110
0000
,
1100
1100
1001
0001
,
0100
1000
0001
0000
1001
0000
0100
0010
,
0100
0000
0000
0000
0110
0000
0000
0000
0001
0000
0000
0000
0002
0000
0000
0013
,
0000
0000
0100
0000
0200
0000
0000
1300
0000
0000
0010
0000
0020
0000
0000
0031
,
0000
0010
0100
1000
0000
1001
1001
0000
0000
0110
0110
0000
0200
0000
0000
0000
,
0301
0020
0000
1030
0001
0000
0002
0000
,
1003
0100
0000
0100
0001
0000
0200
0000
,
0310
0200
0000
0301
0010
0000
1001
0000
,
0010
0000
0010
0100
0010
0000
0002
0000
,
0103
0020
0000
1030
0020
0000
0032
0000
,
1003
0020
0000
1030
0010
0000
0010
1000
,
0010
1000
0100
0000
0010
0000
0010
0000
,
0001
0010
0100
1000
0000
1000
0100
0000
,
0001
0010
0001
0010
0100
0000
0010
0000
,
0001
0010
0100
0000
0010
1000
1100
0000
,
0110
0000
0110
0000
0010
1000
1001
0000
,
0011
0000
0100
1000
0001
1000
0100
0000
,
0001
1000
0001
1000
0000
0100
0010
1000
,
0001
0010
0100
0000
0101
0000
0010
1000
,
0000
1000
0100
0000
0101
0000
0010
0000
,
0010
1000
0010
0100
0000
0100
0010
0000
,
0100
1000
0100
0010
0000
1000
0100
0000
,
0010
0100
0001
0000
0010
0100
0011
0000
,
0110
0000
0101
0000
0010
1000
1010
0000
,
0110
0000
0001
0010
0100
1000
0001
0000
,
0100
1000
0010
1000
0000
1000
0100
0010
,
0100
1000
0100
0000
0010
0000
0010
0000
,
0001
0010
0000
0010
0001
0000
0010
0000
,
0010
0100
0010
1000
0000
0010
0100
0000
;

//--------------- dance-double - B. M'Rey ----------------
#NOTES:
     dance-double:
     B. M'Rey:
     Easy:
     3:
     0.200149,0.239002,0.008241,0,0.008241,170,169,1,0,0,0,0.200149,0.239002,0.008241,0,0.008241,170,169,1,0,0,0:
00000000
00000000
00000000
00000000
,
00000000
00000000
00000000
00000000
,
00000000
00000000
00000000
00000000
,
00000000
00000000
00000000
00010000
,
00100000
01000000
00000000
00001000
,
00010000
01000000
00010000
00000000
00000000
00000000
00100000
00000000
,
01000000
01000000
00010000
10000000
,
00000000
00000000
00000000
00001000
,
00010000
01000000
00000000
00000000
,
00100000
00001000
00000000
00001000
,
00000001
00000000
00001000
00000000
00000100
00000001
00000100
00000000
,
00000000
00000000
00010000
00001000
,
00000000
10000000
00000000
00000000
01000000
00000000
00010000
00000000
,
00000000
00000100
00000000
00000000
00000010
00000000
00000001
00000000
,
00000000
00001000
00000000
00100000
00000000
01000000
00000000
00000000
,
00000000
00000000
00000000
00100000
,
00100000
00001000
00000000
00000000
,
01000000
00010000
00001000
00000100
,
00000100
00000100
00100000
00001000
,
00001000
00000000
00001000
00000000
00100000
00010000
00000100
00000000
,
00000001
00000100
00000000
00010000
,
01000000
00100000
01000000
00001000
,
00000000
00010000
00000000
00000000
00100000
00000000
01000000
00000000
,
00000000
00000000
00000000
00100000
,
01000000
00100000
00000000
00010000
,
10000000
00010000
00000000
00001000
,
00100000
00001000
00000000
00010000
,
00000100
00010000
00000000
00001000
,
00000001
00001000
00000000
00000100
,
00000001
00001000
00000000
00000001
,
00000100
00010000
00000000
00001000
,
00100000
10000000
00000000
01000000
,
00000000
00010000
00000000
00001000
,
00000000
00000000
00000000
00000000
00000000
00010000
00000000
00000000
00000000
00001000
00000000
00000000
00010000
00000000
00000000
00000000
,
00000000
00000000
10000000
01000000
,
00100000
01000000
00000000
00000000
00010000
00000000
10000000
00000000
,
00000000
00010000
00000000
00000000
01000000
00000000
00100000
00000000
,
00000000
00000000
00000000
00001000
,
00000000
01000000
00000000
00000000
00100000
00000000
00010000
00000000
,
00001000
00010000
00000000
00000000
00000000
00000000
00100000
00000000
,
01000000
00001000
00010000
01000000
,
00000000
00100000
00010000
00100000
00000000
00000000
00010000
00000000
,
00001000
00000010
00000000
00000000
,
00000100
00000001
00000010
00000100
,
00000100
00000100
00000010
00001000
,
00001000
00000000
00001000
00000000
00010000
00100000
10000000
00000000
,
00010000
00100000
00000000
00010000
,
10000000
01000000
00000000
00100000
,
00000000
00010000
00000000
00000000
00001000
00000000
00000100
00000000
,
00000000
00000001
00000000
00001000
00000000
00000000
00010000
00000000
,
00001000
00010000
00001000
00000000
,
00010000
10000000
01000000
00100000
,
00100000
00100000
00010000
00001000
,
00001000
00000000
00000100
00000000
00000100
00000010
00000001
00000000
,
00001000
00000100
00000000
00000010
,
00010000
00001000
00000000
00000100
,
00000000
00010000
00000000
00000000
01000000
00000000
10000000
00000000
,
00000000
01000000
00000000
00010000
00000000
00000000
00011000
00000000
;

//--------------- dance-double - B. M'Rey ----------------
#NOTES:
     dance-double:
     B. M'Rey:
     Medium:
     4:
     0.29316,0.358503,0.181312,0,0,249,227,22,0,0,0,0.29316,0.358503,0.181312,0,0,249,227,22,0,0,0:
00000000
00000000
00000000
00000000
,
00000000
00000000
00000000
00000000
,
00000000
00000000
00000000
00000000
,
00000000
00000000
00000000
01000000
,
00001000
00010000
00001000
00010000
00000000
00000000
00100000
00000000
,
00010000
01000000
00100000
00000000
00000000
00000000
00001000
00000000
,
00001000
00000000
00001000
00000000
00010000
00100000
00010000
00000000
,
00000000
00000000
00001000
00000010
,
00000100
00000010
00000100
00000010
00000000
00000000
00000001
00000000
,
00000001
00000010
00000001
00000000
00000000
00000000
00001000
00000000
,
00010000
00000000
00100000
00000000
10000000
00100000
00010000
00000000
,
00000000
00000000
00000000
00100000
01000000
00000000
00010000
00000000
,
00000000
10000000
00000000
00000000
00100000
00000000
00010000
00000000
,
00000000
00000100
00000000
00000000
00001000
00000000
00000010
00000000
,
00000000
00001000
00000000
00000010
00000000
00001000
00000000
00000000
,
00000000
00000000
00000000
00000000
00000001
00000100
00000010
00000000
,
00001000
00000100
00001000
00000100
00000000
00000000
00000000
00000000
,
00000100
00001000
00000100
00000000
00000100
00001000
00000100
00000000
,
00010000
00000000
00000010
00000000
00000100
00001000
00000100
00000000
,
00001000
00000000
00000100
00000000
00010000
00001000
00010000
00000000
,
00100000
01000000
00100000
01000000
00000000
00000000
10000000
01000000
,
10000000
00010000
10000000
00000000
01000000
00000000
00100000
00000000
,
00000000
10000000
00000000
00000000
01000000
00000000
00010000
00000000
,
00000000
00010000
01000000
00100000
00000000
00000000
00011000
00000000
,
01100000
00011000
00000000
00010000
,
00010000
00010000
00100000
00001100
,
00110000
00001100
00000000
00001100
,
00110000
00001100
00000000
00000100
,
00001000
00000100
00000000
00000010
,
00000100
00000001
00001000
00001100
,
00110000
00001100
00000000
00001100
,
00110000
00001100
00000000
00010000
,
00000000
00100000
00000100
00000000
00000000
00001000
00010000
00000000
,
00000000
00000000
00000000
00100000
00000000
00010000
00100000
00000000
,
00000000
00010000
00000000
00000000
01000000
00000000
10000000
00000000
,
00100000
01000000
00000000
00000000
00010000
10000000
00010000
00000000
,
00000000
00100000
00000000
00000000
01000000
00000000
00010000
00000000
,
00100000
00000000
00010000
00001000
00010000
00000000
00001000
00000000
,
00000000
00000100
00000000
00000000
00000010
00000000
00000001
00000000
,
00000100
00001000
00000000
00000000
00000010
00000000
00000010
00000100
,
00000010
00000100
00000010
00000000
00000001
00000000
00001000
00000000
,
00000000
00100000
01000000
00000000
00000000
00010000
00100000
00000000
,
01000000
00100000
01000000
00100000
00000000
00000000
00000000
00000000
,
01000000
10000000
01000000
00000000
00100000
01000000
00010000
00000000
,
00001000
00000000
00000100
00000000
00000010
00000100
00000011
00000000
,
00001100
00000000
00000011
00000000
00000100
00001000
00100000
00000000
,
00100000
01000000
00010000
10000000
00000000
00000000
00100000
00010000
,
00100000
00010000
00100000
00000000
00010000
00000000
00100000
00000000
,
00000000
00001000
00000000
00000000
00000100
00000000
00000010
00000000
,
00000000
00000100
00000010
00000100
00000000
00000010
00000001
00000000
,
00000010
00000100
00000010
00000100
00000000
00000000
00000000
00000000
,
00001000
00010000
00001000
00000000
00100000
10000000
00100000
00000000
,
00010000
00000000
10000000
00000000
01000000
00100000
00110000
00000000
,
11000000
00000000
00110000
00000000
01000000
10000000
00010000
00000000
,
00000001
00001000
00000001
00001000
00000000
00000000
00000010
00000100
,
00001000
00000010
00001000
00000000
00000100
00000000
00001000
00000000
,
00000000
00100000
00000000
00000000
00010000
00000000
00001000
00000000
,
00000000
00010000
00001000
00010000
00000000
00000000
00011000
00000000
;

//--------------- dance-double - B. M'Rey ----------------
#NOTES:
     dance-double:
     B. M'Rey:
     Hard:
     6:
     0.377929,0.454103,0.247243,0,0.028845,321,291,30,0,0,0,0.377929,0.454103,0.247243,0,0.028845,321,291,30,0,0,0:
00000000
00000000
00000000
00000000
,
00000000
00000000
00000000
00000000
,
00000000
00000000
00000000
00000000
,
00000000
00000000
00000000
00010000
,
00010000
10000000
00010000
00100000
00000000
00100000
01000000
00000000
,
00010000
10000000
00010000
00000000
01000000
00100000
01000000
00000000
,
00010000
00000000
01000000
00000000
01000000
00100000
00001000
00000000
,
00001000
00000000
00100000
00000000
01000000
00010000
00100000
00000000
,
00001000
00010000
00001000
01000000
00000000
01000000
00100000
00000000
,
00100000
00010000
00100000
00000000
00001000
01000000
00001000
00000000
,
00010000
00000000
00010000
00000000
00001000
00010000
00000100
00000000
,
00000000
00000000
00000000
00100000
00010000
00000000
00000100
00001000
,
00000100
00001000
00000000
00100000
00001000
00000000
00001000
00010000
,
00001000
00100000
00000000
00010000
00000100
00000000
00000100
00001000
,
00010000
00001000
00000000
00001000
00000100
00000000
00010010
00000000
,
00000000
00000000
00000000
00000000
00000100
00001000
00000010
00000000
,
00000010
00000100
00000010
00001000
00000000
00001000
00000100
00000000
,
00000010
00010000
00001000
00000000
00001000
00000100
00011000
00000000
,
00010010
00000000
00010100
00000000
00000010
00000100
00000001
00000000
,
00001000
00000000
00001010
00000000
00000010
00001000
00000001
00000000
,
00000001
00000100
00000001
00001000
00000000
00001000
00000010
00001000
,
00000001
00000010
00000100
00000000
00000100
00000000
00000001
00000000
,
00000001
00000100
00000000
00000010
00000100
00000000
00001000
00000000
,
00001000
00000100
00000010
00000100
00000000
00010000
00000010
00000000
,
00001000
00010000
00001000
00000100
,
00001000
00000010
00001000
00010100
,
00001010
00001010
00001000
00101000
,
00101000
00000000
00100000
00000000
00010000
00001000
00010000
00000000
,
00100000
00001000
00100000
00010000
,
00001000
00010000
00001000
00010100
,
00010100
00101000
00100000
00110000
,
00101000
00000000
00000000
00000000
00101000
00000000
00000000
00000000
00010000
00000000
01000000
00000000
00010000
00000000
00000000
00100000
,
00000000
00000000
00001000
00000000
00100000
00000000
00000000
00001000
00000000
00000000
00100000
00000000
00010000
00000000
00000000
01000000
,
00000000
00010000
00000000
00100000
00000000
00101000
00101000
00000000
00000000
00101000
00101000
00000000
00001000
00000000
00010000
00000000
,
00000000
00010000
00000000
00010000
00100000
00000000
00010000
00000000
,
00100000
10000000
00000000
10000000
00100000
01000000
00010000
00100000
,
00000000
00100000
00000000
10000000
00100000
00000000
00100000
01000000
,
00100000
00000000
00010000
01000000
00010000
00000000
00010000
01000000
,
00000000
10000000
00000000
10000000
00100000
01000000
00001000
00100000
,
00000000
00100000
00000000
01000000
00001000
00000000
00100000
01000000
,
00100000
00010000
00100000
00000000
00011000
00000000
00001000
00000000
,
00001000
00010000
00100000
00010000
00000000
00010000
00001000
00000000
,
00001000
00100000
00010000
00100000
00000000
01000000
00001000
00000000
,
00000100
00100000
00000100
00000000
00010000
00001000
00011000
00000000
,
00100000
00000000
00110000
00000000
00000100
00100000
00010000
00000000
,
00000100
00000000
00001000
00000000
00010000
00100000
00010000
00000000
,
00010000
00001000
00000100
00001000
00000000
00000000
00001000
00010000
,
00001000
00010000
00001000
00000000
00000110
00000000
00000010
00000100
,
00000000
00010000
00000100
00000000
00001100
00000000
00000010
00000000
,
00000010
00010000
00000010
00000100
00000000
00000100
00001000
00000000
,
00000010
00010000
00000010
00001000
00000000
00010000
00000100
00000000
,
00000010
00001000
00000010
00000000
00000010
00000100
00000101
00000000
,
00001001
00000000
00000011
00000000
00000100
00001000
00000100
00000000
,
00000100
00000000
00000001
00000000
00000001
00000010
00000100
00000000
,
00000100
00001000
00000001
00001000
00000000
00000100
00000010
00001000
,
00000100
00001000
00000100
00000000
00010100
00000000
00000010
00010000
,
00000000
00000100
00000010
00000000
00001100
00000000
00001000
00000000
,
00001000
00010000
00000010
00010000
00000000
00001000
00000010
00000000
;
