#VERSION:0.83;
#TITLE:LOVE♥SHINE '06;
#ARTIST:BeForU;
#TITLETRANSLIT:LOVE LOVE SHINE '06;
#GENRE:HAPPY HARDCORE;
#MUSIC:LOVE SHINE '06.ogg;
#BANNER:LOVE SHINE '06-BN.png;
#BACKGROUND:LOVE SHINE '06-BG.png;
#CDTITLE:./CDTITLES/DANCE DANCE REVOLUTION EXTREME 3.PNG;
#SAMPLESTART:44.878;
#SAMPLELENGTH:15;
#OFFSET:-0.032;
#BPMS:0=181.956;

//--------------- dance-single - B. M'Rey ----------------
#NOTEDATA:;
#STEPSTYPE:dance-single;
#DESCRIPTION:B. M'Rey;
#DIFFICULTY:Beginner;
#METER:4;
#RADARVALUES:0,0,0,0,0;
#NOTES:
0000
0000
0000
0000
,
0000
0000
0000
0000
,
0000
0000
0000
0000
,
0000
1000
0000
1000
,
0000
1000
0000
1000
,
0000
0001
0001
0000
,
0010
0000
0010
0100
,
0100
0000
0000
0110
0000
0000
0000
0000
,
0000
0000
0001
0000
,
1000
0010
0100
0000
,
0001
0000
0010
0000
,
0001
0000
1000
0100
,
1000
0000
0010
0000
,
0100
0000
0010
0100
,
0001
0000
0010
0000
,
1000
0100
1000
0000
,
0010
0000
0100
0000
,
0001
1000
0000
0000
,
0010
0000
0100
0000
,
0010
0000
1000
0100
,
0001
0000
0010
0000
,
0001
0000
1000
0100
,
0010
0000
1000
0000
,
0010
0000
0100
0000
,
0001
0000
1000
0000
,
0010
0000
0100
0000
,
1001
0000
0001
0000
,
0010
0000
1000
0000
,
0010
0000
0100
0000
,
0010
0000
0100
0000
,
0001
0000
1000
0000
,
0010
0100
0001
0000
,
1001
0000
0000
0000
,
0000
0000
0000
0000
,
0010
0000
0100
0000
,
0010
0010
0010
0000
,
1000
0000
0001
0000
,
0100
0100
0100
0000
,
0010
0000
1000
0000
,
0001
0010
0100
0000
,
0010
0000
1000
0000
,
0000
0000
0000
1001
,
0010
0000
0000
0000
,
0100
0000
0000
0000
,
1000
0000
0000
0000
,
0001
0000
0000
0000
,
0010
0000
0001
0000
,
0010
0000
1000
0000
,
0100
0000
1000
0000
,
0010
0000
0100
0000
,
0001
0001
0001
0000
,
1000
1000
1000
0000
,
0100
0100
0100
0000
,
0010
0000
0010
0000
,
0001
1000
0010
0000
,
0001
1000
0010
0000
,
0100
0000
0010
0000
,
0100
0000
1001
0000
,
0010
0000
0010
0000
,
0100
0000
0100
0000
,
0001
0000
1000
0000
,
0010
0000
0100
0000
,
0001
0000
0010
0000
,
0001
0000
0010
0000
,
1000
0000
0100
0000
,
0000
0010
0000
1000
,
0010
0000
0001
0000
,
0010
0000
0001
0000
,
0010
0000
0100
0000
,
0010
0000
1000
0000
,
0001
1000
0001
0000
,
0010
0000
0100
0000
,
0001
0000
0000
0000
,
0000
1000
0010
0100
,
0010
0000
1000
0000
,
0001
1000
0001
0000
,
0010
0000
0100
0000
,
0010
0000
1000
0000
,
0001
0000
0100
0000
,
0010
1000
0100
0000
,
0001
0000
0000
0000
,
1000
0000
0010
0000
,
0100
0000
0010
0000
,
1000
0000
0001
1000
,
1001
0000
0010
0000
,
0010
0010
0010
0000
,
0100
1000
0100
0000
,
0001
0010
0001
1001
;

//--------------- dance-single - B. M'Rey ----------------
#NOTEDATA:;
#STEPSTYPE:dance-single;
#DESCRIPTION:B. M'Rey;
#DIFFICULTY:Easy;
#METER:8;
#RADARVALUES:0,0,0,0,0;
#NOTES:
0000
0000
0000
0000
,
0000
0000
0000
0000
,
0000
0000
0000
0000
,
0000
1000
0000
1000
,
0000
0001
0000
0001
,
0000
0100
0000
0100
,
0000
0010
0000
0010
,
0000
0000
0000
1001
0000
0000
0000
0000
,
0000
0000
1000
0000
,
0010
0001
0100
0000
,
0010
1000
0010
1000
,
0010
0100
0001
1000
,
0001
1000
0001
0010
,
0100
1000
0100
0010
,
0100
0010
0001
0010
,
0001
1000
0001
1000
,
0010
0100
0010
0100
,
0010
1000
0000
0000
,
0100
0010
0001
0010
,
0001
0010
0100
1000
,
0100
1000
0100
0010
,
0001
1000
0001
1000
,
0001
0010
0100
0010
,
0100
0010
0001
0100
,
0010
0100
0010
0100
,
0001
0000
1000
0000
,
1010
0000
0110
0000
,
0101
0000
1001
0000
,
1000
1000
0001
0001
,
1000
1000
0001
0001
,
1010
0000
0110
0000
,
0101
0000
0001
0010
,
1000
0000
0100
0000
,
2002
0000
0000
3003
,
0001
1000
0001
1000
,
0001
0010
0100
0110
,
0100
0010
0001
0100
,
0001
0100
0001
1000
,
0100
1000
0100
1000
,
0001
0100
0001
0000
,
0001
1000
0010
0100
,
0000
0001
0000
1000
,
0001
0000
1000
0000
,
0010
0000
0100
0000
,
0001
0000
0010
0000
,
0001
0000
0100
0000
,
0100
1000
0010
1000
,
0100
0010
0001
0100
,
0001
1000
0010
1000
,
0100
0010
0001
1000
,
0001
1000
0001
1000
,
0001
0100
0010
0100
,
0010
1000
0010
1000
,
1001
1010
1001
0011
,
0001
1000
0100
1000
,
0100
1000
0001
0100
,
0010
0100
0010
1000
,
0010
0100
0002
0000
,
1003
0000
0100
0000
,
0001
0000
1000
0000
,
0010
0100
0001
1000
,
0010
0100
0001
0000
,
1000
0000
0010
0000
,
0010
0000
0100
0000
,
0001
0100
0010
0000
,
1000
0100
0010
1000
,
0001
0000
1000
0000
,
0100
0001
0100
0000
,
0100
0000
0001
0000
,
1000
0000
0010
0000
0100
0000
1000
0000
0000
0001
0000
0000
,
0100
0010
0001
0100
,
0001
0100
0010
0100
,
0001
0010
0001
0010
,
0001
0100
0010
1000
,
0001
0100
0010
1000
,
0001
1000
1001
0010
,
0100
1100
0100
0110
,
0100
1010
0010
1001
,
0001
0010
0001
0010
,
0001
1000
0100
0010
,
0100
1000
0100
1000
,
0001
0010
0100
0010
,
0001
0100
0001
0010
,
0100
1000
0001
1000
,
1001
1000
1001
0010
,
1001
0011
0110
1000
,
0100
0010
1000
0001
,
0010
0100
0001
1000
;

//--------------- dance-single - B. M'Rey ----------------
#NOTEDATA:;
#STEPSTYPE:dance-single;
#DESCRIPTION:B. M'Rey;
#DIFFICULTY:Medium;
#METER:11;
#RADARVALUES:0,0,0,0,0;
#NOTES:
0000
0000
0000
0000
,
0000
0000
0000
0000
,
0000
0000
0000
0000
,
0000
0100
1000
0001
,
0100
0001
1000
0010
,
1000
0010
1000
0100
,
0010
0100
1000
0100
,
1000
0010
0100
0010
,
0100
1000
0001
0010
0100
0000
0001
0000
,
1000
0010
0100
0001
1000
0000
0000
0000
,
0010
0100
0010
0001
,
0100
0001
0010
0000
0100
1000
0001
0000
,
1000
0001
0100
0010
,
1000
0000
0100
0001
1000
0000
0010
1000
,
0100
0010
0100
0001
,
1000
0000
0010
0001
1000
0000
0010
0000
,
0100
0000
0010
1000
0100
0000
0001
0000
,
0100
0001
0010
0000
1000
0000
0100
0000
,
1000
0000
0100
0001
0010
0000
0100
0000
,
1000
0010
0001
1000
0010
0001
0100
0010
,
1000
0000
0010
0100
1000
0000
0100
0000
,
1000
0010
0100
0010
,
0100
1000
0001
0000
1000
0001
0010
0000
,
0100
0000
0001
0000
0100
1000
0001
0010
,
1000
0000
0100
0010
0000
0100
0000
0001
,
0000
0100
0100
0010
0010
0000
0001
0000
,
0010
1000
0001
0000
1000
0010
0001
0000
,
1000
0010
0100
0000
1000
0001
0100
0000
,
0010
0001
1000
0100
,
1000
0100
1000
0010
,
0100
0001
0010
0000
1000
0100
0001
0000
,
1000
0010
0100
0000
0010
1000
0100
0000
,
0010
0001
0100
0001
,
0020
0000
0000
0000
,
1030
0100
0001
0000
0010
0001
0100
0000
,
1000
0010
0001
0000
0010
0000
0110
0000
,
1000
0001
0010
0000
0100
1000
0010
0000
,
1000
0100
0001
0000
0010
0000
0001
0000
,
0100
1000
0001
0000
0100
0001
0010
0000
,
1000
0100
0010
0000
0100
0001
0010
0000
,
0100
1000
0000
0010
0100
0000
0100
0010
,
0000
1000
0001
1000
0001
0000
0010
0000
,
0100
0001
1000
0001
,
1000
0010
0100
0010
,
0100
0001
0100
0010
,
1000
0001
0010
0001
,
0100
1000
0001
0000
0010
0001
0100
0000
,
1000
0010
0001
0000
0100
1000
0010
0000
,
1000
0100
0001
0000
0010
1000
0001
0000
,
0010
0100
0001
0000
1000
0001
0100
0000
,
1000
0000
0100
0000
0010
1000
0001
0000
,
0100
0000
0010
0000
1000
0001
0100
0000
,
1000
0000
0001
0000
0100
1000
0010
0000
,
0110
1001
1100
0110
,
0010
0001
0100
0000
1000
0000
0010
0100
,
1000
0001
0010
0000
0100
0000
0001
0000
,
0010
0001
0100
0001
,
1000
0100
0020
0000
,
0130
0010
0100
0001
,
0010
0100
0010
0100
,
1000
0010
1000
0100
,
0010
0000
0000
0001
0000
0000
0010
0000
1000
0000
0000
0000
0001
0000
0000
0000
,
0010
0100
1000
0100
,
1000
0010
0100
0001
,
1000
0001
2000
0000
,
3000
0001
1000
0100
,
0010
0001
0100
0010
,
0100
0000
0000
0001
0000
0000
1000
0000
0010
0000
0000
0000
0100
0000
0000
0000
,
0010
0100
0010
0001
,
1000
0000
0100
0000
1000
0000
0100
0000
0000
0100
0000
0000
,
0010
0001
0100
0000
1000
0010
0001
0000
,
0100
1000
0001
0000
0100
0010
0001
0000
,
0010
0100
0010
0001
,
1000
0000
0100
0001
0010
0000
0100
0000
,
1000
0010
0001
0000
1000
0100
0010
0000
,
1000
0010
1100
0001
,
1000
0110
1000
0110
,
0100
0110
1000
0110
,
0010
0000
0100
0001
1000
0000
0010
1000
,
0100
0000
0010
1000
0100
0000
0001
0000
,
0100
0010
1000
0010
,
0100
0001
0100
0010
,
0100
0000
0010
0001
1000
0000
0001
0010
,
0100
0000
0010
0100
1000
0000
0001
0000
,
1001
0001
0110
0010
,
0101
0101
0101
0010
,
1000
0000
0001
0000
1000
0001
0010
0000
,
0100
0001
0010
1000
0000
1000
0001
0000
;

//--------------- dance-single - B. M'Rey ----------------
#NOTEDATA:;
#STEPSTYPE:dance-single;
#DESCRIPTION:B. M'Rey;
#DIFFICULTY:Hard;
#METER:14;
#RADARVALUES:0,0,0,0,0;
#NOTES:
0000
0000
0000
0000
,
0000
0000
0000
0000
,
0000
0000
0000
0000
,
0000
0000
0011
0000
0001
1000
1100
0000
,
0001
0100
1010
0000
0001
0010
1100
0000
,
0100
1000
0001
1000
0010
0000
0001
1000
,
0020
0000
0001
0000
0130
0100
0010
1000
,
0200
0000
0010
0000
0301
0100
0001
0010
,
0000
0010
0100
1000
0010
0000
0010
1000
,
0010
0100
0001
0100
0020
0000
0100
0000
,
0031
0010
0100
0000
0001
1000
0010
0000
,
0100
0010
0001
0010
0001
1000
0100
1000
,
0010
0000
0001
0100
0001
0000
0001
1000
,
0100
0000
0100
1000
0010
0100
0001
1000
,
0100
0000
0001
0100
0010
0000
0001
0000
,
0001
1000
0001
0000
0010
0000
1000
0000
,
0001
1000
0100
1000
0001
0000
0100
1000
,
0100
1000
0001
0000
0100
0010
0100
0010
,
1100
0000
0010
1000
1001
0000
0001
0000
,
0010
0100
0010
1000
0010
0100
0001
1000
,
0011
0000
0100
1000
0101
0000
0010
0000
,
0010
1000
0110
0000
0101
0000
1010
0000
,
0001
1000
0001
1000
0010
0000
0001
0100
,
0001
1000
0100
0010
0001
1000
0100
1000
,
0100
0000
0010
0100
0000
0100
0001
0010
,
0000
0011
0101
0110
1001
0000
1001
0000
,
0100
0010
0100
0000
0001
0100
0010
0000
,
0010
0100
0001
0000
0100
1000
0100
0000
,
0100
0010
1001
0000
0001
0100
0110
0000
,
0010
0100
0011
0000
0100
1000
1001
0000
,
0010
0000
0100
0010
0100
0000
0100
1000
,
0010
0000
0010
0000
0001
1000
0010
1000
,
1010
0101
1001
1001
,
0220
0000
0000
0330
,
0001
1000
0010
0100
0000
0010
0100
1000
,
0000
1000
0010
0000
0001
0000
1001
0000
,
0001
0010
0100
0010
0000
1000
0001
1000
,
0000
1000
0010
0100
1010
0000
0110
0000
,
0001
1000
0010
1000
0000
1000
0001
0010
,
0000
0010
0100
0010
0001
0000
0011
0000
,
0100
1000
0010
1000
0100
0000
0100
1000
,
0000
0110
0011
0101
1100
1000
0010
0000
,
0001
1000
0010
1000
0000
0010
0000
0100
,
0000
1000
0100
0010
0000
1000
0001
1000
,
0100
0000
0100
0010
0000
1000
0000
0100
,
0000
1000
0001
0010
0001
0100
0001
0010
,
0100
0000
0001
0100
0000
0100
0000
1000
,
0000
1000
0001
0010
0000
0010
0001
0010
,
0100
0000
0010
0100
0000
0101
0000
0010
,
0100
0000
0010
0000
0001
0000
0010
0001
0100
0000
1000
0000
0001
0000
0100
0010
,
0001
1100
0000
1000
0001
0100
0001
0011
,
0000
0110
0000
1000
0100
0010
0001
0110
,
0000
0110
0000
1000
0001
1000
0001
0010
,
0101
1010
0110
1001
,
0001
0100
0010
0100
0000
1000
0001
0100
,
0001
1000
0001
0010
1100
0000
1010
0000
,
0010
0100
0010
0100
0001
1000
0001
1000
,
0010
0100
0001
0100
0020
0000
0000
0000
,
0031
0000
0001
0100
0010
0000
0001
0000
,
0010
1000
0100
0000
0010
0000
0100
0000
,
0010
1000
0100
0000
0100
1000
0001
0000
,
0001
0000
0000
0100
0000
0000
0010
0000
0001
0000
0000
0000
0100
0000
0000
0000
,
0010
0000
0001
0010
0001
0000
0100
0010
,
0001
0010
0001
0100
,
1000
0000
0100
0010
0001
0000
0010
0000
,
0001
1010
1010
0110
,
1001
0000
0100
1000
0001
0000
0001
0010
,
0001
0000
0000
0010
0000
0000
0100
0000
0010
0000
0000
0000
0001
0000
0010
0000
,
0001
0000
0001
0010
0100
0000
0100
0010
,
0001
0000
0000
0000
0100
0000
0000
0000
1000
0000
0000
0000
0100
0000
0000
1000
0000
0000
0001
0000
0000
0100
0000
0000
,
0010
0000
0001
0100
0010
0000
0001
0100
,
0010
0000
1000
0000
0010
0100
0001
1000
,
0001
0100
0001
1000
0010
0100
0010
0100
,
0001
0100
1010
0000
0110
0000
0011
0000
,
0100
1000
0110
0000
0100
0010
1001
0000
,
0010
0000
0000
0100
0000
0000
0010
0000
0110
0000
0000
0000
0001
0000
1000
0000
,
0100
1000
1010
0000
0100
0010
1001
0000
,
0010
1000
1010
0000
0100
0010
1100
0000
,
0001
0100
0010
0100
0001
1000
0100
1000
,
0010
0100
0010
0100
0001
0010
0001
0100
,
0010
0100
0001
0010
0100
1000
0010
0100
,
0001
0010
0100
0010
0001
0010
0100
1000
,
0101
0000
0010
0100
1010
0000
0010
0100
,
1001
0000
0100
0010
0001
0000
0100
0000
,
1100
0000
0010
0100
1010
0000
0100
0010
,
0101
0000
0110
0000
1010
0000
0100
0010
,
0110
0000
0110
0000
0101
0110
0011
0000
,
0110
1001
0110
1001
0000
0011
1100
0000
;
