#TITLE:LLEGA LA NOCHE;
#SUBTITLE:;
#ARTIST:BANDANA;
#TITLETRANSLIT:;
#SUBTITLETRANSLIT:;
#ARTISTTRANSLIT:;
#GENRE:;
#CREDIT:;
#MUSIC:Llega la noche.ogg;
#BANNER:Llega la noche-bn.png;
#BACKGROUND:Llega la noche-bg.png;
#CDTITLE:./CDTITLES/LICENSED MUSIC.png;
#SAMPLESTART:60.658;
#SAMPLELENGTH:12.000;
#SELECTABLE:YES;
#OFFSET:-0.123;
#BPMS:0.000=123.030;
#STOPS:;
#DISPLAYBPM:123.000;
#BGCHANGES:-0.500=Llega la noche.avi=1.000=1=0=1===CrossFade==,
99999.000=-nosongbg-=1.000=0=0=0=StretchNoLoop====
;
#FGCHANGES:;

//--------------- dance-single - B. M'Rey ----------------
#NOTES:
     dance-single:
     B. M'Rey:
     Beginner:
     1:
     0.136121,0.200975,0.157063,0.052354,0.026177,91,76,15,5,0,0,0.136121,0.200975,0.157063,0.052354,0.026177,91,76,15,5,0,0:
0000
0000
0000
0000
,
0000
0000
0000
0000
,
0010
0000
0000
0000
,
1000
0000
0000
0000
,
0001
0000
0000
0000
,
0100
0000
0000
0000
,
0010
0000
0000
0000
,
2000
0000
0000
0000
0000
0000
0000
0000
0000
0000
0000
0000
0000
0000
0000
0000
0000
0000
0000
0000
0000
0000
0000
0000
0000
0000
0000
0000
0000
0000
0000
0000
0000
0000
0000
0000
0000
0000
0000
0000
0000
0000
0000
0000
0000
0000
0000
0000
0000
0000
0000
0000
0000
0000
0000
0000
0000
0000
0000
0000
0000
0000
0000
0000
0000
0000
0000
0000
0000
0000
0000
0000
0000
0000
0000
0000
0000
0000
0000
0000
0000
0000
0000
0000
0000
0000
0000
0000
0000
0000
0000
3000
0000
0000
0000
0000
,
0000
0000
0000
0000
,
0001
0000
0001
0000
0000
0000
0000
0100
,
0000
0000
0000
0000
,
0010
0000
0010
0000
0000
0000
0000
1000
,
0000
0000
0000
0000
,
0001
0001
0000
0000
,
0100
0000
0010
0000
,
1000
0000
0001
0000
,
0100
0000
0010
0000
,
0110
0110
0000
0000
,
0001
0000
1000
0000
,
0011
0011
0000
0100
,
0000
0010
0000
0000
,
1001
1001
0000
0010
,
0000
0100
0000
0000
,
0001
0001
1000
1000
,
0002
0000
0000
0000
,
0100
0000
0000
0000
0000
0003
0000
0000
0000
0000
0000
0000
0000
0000
0000
0000
0000
0000
0000
0000
0000
0000
0000
0000
0000
0000
0000
0000
0000
0000
0000
0000
0000
0000
0000
0000
0000
0000
0000
0000
0000
0000
0000
0000
0000
0000
0000
0000
0000
0000
0000
0000
0000
0000
0000
0000
0000
0000
0000
0000
0000
0000
0000
0000
0000
0000
0000
0000
0000
0000
0000
0000
0000
0000
0000
0000
0000
0000
0000
0000
0000
0000
0000
0000
0000
0000
0000
0000
0000
0000
0000
0000
0000
0000
0000
0000
0000
0000
0000
0000
0000
0000
0000
0000
0000
0000
0000
0000
0000
0000
0000
0000
0000
0000
0000
0000
0000
0000
0000
0000
0000
0000
0000
0000
0000
0000
0000
0000
0000
0000
0000
0000
0000
0000
0000
0000
0000
0000
0000
0000
0000
0000
0000
0000
0000
0000
0000
0000
0000
0000
0000
0000
0000
0000
0000
0000
0000
0000
0000
0000
0000
0000
0000
0000
0000
0000
0000
0000
0000
0000
0000
0000
0000
0000
0000
0000
0000
0000
0000
0000
0000
0000
0000
0000
0000
0000
0000
0000
0000
0000
0000
0000
,
0010
0000
0000
0000
,
1000
0000
0000
0000
,
0001
0000
0000
0000
,
0100
0000
0010
0000
,
1000
0000
0000
0000
0000
0000
0000
0000
0000
0000
0000
0000
0000
0000
0000
0000
0000
0000
0000
0000
0000
0000
0000
0000
0000
0000
0000
0000
0000
0000
0000
0000
0000
0000
0000
0000
0000
0000
0000
0000
0000
0000
0000
0000
0000
0000
0000
0000
0000
0000
0000
0000
0000
0000
0000
0000
0000
0000
0000
0000
0000
0000
0000
0000
0000
0000
0000
0000
0000
0000
0000
0000
0000
0000
0000
0000
0000
0000
0000
0000
0000
0000
0000
0000
0000
0000
0000
0000
0000
0000
0000
0000
0000
0000
0000
0000
0000
0000
0000
0000
0000
0000
0000
0000
0000
0000
0000
0000
0000
0000
0000
0000
0000
0000
0000
0000
0000
0000
0000
0000
0002
0000
0000
0000
0000
0000
0000
0000
0000
0000
0000
0000
0000
0000
0000
0000
0000
0000
0000
0000
0000
0000
0000
0000
0000
0000
0000
0000
0000
0000
0000
0000
0000
0000
0000
0000
0000
0000
0000
0000
0000
0000
0000
0000
0000
0000
0000
0000
0000
0000
0000
0000
0000
0000
0000
0000
0000
0000
0000
0000
0000
0003
0000
0000
0000
0000
0000
0000
0000
0000
0000
0000
,
0000
0000
0000
0000
,
0010
0000
0010
0000
0000
0000
0000
0100
,
0000
0000
0001
0000
,
0001
0001
0000
1000
,
0000
0000
0010
0000
,
0100
0100
0000
0010
,
0000
1001
0000
0000
,
0000
1001
0000
0000
,
1001
0000
0000
0000
,
0110
0110
0000
0001
,
0000
0000
1000
0000
,
0011
0011
0000
0100
,
0000
0000
0010
0000
,
1000
1010
0000
0100
,
0000
0001
0000
0000
,
0001
0001
1000
1000
,
2002
0000
0000
0000
0000
0000
0000
0000
0000
0000
0000
0000
0000
0000
0000
0000
0000
0000
0000
0000
0000
0000
0000
0000
0000
0000
0000
0000
0000
0000
0000
0000
0000
0000
0000
0000
0000
0000
0000
0000
0000
0000
0000
0000
0000
0000
0000
0000
0000
0000
0000
0000
0000
0000
0000
0000
0000
0000
0000
0000
0000
0000
0000
0000
0000
0000
0000
0000
0000
0000
0000
0000
0000
0000
0000
0000
0000
0000
0000
0000
0000
0000
0000
0000
0000
0000
0000
0000
0000
0000
0000
0000
0000
0000
0000
0000
0000
0000
0000
0000
0000
0000
0000
0000
0000
0000
0000
0000
0000
0000
0000
0000
0000
0000
0000
0000
0000
0000
0000
0000
0000
0000
0000
0000
0000
0000
0000
0000
0000
0000
0000
0000
0000
0000
0000
0000
0000
0000
0000
0000
0000
0000
0000
0000
0000
0000
0000
0000
0000
0000
0000
0000
0000
0000
0000
0000
0000
0000
0000
0000
0000
0000
0000
0000
0000
0000
0000
0000
0000
0000
0000
0000
0000
0000
0000
0000
0000
0000
0000
0000
0000
0000
0000
0000
0000
0000
0000
3000
0000
0003
0000
0000
;

//--------------- dance-single - B. M'Rey ----------------
#NOTES:
     dance-single:
     B. M'Rey:
     Easy:
     2:
     0.180997,0.303132,0.178005,0.062825,0.015706,121,104,17,6,0,0,0.180997,0.303132,0.178005,0.062825,0.015706,121,104,17,6,0,0:
0000
0000
0000
0000
,
0000
0000
0000
0000
,
0010
0000
0100
0000
,
0001
0001
0001
0000
,
1000
1000
1000
0000
,
0010
0100
0100
0000
,
0001
0000
1000
0000
,
0020
0000
0000
0000
0000
0000
0000
0000
0000
0000
0000
0000
0000
0000
0000
0000
0000
0000
0000
0000
0000
0000
0000
0000
0000
0000
0000
0000
0000
0000
0000
0000
0000
0000
0000
0000
0000
0000
0000
0000
0000
0000
0000
0000
0000
0000
0000
0000
0000
0000
0000
0000
0000
0000
0000
0000
0000
0000
0000
0000
0000
0000
0000
0000
0000
0000
0000
0000
0000
0000
0000
0000
0000
0000
0000
0000
0000
0000
0000
0000
0000
0000
0000
0000
0000
0030
0000
0000
0000
0000
0000
0000
0000
0000
0000
0000
,
0100
0000
0000
0000
,
0001
0000
0001
0000
0000
0000
0000
1000
,
0000
0010
0000
0100
,
0010
0000
0010
0000
0000
0000
0000
1000
,
0000
0100
0000
0001
,
0010
0000
0010
0000
0000
0001
0000
0000
,
1000
0000
0000
0000
,
0001
0000
0000
0000
,
1000
0000
0001
0000
,
0110
0110
0000
0001
,
0000
1000
0000
0010
,
0110
0110
0000
0001
,
0000
0010
0000
1000
,
1100
1100
0000
0010
,
0000
0001
0000
0100
,
0011
0011
1100
1100
,
0220
0000
0000
0000
0000
0000
0000
0000
0000
0000
0000
0000
0000
0000
0000
0000
0000
0000
0000
0000
0000
0000
0000
0000
0000
0000
0000
0000
0000
0000
0000
0000
0000
0000
0000
0000
0000
0000
0000
0000
0000
0000
0000
0000
0000
0000
0000
0000
0000
0330
0000
0000
0000
0000
0000
0000
0000
0000
0000
0000
0000
0000
0000
0000
,
0001
0000
1000
0000
,
0010
0000
0100
0000
,
0010
0000
0001
0000
,
1000
0010
0100
0000
,
0001
0000
0010
0000
,
0200
0000
0000
0000
0000
0000
0000
0000
0000
0000
0000
0000
0000
0000
0000
0000
0000
0000
0000
0000
0000
0000
0000
0000
0000
0000
0000
0000
0000
0000
0000
0000
0000
0000
0000
0000
0000
0000
0000
0000
0000
0000
0000
0000
0000
0300
0000
0000
0000
0000
0000
0000
0000
0000
0000
0000
0000
0000
0000
0000
0000
0000
0000
0000
,
0010
0000
0000
0000
,
0001
0000
1000
0000
,
0010
0000
0100
0010
,
0001
0000
1000
0000
,
0010
0000
0100
0010
,
1000
0000
0010
0000
,
0001
0000
0100
0000
,
0010
0000
1000
0000
,
0020
0000
0000
0030
,
0110
0110
0000
0001
,
0000
0010
0000
1000
,
1100
1100
0000
0010
,
0000
0100
0000
0001
,
0011
0011
0000
0100
,
0000
0010
0000
1000
,
0100
1000
0010
0100
,
0002
0000
0000
0000
,
0010
0013
0000
0000
;

//--------------- dance-single - B. M'Rey ----------------
#NOTES:
     dance-single:
     B. M'Rey:
     Medium:
     6:
     0.281218,0.328393,0.178005,0.062825,0.026177,188,171,17,6,0,0,0.281218,0.328393,0.178005,0.062825,0.026177,188,171,17,6,0,0:
0000
0000
0000
0000
,
0000
0000
0000
0000
,
1000
0100
0010
0001
,
0010
0000
0001
0010
0100
1000
0000
0000
,
0010
0100
0001
0010
,
0001
0000
1000
0100
0010
0001
0000
0000
,
0001
0010
0100
2000
,
0000
0000
0000
0000
0000
0000
0000
0000
0000
0000
3000
0000
,
0000
0001
0010
0100
,
0010
1000
0000
0000
,
0000
0001
0010
0100
,
0010
0000
0001
0000
0000
0000
0000
1000
,
0000
0010
0100
0001
,
0010
0000
0100
0000
0000
1000
0000
0000
,
0010
0001
0100
0010
,
1000
0100
1000
0010
,
0001
0010
0100
0010
,
0110
0110
0000
0001
,
0010
1000
0100
1000
,
0110
0110
0000
0001
,
0010
0001
0010
1000
,
0110
0110
0000
1000
,
0100
1000
0010
0001
,
0001
0010
0100
1000
,
0220
0000
0000
0000
0000
0000
0000
0000
0000
0000
0000
0000
0000
0000
0000
0000
0000
0000
0000
0000
0000
0000
0000
0000
0000
0000
0000
0000
0000
0000
0000
0000
0000
0000
0000
0000
0000
0000
0000
0000
0000
0000
0000
0000
0000
0000
0000
0000
0000
0000
0000
0000
0000
0000
0000
0000
0000
0000
0000
0000
0000
0000
0000
0000
0000
0000
0000
0000
0000
0000
0000
0000
0000
0000
0000
0000
0000
0000
0000
0000
0000
0000
0000
0000
0000
0000
0000
0000
0000
0000
0000
0000
0000
0000
0000
0000
0000
0000
0000
0000
0000
0000
0000
0000
0000
0000
0000
0000
0000
0000
0000
0000
0000
0000
0000
0000
0000
0000
0000
0000
0000
0000
0000
0000
0000
0000
0000
0000
0000
0000
0000
0000
0000
0000
0000
0000
0000
0000
0000
0000
0000
0000
0000
0000
0000
0000
0300
0000
0000
0030
0000
0000
0000
0000
0000
0000
0000
0000
0000
0000
0000
0000
0000
0000
0000
0000
0000
0000
0000
0000
0000
0000
0000
0000
0000
0000
0000
0000
0000
0000
0000
0000
0000
0000
0000
0000
0000
0000
0000
0000
0000
0000
,
0001
0010
0001
1000
,
0100
0000
0010
0001
1000
0100
0000
0000
,
0010
0001
0010
1000
,
0100
0000
0010
1000
0100
0010
0000
0000
,
0001
0000
0010
0000
0001
0000
0100
0020
,
0000
0000
0000
0000
0000
0000
0000
0000
0000
0000
0000
0000
0000
0000
0000
0000
0000
0000
0000
0000
0000
0000
0000
0000
0000
0000
0000
0000
0000
0000
0000
0000
0000
0000
0000
0000
0000
0000
0000
0000
0000
0000
0000
0000
0000
0000
0000
0000
0000
0000
0000
0000
0000
0000
0000
0000
0000
0000
0000
0030
0000
0000
0000
0000
,
0000
0001
0010
1000
,
0110
0000
0011
0000
0000
1000
0000
0010
,
0000
0001
0100
0010
0001
1000
0100
0000
,
0010
0000
1000
0000
0000
0100
0000
0010
,
0000
0001
0010
1000
0100
0010
0001
0000
,
0010
0000
1000
0000
0000
0100
0000
0000
,
0010
0000
0001
1000
0010
0100
1000
0000
,
0010
0000
0100
0000
0001
0010
1000
0100
,
0010
0000
0001
0000
0010
1000
0100
0000
,
0010
0110
0000
0001
,
0010
1000
0100
0010
,
0100
0110
0000
0001
,
0010
1000
0100
0010
,
0001
1001
0000
0001
,
0010
0100
1000
0010
,
1000
1001
0001
1001
,
2002
0000
0000
0000
0000
0000
0000
0000
0000
0000
0000
0000
0000
0000
0000
0000
0000
0000
0000
0000
0000
0000
0000
0000
0000
0000
0000
0000
0000
0000
0000
0000
0000
0000
0000
0000
0000
0000
0000
0000
0000
0000
0000
0000
0000
0000
0000
3003
0000
0000
0000
0000
0000
0000
0000
0000
0000
0000
0000
0000
0000
0000
0000
0000
,
1001
1001
0000
0000
;

//--------------- dance-single - B. M'Rey ----------------
#NOTES:
     dance-single:
     B. M'Rey:
     Hard:
     7:
     0.406868,0.429437,0.230359,0.062825,0.031413,272,250,22,6,0,0,0.406868,0.429437,0.230359,0.062825,0.031413,272,250,22,6,0,0:
0000
0000
0000
0000
,
0000
0000
0000
0000
,
1000
0010
0100
0010
0000
0001
0000
0010
,
0000
0100
1000
0100
0010
1000
0010
0100
,
0001
0010
0001
0010
1000
0100
0010
0001
,
0000
0010
0100
1000
0100
0010
0000
0000
,
0001
0010
1000
0100
0010
0001
0010
2000
,
0000
0000
0000
0000
0000
0000
0000
0000
0000
0000
0000
0000
0000
0000
0000
0000
0000
0000
0000
0000
0000
0000
0000
0000
0000
0000
0000
0000
0000
0000
0000
0000
0000
0000
0000
0000
0000
0000
0000
0000
0000
0000
0000
0000
0000
0000
0000
0000
0000
0000
0000
0000
0000
0000
0000
0000
0000
3000
0000
0000
0000
0000
0000
0000
,
0000
0100
0010
0001
1000
0100
0100
0000
,
0010
0000
0000
0000
0001
0000
0000
0000
0000
1000
0000
0000
0000
0000
0100
0000
,
0000
0010
1000
0100
0010
0001
0010
0000
,
0100
0000
0000
0000
0010
0000
0000
0000
0000
0001
0000
0000
0000
0000
1000
0000
,
0000
0010
0100
0001
0010
1000
0100
0000
,
0010
0000
0001
0000
0000
0010
0000
0100
,
1000
0100
0010
0001
0010
0100
1000
0100
,
0010
1000
0100
1000
0010
0100
0001
0010
,
0001
1000
0100
0010
0001
0010
0000
0000
,
0011
0000
1100
0000
0000
0010
0100
0001
,
0010
1000
0100
0010
1000
0001
0000
0000
,
0011
0000
1100
0000
0000
0010
0100
1000
,
0100
0010
0001
0010
1000
0100
0000
0000
,
0110
0000
1001
0000
0000
0010
0100
1000
,
0100
0010
0001
0010
0001
1000
0000
0000
,
0110
0000
0011
0000
0010
1000
0000
0220
,
0000
0000
0000
0000
0000
0000
0000
0000
0000
0000
0000
0000
0000
0000
0000
0000
0000
0000
0000
0000
0000
0000
0000
0000
0000
0000
0000
0330
0000
0000
0000
0000
,
0001
0010
1000
0100
0000
0010
0000
0001
,
0000
0010
0100
1000
0100
0010
0000
0001
,
0010
0100
1000
0100
0010
1000
0000
0010
,
0000
0100
0001
0010
0001
0010
0000
0100
,
1000
0100
0010
0001
0010
1000
0100
0020
,
0000
0000
0000
0000
0000
0000
0000
0000
0000
0000
0000
0000
0000
0000
0000
0000
0000
0000
0000
0000
0000
0000
0000
0000
0000
0000
0000
0000
0000
0000
0000
0000
0000
0000
0000
0000
0000
0000
0000
0000
0000
0000
0000
0000
0000
0000
0000
0000
0000
0000
0000
0000
0000
0000
0000
0000
0000
0000
0000
0000
0000
0000
0000
0000
0000
0000
0000
0000
0000
0000
0000
0000
0000
0000
0000
0000
0000
0000
0000
0000
0000
0000
0000
0000
0000
0000
0000
0000
0000
0000
0000
0000
0000
0000
0000
0000
0000
0000
0000
0000
0000
0000
0000
0000
0000
0000
0000
0000
0000
0000
0000
0000
0000
0000
0000
0000
0000
0000
0000
0000
0000
0000
0000
0000
0000
0000
0000
0000
0000
0000
0000
0030
0000
0000
0000
0000
0000
0000
0000
0000
0000
0000
0000
0000
0000
0000
0000
0000
0000
0000
0000
0000
0000
0000
0000
0000
0000
0000
0000
0000
0000
0000
0000
0000
0000
0000
0000
0000
0000
0000
0000
0000
0000
0000
0000
0000
0000
0000
0000
0000
0000
0000
0000
0000
0000
0000
0000
0000
0000
0000
0000
0000
,
0000
0001
0010
1000
0100
0010
0001
0000
,
0100
0000
0010
0000
0000
0001
0000
0010
,
0000
1000
0100
0010
0001
1000
0010
0000
,
0100
0000
0001
0000
0000
0010
0000
1000
,
0000
0010
0100
0001
0010
1000
0100
0000
,
0010
0000
0001
0000
0000
0010
0000
0100
,
1000
0100
0010
0001
0010
1000
0100
0010
,
0001
1000
0100
0010
0001
0010
1000
0100
,
0010
1000
0100
0010
0001
0010
0001
0000
,
0011
0000
1100
0000
0000
0010
0100
0001
,
0010
1000
0100
0010
0001
0010
0000
0000
,
0011
0000
1100
0000
0000
0010
0100
0001
,
1000
0010
0100
0010
1000
0010
0000
0000
,
0011
0000
1100
0000
0000
0010
0100
0001
,
0010
0001
1000
0100
0010
0001
0000
0000
,
0011
0000
1100
0000
0110
1001
0000
0220
,
0000
0000
0000
0000
0000
0000
0000
0000
0000
0000
0000
0330
0000
0000
0000
0000
,
1001
1001
0000
0000
;
