#TITLE:LET THE BEAT CONTROL YOUR BODY;
#SUBTITLE:(B4 ZA BEAT SPEED MIX);
#ARTIST:2 UNLIMITED;
#TITLETRANSLIT:;
#SUBTITLETRANSLIT:;
#ARTISTTRANSLIT:;
#GENRE:;
#CREDIT:;
#MUSIC:LET THE BEAT CONTROL YOUR BODY (B4 ZA BEAT SPEED MIX).ogg;
#BANNER:LET THE BEAT CONTROL YOUR BODY (B4 ZA BEAT SPEED MIX)-bn.png;
#BACKGROUND:LET THE BEAT CONTROL YOUR BODY (B4 ZA BEAT SPEED MIX)-bg.png;
#CDTITLE:./CDTITLES/DANCEMANIA/SPEED 7.PNG;
#SAMPLESTART:62.724;
#SAMPLELENGTH:12.000;
#SELECTABLE:YES;
#OFFSET:-0.022;
#BPMS:0.000=172.243;
#STOPS:;
#BGCHANGES:;
#FGCHANGES:;

//--------------- dance-single - B. M'Rey ----------------
#NOTES:
     dance-single:
     B. M'Rey:
     Beginner:
     2:
     0,0,0,0,0:
0000
0000
0000
0000
,
0000
0000
0000
0000
,
0000
0000
0000
0000
,
0000
0000
0000
0000
,
1000
0000
1000
0000
,
0001
0000
0001
0000
,
0100
0000
0100
0000
,
0010
0000
0010
0000
,
1001
0000
0000
0000
,
0000
0000
0000
0000
,
0001
0000
0010
0000
,
0001
0000
0100
0000
,
0010
0000
1000
0000
,
0100
0000
0000
0000
,
0001
0000
0010
0000
,
0001
0000
1000
0000
,
0100
0000
0010
0000
,
1000
0000
0000
0000
,
0001
0000
0000
0000
,
1000
0000
0001
0000
,
0100
0000
0010
0000
,
1000
0000
0100
0000
,
1000
0000
0001
0000
,
1001
0000
0010
0000
,
0100
0000
1000
0000
,
0001
0000
0100
0000
,
0010
0000
1000
0000
,
0001
0000
0001
0000
,
1000
0000
1000
0000
,
0010
0000
0010
0000
,
0100
0000
0100
0000
,
0001
0001
0001
0000
,
1000
1000
1000
0000
,
0010
0000
0100
0000
,
0001
0001
0001
0000
,
1000
0000
0001
0000
,
1000
0000
0001
0000
,
1000
0000
0001
0000
,
0100
0010
0100
0000
,
0010
0000
0100
0000
,
0010
0000
0100
0000
,
0010
0000
0100
0000
,
0010
0100
0010
0000
,
1001
0000
0000
0000
,
0100
0000
0100
0000
,
0001
0000
1000
0000
,
0010
0000
0100
0000
,
0001
0000
1000
0000
,
0010
0000
0000
0000
,
0001
0000
1000
0000
,
0010
0000
0100
0000
,
0001
0000
1000
0000
,
0010
0000
0000
0000
,
1000
0000
0001
0000
,
0100
0000
0100
0000
,
1000
0000
1000
0000
,
0001
0000
0001
0000
,
0100
0000
0010
0000
,
1000
0000
0001
0000
,
0010
0000
0001
0000
,
0100
0000
0010
0000
,
1000
0000
0001
0000
,
1001
0000
0000
0000
,
1000
0000
0000
0000
,
1001
0000
0000
0000
;

//--------------- dance-single - B. M'Rey ----------------
#NOTES:
     dance-single:
     B. M'Rey:
     Easy:
     5:
     0,0,0,0,0:
0000
0000
0000
0000
,
0000
0000
0000
0000
,
0000
0000
0000
0000
,
0000
0000
0000
0000
,
0001
1000
0001
1000
,
0001
0010
0100
0010
,
0100
0010
0001
0100
,
0001
0100
0010
0100
,
0010
0000
0010
0000
,
0100
1000
0001
0010
,
0001
0010
0001
1000
,
0100
1000
0010
1000
,
0010
0100
0010
0100
,
0001
0100
0001
0000
,
0001
0100
0010
1000
,
0010
1000
0010
0100
,
0001
0010
0001
0010
,
0001
0100
0010
1000
,
0010
1000
0010
0101
,
0001
0100
0001
1000
,
0001
0010
0100
0010
,
0100
0010
0001
1000
,
0001
1000
0001
0010
,
0100
1000
0100
1000
,
0100
0010
0001
0010
,
0001
0000
0010
0000
0100
0000
1000
0100
,
0000
1000
0000
0100
0000
1000
0000
0100
,
0001
0010
0001
0010
,
0100
1000
0100
0010
,
0001
0010
0001
0010
,
0100
1000
0100
1000
,
0100
0010
0001
0010
,
0001
0010
0100
1000
,
0100
1000
0100
0010
,
0001
0010
0001
0010
,
1100
0000
0011
0000
,
0011
0000
1001
0000
,
0110
0000
0011
0000
,
0100
0010
0100
1000
,
1010
0000
0110
0000
,
0110
0000
0101
0000
,
0011
0000
1001
0000
,
0100
1000
0010
1000
,
0010
0000
0010
0000
,
0100
1000
0001
0010
,
0001
0010
0001
1000
,
0100
1000
0010
1000
,
0010
0100
0010
0100
,
0001
0100
0001
0000
,
0001
0100
0010
1000
,
0010
1000
0010
0100
,
0001
0010
0001
0010
,
0001
0100
0010
1000
,
0010
1000
0010
0101
,
0001
0100
0001
1000
,
0001
0010
0100
0010
,
0100
0010
0001
1000
,
0001
1000
0001
0010
,
0100
1000
0100
1000
,
0100
0010
0001
0010
,
0001
0000
0010
0000
0100
0000
1000
0100
,
0000
1000
0000
0100
0000
1000
0000
0100
,
0001
0100
0010
0100
,
0002
0000
0000
0000
,
0020
0000
0000
0000
,
0000
0000
0000
0000
,
0000
0000
0000
0000
,
0000
0000
0000
0000
,
0000
0000
0000
0000
,
0000
0000
0000
0000
,
0033
0000
0000
0000
;

//--------------- dance-single - B. M'Rey ----------------
#NOTES:
     dance-single:
     B. M'Rey:
     Medium:
     7:
     0,0,0,0,0:
0000
0000
0000
0000
,
0000
0000
0000
0000
,
0000
0000
0000
0000
,
0000
0000
0000
0000
,
0010
0000
0010
0000
0010
1000
0000
0001
,
0000
1000
0000
0100
0000
1000
0001
1000
,
0100
0000
0100
0000
0100
0010
0000
0001
,
0000
0100
0000
0001
0000
0100
0001
0100
,
0001
1000
0001
1000
,
0001
0100
0010
0100
,
0010
0100
0010
0000
0010
0000
0001
1000
,
0000
0100
0000
0010
0000
0010
0100
0010
,
0001
0000
0001
0000
0010
1000
0000
0100
,
0000
0010
0001
0000
0100
1000
0100
1000
,
0010
0000
0010
0000
0100
0000
0001
1000
,
0000
1000
0000
0010
0000
1000
0100
1000
,
0010
0000
0010
0000
0001
0100
0000
1000
,
0001
1000
0010
1000
0010
0000
0010
0000
,
0001
0000
0001
1000
0001
0000
1010
0000
,
0010
0000
0010
0000
0001
0010
0000
1000
,
0000
0010
0000
1000
0000
1000
0001
1000
,
0001
0000
0010
0000
0010
0100
0000
0001
,
0000
1000
0000
0100
0000
1000
0100
1000
,
0010
0000
0010
0000
0010
1000
0000
0001
,
0000
1000
0000
0100
0000
1000
0001
1000
,
0100
0000
0100
0000
0100
0010
0000
0001
,
0000
0100
0000
0001
0000
0100
0001
0100
,
0001
1000
0010
0000
0001
0100
0010
0000
,
0010
1000
0010
0000
0100
1000
0100
0000
,
0100
1000
0001
0000
0001
0010
0001
0000
,
0100
0010
0100
0000
0100
1000
0001
0000
,
0001
0100
0010
0000
0010
0100
0001
0000
,
0001
1000
0010
0000
0010
0100
0010
0000
,
0001
0100
0001
0000
0001
1000
0010
0000
,
0010
0100
0010
0000
0001
0100
0001
0000
,
0100
1000
0100
1000
,
0100
0010
0001
0010
,
0001
0010
0100
1000
,
0100
0010
0100
0000
0001
0100
0001
0000
,
0001
0010
0100
0010
,
0100
0010
0001
1000
,
0001
0010
0001
1000
,
0001
1000
0001
0000
0001
0010
0100
0000
,
0001
1000
0001
1000
,
0001
0100
0010
0100
,
0010
0100
0010
0000
0010
0000
0001
1000
,
0000
0100
0000
0010
0000
0010
0100
0010
,
0001
0000
0001
0000
0010
1000
0000
0100
,
0000
0010
0001
0000
0100
1000
0100
1000
,
0010
0000
0010
0000
0100
0000
0001
1000
,
0000
1000
0000
0010
0000
1000
0100
1000
,
0010
0000
0010
0000
0001
0100
0000
1000
,
0001
1000
0010
1000
0010
0000
0010
0000
,
0001
0000
0001
1000
0001
0000
1010
0000
,
0010
0000
0010
0000
0001
0010
0000
1000
,
0000
0010
0000
1000
0000
1000
0001
1000
,
0001
0000
0010
0000
0010
0100
0000
0001
,
0000
1000
0000
0100
0000
1000
0100
1000
,
0010
0000
0010
0000
0010
1000
0000
0001
,
0000
1000
0000
0100
0000
1000
0001
1000
,
0100
0000
0100
0000
0100
0010
0000
0001
,
0000
0100
0000
0001
0000
0100
0001
0100
,
0010
1000
0100
0010
,
0020
0000
0000
0000
,
2000
0000
0000
0000
,
0000
0000
0000
0000
,
0000
0000
0000
0000
,
0000
0000
0000
0000
,
0000
0000
0000
0000
,
0000
0000
0000
0000
,
3030
0000
0000
0000
;

//--------------- dance-single - B. M'Rey ----------------
#NOTES:
     dance-single:
     B. M'Rey:
     Hard:
     9:
     0,0,0,0,0:
0000
0000
0000
0000
,
0000
0000
0000
0000
,
0000
0000
0000
0000
,
0000
0000
0000
0000
,
0001
0010
0001
0010
0001
0100
0010
0100
,
0001
1000
0001
1000
0001
0100
0010
1000
,
0010
0100
0010
0100
0001
0010
0100
0010
,
0100
0010
0001
0100
0010
1000
0001
0100
,
1010
1010
0110
0110
,
0101
1010
0101
1010
,
0001
1000
0001
1000
0100
1000
0100
0010
,
0100
0000
0010
0000
0001
0000
0010
0000
0001
0000
1000
0001
0000
0100
1000
0000
,
0100
1000
0100
0010
0001
0010
0001
0100
,
0001
0000
1000
0000
0010
0000
1000
0000
0100
0000
1000
0100
0000
0001
0010
0000
,
0100
0010
0001
0010
0100
1000
0100
1000
,
0100
0000
0010
0000
0001
0000
0010
0000
0100
0000
0010
0100
0000
0001
1000
0000
,
0100
0000
1000
0000
0010
0000
1000
0000
0010
0000
0100
0000
0001
0000
0100
0001
,
0100
0000
0100
0000
0010
1000
0010
1000
0010
0000
0010
0100
0000
0001
0010
0000
,
0001
0010
0001
1000
1001
0000
1100
0000
,
0001
1000
0010
1000
0010
1000
0001
0010
,
0001
0010
0001
0100
0010
1000
0001
1000
,
0001
1000
0010
0100
0010
0100
0010
1000
,
0100
1000
0100
1000
0010
0100
0010
0100
,
0010
1000
0001
1000
0001
1000
0010
0100
,
0010
0100
0010
1000
0001
1000
0001
1000
,
0010
0100
0010
0100
0010
1000
0001
0110
,
0000
0101
0000
0011
0000
0100
0010
0001
,
0001
1000
0001
0100
0001
0100
0010
0100
,
0010
1000
0010
1000
0001
1000
0001
0100
,
0001
0100
0010
1000
0010
0100
0010
0100
,
0001
0100
0001
1000
0010
1000
0010
1000
,
0001
0100
0001
0100
0001
1000
0100
1000
,
0100
1000
0001
0100
0001
0100
0001
1000
,
0010
1000
0100
1000
0100
0010
0100
1000
,
0001
1000
0001
1000
0010
0100
0010
0100
,
1001
0000
0110
0000
0001
0010
0001
0000
,
1010
0000
0110
0000
0100
1000
0010
0000
,
0110
0000
0101
0000
0001
0010
0001
0000
,
0010
1000
0100
0010
0001
0010
0100
1000
,
0101
0000
0011
0000
0001
0100
0010
0000
,
1100
0000
1100
0000
0010
0100
0001
0000
,
0110
0000
0011
0000
0001
0100
0010
0000
,
0100
0010
0001
0100
0010
0100
0001
0010
,
1010
1010
0110
0110
,
0101
1010
0101
1010
,
0001
1000
0001
1000
0100
1000
0100
0010
,
0100
0000
0010
0000
0001
0000
0010
0000
0001
0000
1000
0001
0000
0100
1000
0000
,
0100
1000
0100
0010
0001
0010
0001
0100
,
0001
0000
1000
0000
0010
0000
1000
0000
0100
0000
1000
0100
0000
0001
0010
0000
,
0100
0010
0001
0010
0100
1000
0100
1000
,
0100
0000
0010
0000
0001
0000
0010
0000
0100
0000
0010
0100
0000
0001
1000
0000
,
0100
0000
1000
0000
0010
0000
1000
0000
0010
0000
0100
0000
0001
0000
0100
0001
,
0100
0000
0100
0000
0010
1000
0010
1000
0010
0000
0010
0100
0000
0001
0010
0000
,
0001
0010
0001
1000
1001
0000
1100
0000
,
0001
1000
0010
1000
0010
1000
0001
0010
,
0001
0010
0001
0100
0010
1000
0001
1000
,
0001
1000
0010
0100
0010
0100
0010
1000
,
0100
1000
0100
1000
0010
0100
0010
0100
,
0010
1000
0001
1000
0001
1000
0010
0100
,
0010
0100
0010
1000
0001
1000
0001
1000
,
0010
0100
0010
0100
0010
1000
0001
0110
,
0000
0101
0000
0011
0000
0100
0010
1000
,
0101
1010
1001
0110
,
0022
0000
0000
0000
0000
0000
0000
0033
,
0202
0000
0000
0000
,
0000
0000
0000
0000
,
0000
0000
0000
0000
,
0000
0000
0000
0000
,
0000
0000
0000
0000
,
0000
0000
0000
0000
,
0303
0000
0000
0000
;
