#VERSION:0.83;
#TITLE:Kind Lady (Sota Fujimori Future Trance);
#ARTIST:Okuyatos Remixed by SySF.;
#GENRE:TRANCE;
#CREDIT:B. M'Rey;
#MUSIC:Kind Lady (Sota Fujimori Future Trance).ogg;
#BANNER:Kind Lady (Sota Fujimori Future Trance)-bn.png;
#BACKGROUND:Kind Lady (Sota Fujimori Future Trance)-bg.png;
#CDTITLE:./CDTITLES/DANCE DANCE REVOLUTION HOME VERSION.PNG;
#SAMPLESTART:33.88;
#SAMPLELENGTH:15;
#OFFSET:-0.077;
#BPMS:0=142;

//--------------- dance-single - B. M'Rey ----------------
#NOTEDATA:;
#STEPSTYPE:dance-single;
#DESCRIPTION:B. M'Rey;
#CREDIT:B. M'Rey;
#DIFFICULTY:Beginner;
#METER:3;
#RADARVALUES:0,0,0,0,0;
#NOTES:
0000
0000
0000
0000
,
0000
0000
0000
0000
,
0000
0000
0000
0000
,
0000
0000
0000
0000
,
1000
0000
0001
0000
,
0100
0000
0010
0000
,
1000
0000
0100
0000
,
1000
0000
0000
0000
,
0010
0000
0100
0000
,
0001
0000
0010
0000
,
0001
0000
0100
0000
,
0010
0000
0000
0000
,
1000
0000
0010
0000
,
0100
0000
0010
0000
,
0001
0000
0010
0000
,
0100
0000
0000
0000
,
0001
0000
0010
0000
,
0001
0000
0100
0000
,
0010
0000
1000
0000
,
0100
0000
0000
0000
,
0001
0001
0000
0000
,
1000
0000
0010
0000
,
0100
0100
0000
0000
,
1000
0000
0010
0000
,
0100
0100
0000
0000
,
0001
0000
0010
0000
,
0001
0001
0000
0100
,
0100
0000
0000
0000
,
1000
0000
0010
0000
,
0100
0000
0010
0000
,
0001
0001
1000
1000
,
0010
0000
0100
0000
,
0010
0000
0001
0000
,
0100
0100
1000
0000
,
0010
0000
0100
0000
,
0001
0000
0010
0000
,
1001
0000
0101
0000
,
0010
0000
1000
0000
,
1010
0000
0110
0000
,
0010
0000
0100
0000
,
0011
0000
0110
0000
,
1000
0000
0010
0000
,
0110
0000
0101
0000
,
0010
0000
1000
0000
,
1001
0000
0000
0000
;

//--------------- dance-single - B. M'Rey ----------------
#NOTEDATA:;
#STEPSTYPE:dance-single;
#DESCRIPTION:B. M'Rey;
#CREDIT:B. M'Rey;
#DIFFICULTY:Easy;
#METER:6;
#RADARVALUES:0,0,0,0,0;
#NOTES:
0000
0000
0000
0000
,
0000
0000
0000
0000
,
0000
0000
0000
0000
,
0000
0000
0000
0000
,
0001
1000
0010
0000
,
0100
0010
1000
0000
,
0010
0100
0001
0000
,
0010
0000
1000
0000
,
0100
0010
0100
0000
,
0001
0010
1000
0000
,
0100
0010
1000
0000
,
0100
0000
0010
0000
,
0001
0010
0001
0000
,
0100
0000
0010
0000
,
1000
0100
1000
0000
,
0010
0000
0100
0000
,
0010
0001
0010
0000
,
0100
0010
0100
0000
,
1000
0100
1000
0000
,
0010
0000
0100
0000
,
1000
0001
0100
0001
,
0010
0100
0010
0100
,
1000
0001
1000
0001
,
0010
0100
0010
0100
,
1000
0010
1000
0010
,
0100
0001
0100
0001
,
1000
0100
0010
0100
,
1000
0010
1000
0010
,
0100
0000
0001
0010
,
0100
0000
0010
0000
,
1000
0100
1000
0100
,
0010
0000
0010
0000
,
1000
0001
1000
0001
,
0100
0010
0100
0000
,
0010
0001
0010
0000
,
1000
0100
1000
0010
,
0110
0000
0101
0000
,
1000
0001
0100
0010
,
1100
0000
0011
0000
,
1000
0001
0010
0000
,
0011
0000
1100
0000
,
1000
0001
0100
0010
,
1100
0000
0011
0000
,
0010
0001
1000
0100
,
0110
0000
0000
0000
;

//--------------- dance-single - B. M'Rey ----------------
#NOTEDATA:;
#STEPSTYPE:dance-single;
#DESCRIPTION:B. M'Rey;
#CREDIT:B. M'Rey;
#DIFFICULTY:Medium;
#METER:9;
#RADARVALUES:0,0,0,0,0;
#NOTES:
0000
0000
0000
0000
,
0000
0000
0000
0000
,
0000
0000
0000
0000
,
0000
0000
0000
0000
,
1010
0001
0010
0100
,
1000
0100
0001
0000
0100
0001
0010
0000
,
1000
0001
0100
0010
,
1000
0100
0001
0000
0100
0001
0010
0000
,
1000
0000
0001
0000
0100
0010
0010
0000
,
1000
0000
0001
0000
0100
0100
0010
0000
,
1000
0000
0001
0000
0100
0100
0010
0000
,
2000
3002
0023
0130
,
1000
0000
0010
0001
0100
0000
0001
0000
,
1000
0100
0010
0000
0100
0010
0001
0000
,
1000
0000
0100
0001
0010
0000
0001
0000
,
1000
0000
0010
0000
0100
0010
0001
0000
,
1000
0000
0100
0000
0010
0100
0001
0000
,
0100
0000
0010
0000
1000
0100
0001
0000
,
0010
0000
0100
0000
1000
0001
0010
0000
,
0200
0302
2003
3010
,
0110
0000
1001
0000
0110
0000
0100
0100
,
1000
0000
0010
0010
0100
0000
0001
0000
,
1000
0010
0100
0001
,
0010
0000
0100
0000
1000
0000
0001
1000
,
0000
0010
0100
0000
1000
0000
0001
0100
,
0010
0100
2000
3001
,
0010
0010
0100
0000
1000
1000
0001
0000
,
0100
0100
0010
0000
1000
0000
0100
0000
,
0010
0001
1000
0000
,
0100
0001
1000
0010
,
0100
0100
0001
0000
1000
1000
0010
0000
,
0100
0100
0001
0000
1000
0000
0010
0001
,
0100
0000
0001
0000
0010
0000
0100
1000
,
1000
0001
0020
0030
,
1000
0100
0001
0000
0100
0001
0010
0000
,
1000
0100
0010
0001
,
0100
1000
0010
0000
1000
0100
0001
0000
,
0100
0010
1000
0001
,
0100
0001
0010
0000
1000
0010
0100
0000
,
0010
0001
0110
0010
,
1000
0010
0001
0000
0100
0001
0010
0000
,
1000
0100
0010
0001
,
1000
0100
0010
0000
0100
0010
0001
0000
,
1000
0000
0010
0000
0100
0010
0001
0000
,
0110
0000
0000
0000
;

//--------------- dance-single - B. M'Rey ----------------
#NOTEDATA:;
#STEPSTYPE:dance-single;
#DESCRIPTION:B. M'Rey;
#CREDIT:B. M'Rey;
#DIFFICULTY:Hard;
#METER:12;
#RADARVALUES:0,0,0,0,0;
#NOTES:
0000
0000
0000
0000
,
0000
0000
0000
0000
,
0000
0000
0000
0000
,
0000
0000
0000
0000
,
0010
0001
0010
0100
0010
0000
1000
0000
,
0010
0100
0010
0100
1000
0100
1000
0001
,
0000
0001
0100
0001
1000
0000
0100
0010
,
1000
0000
0000
0010
0000
0000
0100
0000
0000
0000
0010
0000
1000
0000
0000
0000
,
1000
0000
0001
0000
0010
0000
0100
0000
1000
0000
0001
0000
1000
0000
0000
0010
,
0100
0001
0010
0001
0010
0001
0100
0010
,
0000
0010
1000
0010
1000
0100
1000
0100
,
0010
0000
0000
0001
0000
0000
0010
0000
0000
0000
0001
0000
0100
0000
0000
0000
,
0100
0010
1000
0100
1000
0000
0100
0000
,
0100
0001
0010
0001
0100
0001
0100
0010
,
0000
0001
1000
0001
1000
0000
0010
0100
,
1000
0000
0000
0010
0000
0000
0100
0000
0000
0000
0001
0000
1000
0000
0000
0000
,
0100
0000
0001
0000
1000
0000
0010
0000
1000
0000
0001
0000
0100
0000
0000
0010
,
0100
0010
1000
0010
1000
0010
0100
0001
,
0000
0010
1000
0001
1000
0010
1000
0000
,
0100
0000
0000
0001
0000
0000
1000
0000
0000
0000
0100
0000
1000
0000
0000
0000
,
1010
0000
0000
0101
0000
0000
1001
0000
0000
0000
0001
0000
1000
0000
0100
0000
,
0010
0001
0000
0000
0010
0000
0100
1000
0000
0100
0000
0000
0010
0000
0001
0000
,
0200
0000
0310
0001
0020
0000
1030
0100
,
1100
0000
0000
1001
0000
0000
0101
0000
0000
0000
0010
0000
0100
0000
0010
0000
,
0000
0002
0000
0103
1000
0010
0100
0001
,
1010
0000
0000
1010
0000
0000
1010
0000
0000
0000
0010
0000
1000
0000
0000
0000
,
0010
0100
1000
0100
1000
0001
0010
0100
,
0010
0100
0010
0001
0000
0010
0100
0001
,
1000
0000
0010
0000
1000
0000
0001
0010
0000
0100
0001
0000
0010
0000
0001
0000
,
0100
0020
0000
0032
0000
0203
0000
0301
,
1000
0001
0100
0001
1000
0100
0010
0001
,
0110
0000
0000
1001
0000
0000
0101
0000
0000
0000
0010
0000
1000
0000
0001
0000
,
0000
0001
0100
0001
0010
0100
1000
0010
,
0110
0000
0000
1010
0000
0000
2002
0000
0000
0000
3013
0000
0100
0000
0000
0000
,
1000
0100
0010
0100
1000
0100
1000
0010
,
1000
0010
0100
0001
1000
0001
0100
0010
,
1000
0001
1000
0000
0010
0000
0100
0000
1000
0100
1000
0000
0010
0000
0100
0000
,
1000
0000
0001
0000
0100
0010
0000
0100
0000
0001
0000
1000
0100
0000
0010
0000
,
1000
0001
1000
0000
1000
0000
0010
0000
1000
0001
1000
0000
0100
0000
0001
0000
,
0010
0000
0100
0000
0010
0100
0000
0220
0000
0330
0001
0000
0100
0000
0000
0000
,
0100
0010
0001
0000
1000
0100
0010
0000
1000
0010
0100
0000
0010
0000
0001
1000
,
0010
0000
0001
0000
0010
0100
0000
1000
0000
0100
0000
1000
0000
0010
0100
0000
,
0010
0100
0001
0000
0100
0000
0010
0000
0100
1000
0010
0000
0100
0000
0001
0000
,
0010
0100
0001
0000
0100
0000
0010
0000
1000
0000
0010
0000
0100
0010
0001
0000
,
0110
0000
0000
0000
;
