#TITLE:KING of the SEA;
#SUBTITLE:;
#ARTIST:ブタパンチ;
#TITLETRANSLIT:;
#SUBTITLETRANSLIT:;
#ARTISTTRANSLIT:Buta Punch;
#GENRE:Pop'n Music;
#CREDIT:;
#MUSIC:KING of the SEA.ogg;
#BANNER:KING of the SEA-bn.png;
#BACKGROUND:KING of the SEA-bg.png;
#CDTITLE:./CDTITLES/Pop'n Music.PNG;
#SAMPLESTART:62.835;
#SAMPLELENGTH:12.000;
#SELECTABLE:YES;
#OFFSET:-0.210;
#BPMS:0.000=160.000;
#STOPS:;
#BGCHANGES:;
#FGCHANGES:;

//--------------- dance-single - B. M'Rey ----------------
#NOTES:
     dance-single:
     B. M'Rey:
     Beginner:
     2:
     0,0,0,0,0:
0000
0000
0000
0000
,
0000
0000
0000
0000
,
0000
0000
0000
1000
,
0000
0010
0000
0000
,
0000
0001
0000
0000
,
0000
1000
0000
0000
,
0000
0010
0000
0001
,
0000
0000
0000
1000
,
0000
0000
0000
0100
,
0000
0000
0000
0010
,
0000
0000
0000
0001
,
0000
0000
0000
1000
,
0000
0000
0000
0010
,
0000
0000
0000
0100
,
0000
0001
0000
1000
,
0000
0010
0000
0100
,
0000
0010
0000
0000
,
1001
0000
0000
0010
,
0000
0000
0000
0000
,
0000
0000
0000
0100
,
0000
0000
0000
0000
,
0000
0000
0000
0101
,
0000
0010
0000
1010
,
0000
0100
0000
0110
,
0000
0001
0000
1001
,
0000
0000
0000
1000
,
0000
0010
0000
0100
,
0000
0001
0000
0010
,
0000
0001
0000
1000
,
0000
0010
0100
0001
,
0000
0010
0000
1000
,
0000
0100
0000
1000
,
0000
0010
0000
0100
,
0000
0001
0000
1000
,
0000
0010
0000
0100
,
0000
0010
0000
1000
,
0000
0001
0000
0010
,
0000
1000
0100
0010
,
0000
0001
0000
0010
,
0000
0001
0000
1000
,
0000
0010
0000
0100
,
0000
1000
0100
0010
,
0000
0001
0000
1000
,
0010
1000
0000
0010
,
0000
0100
0000
0001
,
0000
1000
0000
0001
,
0000
1000
0000
0010
,
0000
0000
0000
0100
,
0000
0010
1000
0000
,
1001
0000
0000
0100
,
0000
0001
0000
1000
,
0000
0010
0000
0100
,
0010
1000
0000
0001
,
0000
0010
0000
0100
,
0000
0010
0000
1000
,
0000
0001
0000
0100
,
0000
0010
0000
1001
,
0000
1001
0000
0010
,
0000
0100
0000
0010
,
0000
0100
0000
1000
,
0000
0001
0000
0010
,
0000
0001
0000
0100
,
0000
0010
0000
1000
,
0000
0100
0000
1000
,
0000
0010
0000
0100
,
0000
0001
0000
1001
,
0000
0100
0000
0100
,
0000
0010
0000
1001
,
0000
0000
0000
0100
,
0000
0100
0000
0010
,
0000
1000
0000
0001
,
0000
0000
0000
1001
,
0000
0010
0000
0100
,
0000
0000
0000
0110
,
0000
0010
0000
1000
,
0000
0000
0000
1001
,
0000
0001
0000
0100
,
0000
0000
0000
0020
,
0000
0000
0000
0000
,
0000
0000
0000
0002
,
0000
0000
0000
0000
,
0000
0000
0000
0033
;

//--------------- dance-single - B. M'Rey ----------------
#NOTES:
     dance-single:
     B. M'Rey:
     Easy:
     5:
     0,0,0,0,0:
0000
0000
0000
0000
,
0000
0000
0000
0000
,
0000
0000
0000
1010
,
0000
0100
0000
1000
,
0000
0100
0000
0001
,
0000
0100
0000
0010
,
0000
0000
0000
0010
,
0000
0100
0000
0001
,
0000
0010
0000
0100
,
0000
0010
0000
0001
,
0000
0100
0000
0010
,
1000
0000
0000
0100
,
1000
0000
0000
0100
,
0010
0000
1000
0001
,
0100
0001
0100
0010
,
0100
0001
1000
0100
,
0010
0100
1000
0001
,
0220
0000
0330
0011
,
0000
1000
0000
0001
,
0000
0010
1000
0100
,
0000
0010
0000
0100
,
0000
0001
0000
1100
,
1000
0100
0000
1001
,
0010
0001
0000
0110
,
1000
0000
0100
0100
0000
0110
0000
0000
,
0000
0000
0010
0100
,
1000
0001
0100
0010
,
0100
0001
1000
0100
,
0010
0100
1000
0010
,
0100
0010
0100
0001
,
1000
0100
1000
0001
,
0010
0100
0010
0100
,
1000
0010
0100
0010
,
0100
0010
1000
0001
,
1000
0100
1000
0001
,
0010
0100
1000
0100
,
0010
0100
0010
0001
,
0010
0100
1000
0001
,
0100
0010
0100
0001
,
0100
0001
0010
0100
,
0010
0001
1000
0010
,
0101
1001
0110
0010
,
0100
0001
1000
0010
,
1000
0100
0010
0001
,
0010
0100
1000
0001
,
0100
0010
1000
0110
,
0000
1001
0000
0000
1001
0000
0000
0000
,
0010
0100
0010
0110
,
0000
0101
0000
0000
0110
0000
0000
0000
,
0200
0000
0000
0301
,
0010
0001
0010
0001
,
0100
0010
0100
0001
,
0100
0010
1000
0100
,
0010
0001
0010
0001
,
0100
0001
1000
0100
,
1000
0100
0010
0001
,
0100
0010
0100
0010
,
0100
0001
1000
0100
,
1000
0001
0010
0001
,
0010
0100
0010
0100
,
1000
0010
1000
0001
,
1000
0010
0100
0010
,
1000
0100
0010
0100
,
1000
0100
1000
0001
,
0100
0010
1000
0010
,
0100
0010
1000
0001
,
0000
0010
0000
1000
,
0000
0001
0100
0020
,
0000
0000
0000
0230
,
0000
0001
0000
0310
,
1000
0100
1000
0010
,
0100
0000
0001
0000
0010
0010
0010
0000
,
0100
0010
1000
0100
,
1000
0000
0001
0000
0010
1000
0001
0000
,
0010
0001
1000
0010
,
0100
0000
0001
0000
0010
1000
0100
0000
,
0010
0100
1000
0010
,
1000
0000
0001
0000
0100
0001
0020
0000
,
0000
0000
0000
0000
,
0000
0000
0000
0200
,
0000
0000
0000
0000
,
0000
0000
0000
0330
;

//--------------- dance-single - B. M'Rey ----------------
#NOTES:
     dance-single:
     B. M'Rey:
     Medium:
     8:
     0,0,0,0,0:
0000
0000
0000
0000
,
0000
0000
0000
0000
,
0000
0000
0000
0010
,
1000
0100
1000
0001
,
1000
0001
0010
0100
,
1000
0001
0100
0010
,
0100
0001
1000
0100
,
1000
0100
0010
0100
,
1000
0010
0100
0010
,
1000
0010
0100
0001
,
1000
0001
0010
0100
,
0010
0001
0100
0000
1000
0000
0001
1000
,
0010
0000
0100
0000
1000
0010
0001
0000
,
0010
0000
0100
0001
1000
0000
0100
1000
,
0010
1000
0010
1000
0100
0010
0100
0010
,
0100
1000
0010
1000
0100
0010
0001
0010
,
0001
1000
0001
1000
0100
1000
0001
0000
,
2002
0000
0000
0000
3003
0010
0100
0000
,
0001
0000
1000
0010
0000
0100
0000
0001
,
0100
0010
1000
0100
,
1000
0000
0100
0010
0000
0001
0000
0010
,
0100
0001
1000
1001
,
0010
0000
0100
0010
0000
0000
0101
0000
,
0010
0000
0100
1000
0000
0000
0110
0000
,
0001
0000
0100
0010
0000
1001
0000
0000
,
0010
0000
1000
0100
,
1000
0000
0010
0000
0001
0100
0010
0000
,
1000
0000
0100
0000
1000
0100
1000
0000
,
0010
0000
0100
0000
0010
0100
0001
0000
,
0010
0000
1000
0000
0001
1000
0001
0000
,
0010
0000
0100
0000
0001
1000
0100
0000
,
0010
0000
1000
0000
0100
1000
0100
0000
,
0010
0000
0100
0000
0001
0100
0010
0000
,
1000
0100
1000
0000
0010
0100
0010
0000
,
0001
0000
0010
0000
1000
0100
1000
0000
,
0010
0000
0100
0000
0010
0100
0001
0000
,
0010
0000
1000
0000
0100
1000
0100
0000
,
0010
0000
0100
0000
0001
1000
0010
0000
,
0100
0000
1000
0000
0100
1000
0100
0000
,
0010
0000
0100
0000
0001
0000
0010
0001
,
1000
0000
0100
0000
0010
0000
1000
0100
,
1000
0000
0010
0100
0010
0000
0001
0100
,
0010
1000
0010
1000
0010
0100
0001
0100
,
0001
0100
0010
1000
0010
1000
0010
0100
,
0001
0100
0001
0100
0010
1000
0010
1000
,
0010
0100
0001
0100
0001
0100
1001
0000
,
0000
0011
0000
0000
0220
0000
0000
0000
,
0000
0000
0000
0330
0100
0000
0011
0000
,
0000
1100
0000
0000
2002
0000
0000
3003
,
0220
0000
0000
0330
0010
0000
0001
0000
,
0010
0100
1000
0000
1000
0000
0010
0000
,
0100
0001
0010
0001
0010
1000
0100
0000
,
0010
0100
0001
0010
,
1001
0000
0110
0000
0001
0000
0010
1000
,
0010
0000
0100
0001
0100
0000
0010
1000
,
0010
0000
0100
0000
0010
0000
0001
0010
,
0001
0000
1000
0100
1000
0000
0010
0000
,
0100
0001
0010
1000
,
0010
0000
0100
0010
0100
0000
0001
0000
,
0010
1000
0010
0000
0100
0000
0010
1000
,
0100
0000
0001
0010
0001
0000
0010
0000
,
0100
0000
0001
1000
0100
0000
0010
0000
,
0100
0010
0100
0000
0001
0000
0010
0000
,
1000
0100
1000
0000
0010
0000
0100
0001
,
0100
0000
0010
1000
0010
0000
0100
0000
,
0010
1000
0100
2002
,
0000
3003
0010
0000
0000
0000
0100
0000
,
0000
0001
1000
0020
,
0000
0000
0000
0000
0000
0030
0100
0000
,
0000
0010
0000
1000
,
0001
1000
0010
0000
0001
0010
0100
0000
,
1000
0000
0010
0000
0001
0010
0100
0000
,
1000
0001
0100
0000
0010
0100
1000
0000
,
0100
0000
1000
0000
1000
0100
0010
0000
,
0001
1000
0010
0000
0001
0100
0010
0000
,
0100
0000
1000
0000
0001
0010
0100
0000
,
1000
0001
0100
0000
1000
0100
0010
0000
,
0100
0000
0001
0000
0010
1000
0100
0000
,
0011
0110
1100
0110
,
1001
0101
1100
0020
,
0000
0230
0000
0320
,
0000
0000
0000
0030
;

//--------------- dance-single - B. M'Rey ----------------
#NOTES:
     dance-single:
     B. M'Rey:
     Hard:
     9:
     0,0,0,0,0:
0000
0000
0000
0000
,
0000
0000
0000
0000
,
0000
0000
0000
2000
,
0000
3020
0000
0230
,
0000
0000
0310
1000
0001
1000
0002
0000
,
0000
0023
0000
0230
,
0000
0302
0000
1003
,
0001
1000
0001
0010
1000
0001
0010
1000
0002
0000
0000
0000
,
0013
0100
1000
0010
0100
0010
1000
0010
2000
0000
0000
0000
,
3010
0001
0010
0001
0100
0001
0010
0001
0200
0000
0000
0000
,
1300
0001
1000
0001
1000
0001
1000
0020
0000
0031
0000
0000
,
1000
0000
0000
0000
0001
0010
0001
0000
1000
0000
0000
0000
0001
0000
0000
0000
,
0100
0010
0100
0000
0010
0000
0000
0000
0100
0000
0000
0000
0001
0010
0001
0000
,
0100
0000
0000
0000
0010
0000
0000
0000
1000
0100
1000
0000
0100
0000
0010
0000
,
0100
0010
0001
0100
0010
0100
0001
1000
,
0100
0010
0001
1000
0010
0100
0001
0010
,
0100
0010
0100
1000
0001
0100
0010
0000
,
2002
0000
0000
0000
0000
0000
0000
0000
0000
3003
0010
0100
0010
0000
0000
0000
,
0001
1000
0000
0010
0100
0000
0001
0010
,
0000
0000
0001
0000
0100
0000
0010
0100
0010
0000
1000
0000
0001
0000
0000
0000
,
0010
0100
0000
0001
0010
0000
1000
0100
,
0000
0000
0001
0000
0010
0000
0000
0000
0100
0000
0100
0010
0100
0000
0000
0000
,
1000
0000
0010
0000
0000
0000
0100
0000
0010
0000
0001
0010
0001
0000
0000
0000
,
0001
0000
0010
0000
0000
0000
1000
0000
0010
0000
0100
1000
0100
0000
0000
0000
,
0001
0000
0110
0110
0000
2002
0000
0000
,
3000
0000
0000
0000
0100
0000
0013
1000
,
0010
0100
0001
0100
0001
0100
0010
1000
,
0001
1000
0001
0100
0001
1000
0010
0100
,
0001
1000
0100
1000
0100
0010
0100
0010
,
0001
0010
0100
1000
0100
0010
0001
0010
,
0100
1000
0001
0010
0100
1000
0001
1000
,
0010
1000
0100
0010
0100
1000
0001
1000
,
0001
0000
0100
0000
0001
0000
0010
0000
0100
0000
1000
0000
0100
0000
0010
0100
,
0010
0100
0001
0010
0100
1000
0001
0100
,
0001
1000
0010
1000
0010
0100
0001
1000
,
0010
1000
0010
0100
0010
1000
0100
1000
,
0001
1000
0010
0100
0010
0100
0010
1000
,
0001
1000
0001
1000
0010
0100
0001
1000
,
0100
0010
0100
1000
0100
1000
0001
0100
,
0010
1000
0001
0010
0001
1000
0010
0100
,
0001
0100
0001
0100
0010
1000
0100
0010
,
0100
0010
0100
0000
0001
0010
0100
0000
0010
1000
0100
0000
0010
0000
1000
0000
,
0001
0010
0100
1000
0001
0010
0100
1000
,
0010
0100
0001
1000
0010
1000
0010
0100
,
0010
0100
0001
0010
0100
1000
0010
0100
,
0001
0100
0001
1000
0010
0100
0110
0000
,
0010
1001
0000
0100
1001
0000
0100
0000
,
1000
0000
0010
0100
0010
1000
0110
0000
,
0001
1010
0000
0100
1001
0000
0000
0000
,
0220
0000
0000
0000
0000
0330
0100
1000
,
0100
0000
1000
0001
0100
0000
0000
0000
0001
0000
1000
0000
0001
0000
1000
0000
,
0100
0000
0010
0100
0010
0000
0000
0000
0100
0000
1000
0000
0010
0000
1000
0000
,
0001
1000
0100
0010
0100
0010
0002
0000
,
0000
0000
0103
0010
0100
0000
0000
0000
0001
0000
0100
0000
0010
0000
1000
0000
,
0001
0100
0010
0100
0010
0100
0001
1000
,
0100
0010
0100
0010
0001
0010
0100
1000
,
0100
0010
0001
0100
0001
0010
0100
1000
,
0010
1000
0100
0010
0100
1000
0020
0000
,
0000
0130
0010
0000
0100
0010
0002
0000
,
0000
0013
0100
0000
0100
0010
0001
1000
,
0010
0100
0001
0010
0001
1000
0020
0000
,
1030
0100
0010
0100
0001
0100
0001
0010
,
0100
1000
0010
0100
0010
0100
0010
1000
,
0100
1000
0001
0010
0001
0010
0001
0100
,
0010
1000
0100
0010
0001
0100
0001
0100
,
0010
0100
0010
1000
0100
0010
2000
0000
,
0000
3100
0002
0000
0000
1003
0020
0000
,
0130
0000
0000
0001
0000
0000
0100
0000
0000
0001
1000
0001
,
1000
0001
0100
0010
1000
0001
1000
0100
1000
0002
0000
0000
,
0000
0000
2003
0000
0000
0000
3100
1000
,
0100
1000
0100
0010
0001
0010
0001
0010
,
0100
0000
1000
0000
0010
0000
1000
0000
0010
0100
1000
0001
0100
0000
0000
0000
,
0100
0010
0100
1000
0001
0100
0001
0100
,
0001
0000
0010
0000
0100
0000
0010
0000
0100
0001
0010
1000
0001
0000
0000
0000
,
0001
1000
0100
0010
0100
0010
0100
1000
,
0010
0000
1000
0000
0010
0000
1000
0000
0001
0010
0100
1000
0001
0000
0000
0000
,
0001
0010
0100
1000
0100
1000
0100
0010
,
0001
0000
1000
0000
0001
0000
1000
0000
0001
0010
0100
1000
0020
0000
0000
0000
,
0230
0302
0023
0230
,
2300
3200
0320
0032
,
0000
0023
0000
0230
,
0000
0000
0000
0301
;
