#VERSION:0.83;
#TITLE:IT'S SUMMERTIME;
#ARTIST:RICKY D. feat. JANINA;
#GENRE:REGGAE POP;
#MUSIC:IT'S SUMMERTIME.ogg;
#BANNER:IT'S SUMMERTIME-bn.png;
#BACKGROUND:IT'S SUMMERTIME-bg.png;
#CDTITLE:./CDTITLES/DANCEMANIA BASS#5.PNG;
#SAMPLESTART:26.635;
#SAMPLELENGTH:15;
#OFFSET:-0.310;
#BPMS:0=90;

//--------------- dance-single - B. M'Rey ----------------
#NOTEDATA:;
#STEPSTYPE:dance-single;
#DESCRIPTION:B. M'Rey;
#DIFFICULTY:Beginner;
#METER:2;
#RADARVALUES:0,0,0,0,0;
#NOTES:
0000
0000
0000
0000
,
0000
0000
0000
0000
0000
0000
0000
1000
,
0000
0000
0000
0000
0000
0000
0000
0001
,
0000
0000
0000
0000
0000
0000
0000
0010
,
0000
0000
0000
0000
0000
0000
0000
0100
,
0000
0000
0000
0000
0000
0000
0000
0001
,
0000
0000
0000
1000
0000
0000
0000
0010
,
0000
0000
0000
0100
0000
0000
0000
0001
,
0000
0000
0000
0010
0000
0000
0000
0001
,
0000
0000
0000
1000
0000
0000
0000
0001
,
0000
0001
0000
0100
0000
0100
0000
0000
,
0000
0010
0000
0000
0000
1000
0000
0000
,
0000
0100
0000
0100
0000
0010
0000
0000
,
0000
0001
0000
0000
0000
1000
0000
0000
,
0000
0010
0000
0010
0000
0000
0000
0001
,
0000
0100
0000
1000
0000
0000
0000
0001
,
0000
0000
0000
0100
0000
0000
0000
0010
,
0000
0000
0000
1000
0000
0000
0000
0001
,
0000
0010
0000
0001
0000
0010
0000
0001
,
0000
0000
0000
0100
0000
0000
0000
0010
,
0000
1000
0000
0100
0000
1000
0000
0000
,
0000
0010
0000
0000
0000
0001
0000
0000
,
0000
0001
0000
0010
0000
0001
0000
0010
,
0000
0000
0000
1000
0000
0000
0000
0010
,
0000
0100
0000
0001
0000
0010
0000
0001
,
0000
0010
0000
0001
0000
1000
0000
0100
,
0000
1000
0000
0010
0000
0100
0000
0001
,
0000
0000
0000
1000
0000
0000
0000
0001
,
0000
0000
0000
0000
0000
0100
0000
1000
,
0000
0100
0000
0000
0000
0000
0000
0010
,
0000
0001
0000
0010
0000
0000
0000
0100
,
0000
0000
0000
0010
0000
0000
0000
0001
,
0000
1000
0000
0001
0000
0100
0000
0000
,
0000
0001
0000
0000
0000
1000
0000
0000
,
0000
0010
0000
0010
0000
0100
0000
0000
,
0000
0001
0000
0001
0000
0010
0000
0001
,
0000
0001
0000
0100
0000
0100
0000
0000
,
0000
0010
0000
0000
0000
1000
0000
0000
,
0000
0100
0000
0100
0000
0010
0000
0000
,
0000
0001
0000
0000
0000
1000
0000
0000
,
0000
0010
0000
0010
0000
0000
0000
0001
,
0000
0100
0000
1000
0000
0000
0000
0100
,
0000
0000
0000
0001
0000
0010
0000
0001
,
0000
0000
0000
1000
0000
0000
0000
0010
,
0000
0000
0000
0000
0000
0000
0000
0100
,
0000
0000
0000
0000
0000
0000
0000
0001
;

//--------------- dance-single - B. M'Rey ----------------
#NOTEDATA:;
#STEPSTYPE:dance-single;
#DESCRIPTION:B. M'Rey;
#DIFFICULTY:Easy;
#METER:5;
#RADARVALUES:0,0,0,0,0;
#NOTES:
0000
0000
0000
0000
,
0000
0000
0000
0000
0000
0000
0000
1000
,
0000
0100
0000
1000
0000
0100
0000
1000
,
0000
0010
0000
0100
0000
0010
0000
0100
,
0000
0010
0000
1000
0000
0100
0000
0020
,
0000
0000
0000
0100
0000
0100
0000
1030
,
0000
0001
0000
1000
0000
0001
0100
1000
,
0000
0010
0000
0100
0000
0010
0001
0100
,
0000
0010
0000
1000
0010
0100
0000
1000
,
0000
0100
0000
1000
0010
0001
0000
0010
,
0000
0001
0000
0010
0100
0001
0000
1000
,
0000
0100
0000
1000
0010
0100
0000
1000
,
0000
0001
0000
0100
0010
0001
0000
1000
,
0000
0010
0000
1000
0100
0001
0000
1000
,
0000
0001
0000
0010
0100
0001
0000
0010
,
0000
0100
0000
1000
0000
0010
0000
1000
,
0000
0001
0000
1000
0000
0010
0000
0100
,
0000
0010
0000
0100
0000
0010
0000
1000
,
0000
0100
0000
1000
0000
0001
0000
1000
,
0000
0010
0000
0100
0000
0001
0000
0100
,
0000
0010
0000
0100
0000
0010
0000
1000
,
0000
0010
0000
1000
0000
0001
0000
1000
,
0000
0001
0000
0100
0000
0001
0000
0100
,
0000
0010
0000
0100
0000
0010
0000
1000
,
0001
0010
0000
1000
0100
0001
0000
1000
,
0000
0001
0000
0010
0000
0001
0000
0010
,
1000
0100
0000
1000
0001
0100
0000
1000
,
0000
0100
0000
0010
0000
0000
0000
1000
,
0000
0001
0000
0100
0000
0001
0000
0010
,
0000
0100
0000
1000
0000
0100
0000
1000
,
0000
0100
0000
0010
0000
0001
0000
0010
,
0000
0000
0000
0000
0000
0000
0000
1000
,
0000
0100
0000
1000
0010
0100
0000
0010
,
0000
0100
0000
0010
1000
0001
0000
0010
,
0000
0001
0000
1000
0100
0001
0000
1000
,
0000
0010
0000
1000
0001
0010
0000
0100
,
0000
0010
0000
0100
0010
0001
0000
1000
,
0000
0001
0000
1000
0100
0010
0000
1000
,
0000
0010
0000
0100
0001
0010
0000
0100
,
0000
0001
0000
0100
0010
0001
0000
0010
,
0000
0001
0000
0100
1000
0010
0000
0100
,
0000
0010
0000
0100
0010
0001
0000
1000
,
0000
0001
0000
1000
0100
0001
0000
0020
,
0000
0000
0000
0100
0000
0130
0000
0010
,
0000
0001
0000
1000
0000
0100
0000
1000
,
0000
0010
0000
1000
0000
0010
0000
0100
;

//--------------- dance-single - B. M'Rey ----------------
#NOTEDATA:;
#STEPSTYPE:dance-single;
#DESCRIPTION:B. M'Rey;
#DIFFICULTY:Medium;
#METER:8;
#RADARVALUES:0,0,0,0,0;
#NOTES:
0000
0000
0000
0000
,
0000
0000
0000
0000
0000
0000
0000
2000
,
0000
3002
0000
0203
0000
0310
0001
0020
,
0000
2030
0000
3200
0000
0310
0100
0002
,
0000
2003
0000
3002
0000
1003
0010
0200
,
0000
0000
2300
0000
0000
0000
3010
0001
0000
0010
0001
0000
0010
0001
0100
0000
,
1000
0001
0000
0010
0100
0001
0000
1000
,
0100
0010
0000
0100
0010
1000
0000
0100
,
0010
0001
0000
0001
0010
0001
0000
0100
,
1000
0010
0000
0001
0010
0100
0000
1000
,
0100
1000
0000
1000
0001
0100
0010
0000
,
0010
0100
0010
1000
0100
1001
0000
1000
,
0001
0010
0100
0010
0100
0010
0000
1000
,
0001
1000
0010
0000
0010
0100
0000
0100
,
0001
0010
0100
1000
0100
1000
0100
0010
,
0001
0000
0010
0000
0100
0000
0010
1000
0000
0010
1000
0000
0010
1000
0010
0000
,
0001
1000
0000
0100
0010
1000
0010
0100
,
0000
1000
0000
0000
0010
0000
0100
0000
0010
0000
0100
0000
0000
0000
1000
0000
,
0100
1000
0010
1000
0010
0100
0000
1000
,
0001
0010
0001
0010
0001
1000
0000
1000
,
0010
1000
0001
0010
0001
0100
0000
0100
,
0010
1000
0010
1000
0001
1000
0000
0010
,
0001
0010
0100
0010
0100
1000
0000
1000
,
0001
1000
0100
0010
0100
0010
0000
0010
,
0001
1000
0000
1000
0001
0100
0000
0100
,
0010
0100
0000
0010
0100
0010
0000
0010
,
0001
1000
0001
1000
0001
0010
0000
0010
,
0100
0010
0000
0001
0000
1000
0000
0100
,
0001
0100
0001
0100
0010
1000
0010
1000
,
0010
0100
0001
1000
0001
0010
0001
0010
,
0100
0010
0001
1000
0001
1000
0100
1000
,
0000
0000
0000
0001
0000
0010
0000
1000
,
0100
0010
0100
0010
0100
1000
0001
1000
,
0001
1000
0100
0010
0100
1001
0000
1000
,
0010
1000
0010
0100
0010
0100
0000
0100
,
0001
1000
0000
1000
0010
1000
0000
0100
,
0010
0100
0001
0100
0001
0010
0001
0000
,
0100
1000
0100
1000
0100
0011
0000
0010
,
0001
0010
0100
1000
0100
1000
0000
0010
,
0001
0010
0001
0000
0100
1000
0010
1000
,
0100
1000
0100
0010
0100
0010
0001
0100
,
0001
0100
0001
1000
0100
1000
0100
1000
,
0001
0100
0001
0100
0001
0010
0100
0010
,
0100
0000
0010
0000
0001
0000
1000
0001
0000
1000
0001
0000
1000
0001
1000
0000
,
0010
0100
0010
0100
0010
1000
0001
1000
,
0001
1000
0100
0010
0100
0010
0001
0010
;

//--------------- dance-single - B. M'Rey ----------------
#NOTEDATA:;
#STEPSTYPE:dance-single;
#DESCRIPTION:B. M'Rey;
#DIFFICULTY:Hard;
#METER:12;
#RADARVALUES:0,0,0,0,0;
#NOTES:
0000
0000
0000
0000
,
0000
0000
0000
0000
0000
0000
0000
1000
,
0001
1000
0001
1000
0100
0010
0100
0010
,
0100
1000
0001
1000
0001
1000
0100
0010
,
0001
0010
0001
0010
0100
1000
0100
1000
,
0010
0000
1000
0000
0010
0000
0100
0001
0000
0100
0001
0000
0100
0001
0100
0000
,
0010
0000
1000
0000
0010
0100
1000
0000
0010
0000
0100
0000
0001
0000
0010
0000
,
0001
1000
0010
0000
0001
0010
1000
0000
0100
0000
0010
0000
0100
0001
0010
0000
,
0001
0000
0010
0000
0100
0010
1000
0000
0010
0000
1000
0000
0001
0010
1000
0000
,
0001
0000
0100
0000
0001
1000
0100
0000
0010
0000
0100
0000
0001
0000
1000
0000
,
0100
0001
0100
0000
0100
0010
0000
0100
0000
0010
0100
0000
0100
0000
0100
0000
,
1000
0010
0100
0000
1000
0001
1000
0000
0100
0001
0100
0000
0100
0000
1000
0001
,
0100
0010
1000
0000
0010
0000
0010
0100
0010
0100
1000
0000
1000
0000
0100
0010
,
0100
0010
1000
0000
0010
0000
1000
0001
0100
0000
1000
0010
0100
0000
0100
0000
,
0100
0001
1000
0000
0100
0000
1000
0001
0100
0010
0100
0000
0010
0000
1000
0001
,
0100
0001
0100
0000
0100
0000
0001
0010
0000
0010
0100
0000
0100
0010
1000
0100
,
1000
0000
1000
0000
0100
0001
0100
0000
1000
0100
0000
0100
1000
0000
0100
0010
,
0000
0010
1000
0000
1000
0100
1000
0000
0010
0100
0000
0001
0010
0000
0100
0001
,
1000
0100
1000
0000
1000
0000
0100
0010
0000
0010
0000
0000
1000
0000
1000
0100
,
0010
0100
0010
0100
1000
0001
1000
0000
1000
0010
0000
0010
0100
0010
1000
0000
,
1000
0001
1000
0000
0100
0010
0100
0000
0100
0001
0000
0001
0010
0000
0100
0010
,
0100
0010
1000
0000
0100
0010
1000
0000
0010
0001
0000
0000
0010
0100
1000
0000
,
1000
0001
1000
0001
0010
0001
0010
0100
0010
0100
1000
0000
0000
0001
1000
0100
,
0010
0100
0010
0000
1000
0010
1000
0000
1000
0010
0100
0000
0100
0000
1000
0000
,
1000
0100
1000
0000
0100
0000
1000
0000
0100
0001
0000
0100
0010
0000
0010
0001
,
1000
0001
1000
0000
0100
0000
0100
0001
0100
0010
1000
0000
0100
0000
0100
0001
,
0010
0100
0010
0000
1000
0000
0010
0001
0010
0001
0000
0100
1000
0000
1000
0001
,
1000
0100
0010
0000
1000
0010
0100
0000
0000
0000
0001
0000
0000
0000
1000
0000
,
0001
0000
1000
0000
0001
1000
0010
0000
0001
0000
0010
0000
0100
0001
0010
0000
,
0100
0000
1000
0000
0100
0010
1000
0000
0001
0000
1000
0000
0001
1000
0100
0000
,
0001
0010
0100
0000
0010
1000
0100
0000
0010
0001
1000
0000
0010
0000
1000
0000
,
0000
0000
0000
0000
0000
0000
0001
1000
0000
0001
1000
0000
0001
1000
0001
0000
,
1000
0010
1000
0000
0100
0001
0000
0001
0000
0100
0010
0000
0010
0000
1000
0010
,
1000
0001
1000
0000
0100
0010
0100
0010
1000
0001
0010
0000
1000
0000
0010
0000
,
1000
0010
0100
0000
0100
0000
0010
0001
0010
0100
0010
0000
0100
0000
1000
0001
,
0010
0100
0010
0000
0010
0000
1000
0001
1000
0000
1000
0010
0100
0000
1000
0000
,
0100
0001
0100
0000
0100
0010
0000
0100
0000
0010
0100
0000
0010
0000
0100
0000
,
1000
0010
0100
0000
1000
0001
1000
0000
0100
0001
0100
0000
0100
0000
1000
0001
,
0100
0010
1000
0000
0010
0000
0010
0100
0010
0100
1000
0000
1000
0000
0100
0010
,
0100
0010
1000
0000
0010
0000
1000
0001
0100
0000
1000
0010
0100
0000
0001
0000
,
0100
0001
1000
0000
0100
0000
1000
0001
0100
0010
0100
0000
0010
0000
1000
0001
,
0100
0001
0100
0000
0100
0000
1000
0001
1000
0100
1000
0000
0010
0000
0010
0001
,
0010
0001
1000
0000
1000
0000
1000
0001
0010
0001
0010
0000
1000
0000
1001
0000
,
0000
0000
0000
0000
0000
0000
0100
0010
0000
0100
0010
0000
0100
0010
0100
0000
,
0100
0010
0100
0000
1000
0100
0000
0100
0000
0001
0010
0000
1000
0000
0010
0000
,
1000
0010
0100
0000
0100
0001
0000
0010
0000
0001
1000
0000
0010
0000
2002
0000
,
0000
0000
0000
0000
0000
0000
0000
3003
;
