#VERSION:0.83;
#TITLE:I AM A GUMMY BEAR (Klub Tiggerz Remix);
#ARTIST:GUMMYBEAR;
#GENRE:HARD TRANCE;
#MUSIC:I AM A GUMMY BEAR (KLUB TIGGERZ REMIX).ogg;
#BANNER:I AM A GUMMY BEAR (KLUB TIGGERZ REMIX)-bn.png;
#BACKGROUND:I AM A GUMMY BEAR (KLUB TIGGERZ REMIX)-bg.png;
#CDTITLE:./CDTITLES/DANCEMANIA PRESENTS AKI MONOGATARI 2007.PNG;
#SAMPLESTART:90.033;
#SAMPLELENGTH:15;
#OFFSET:-0.047;
#BPMS:0=140.022;

//--------------- dance-single - B. M'Rey ----------------
#NOTEDATA:;
#STEPSTYPE:dance-single;
#DESCRIPTION:B. M'Rey;
#DIFFICULTY:Beginner;
#METER:4;
#RADARVALUES:0,0,0,0,0;
#NOTES:
0000
0000
0000
0000
,
0000
0000
0000
0000
,
0000
0000
0000
0000
,
0000
0000
0000
0000
,
0000
0000
0001
0000
,
1000
0000
0010
0000
,
0100
0000
0000
0000
,
0001
1000
0110
0000
,
0000
0000
0001
0000
,
1000
1000
0000
0000
,
0000
0000
0110
0000
,
0001
0001
0000
0000
,
0000
0000
0110
0000
,
0010
0010
1010
0000
,
0100
0100
0101
0000
,
0001
0001
1001
0000
,
0000
0000
1000
0001
,
0000
0100
0010
1000
,
0000
0001
0010
0000
,
0100
0000
0001
0010
,
0000
1000
0100
1000
,
0000
0001
0010
1000
,
0000
0001
0100
0000
,
0010
0000
0001
0000
,
1000
0000
1001
0000
,
1001
0000
1001
0000
,
0001
1000
0101
1010
,
0101
1010
0101
0000
,
0000
0000
1000
0001
,
0010
0100
0001
0010
,
1000
0000
0010
0100
,
0001
1000
0100
0010
,
1001
0000
0010
0100
,
0001
0010
0001
1000
,
0010
0100
0001
0000
0010
0000
1000
0000
,
0100
1000
1001
0000
,
0000
0000
0010
0000
0100
0000
0001
0010
,
0000
0000
1000
0000
1000
0000
0010
0100
,
0000
0001
0010
0000
,
1000
0000
0000
0000
0010
0000
0100
0010
,
0000
0000
0001
0000
1000
0000
0001
1000
,
0000
0000
0010
0000
0100
0000
0001
0010
,
0000
1000
0100
0010
,
1000
0000
0100
0000
0001
0000
0001
0010
,
0000
1000
0001
0010
,
0001
0010
1000
0100
,
1000
0010
0101
0000
,
1010
0000
0110
0000
,
0101
0000
0001
1000
,
0010
0100
1000
0100
,
0010
0001
0101
0000
,
1010
0000
0110
0000
,
0000
0000
0001
0001
,
1000
1000
0001
0001
,
1000
1000
0001
0001
,
1000
1000
0010
0100
,
0001
1000
0010
0010
,
0100
0100
0010
0010
,
0100
0100
0010
0010
,
0100
0100
1001
0000
,
0000
0000
0001
0010
,
0100
0001
1000
0100
,
1000
0010
0100
1000
,
0100
0010
0001
0000
,
1000
0000
0010
0100
,
0001
0010
1000
0100
,
1000
0010
0001
0010
,
0100
0001
1001
0000
,
0000
0000
1001
0000
;

//--------------- dance-single - B. M'Rey ----------------
#NOTEDATA:;
#STEPSTYPE:dance-single;
#DESCRIPTION:B. M'Rey;
#DIFFICULTY:Easy;
#METER:8;
#RADARVALUES:0,0,0,0,0;
#NOTES:
0000
0000
0000
0000
,
0000
0000
0000
0000
,
0000
0000
0000
0000
,
0000
0000
0000
0000
,
0000
0000
0001
1000
,
0001
1000
0001
0010
,
0100
0010
0000
0010
,
0001
0010
1000
0000
0101
0000
0000
0000
,
0000
0000
0100
0010
,
0100
0100
0010
0000
0001
0000
0100
0000
,
0001
0000
0100
0000
1001
0000
1000
1000
,
0010
0000
1000
1000
0010
0000
0100
0000
,
0010
0100
0101
0100
,
0001
0001
0010
0000
0101
0000
0100
0000
,
0010
0010
0100
0000
0110
0000
1000
1000
,
0010
1000
1100
0000
,
0000
0000
0100
0000
0001
0000
0100
0001
,
0000
0000
1000
0000
0010
0000
1000
0100
,
0000
1000
0100
0010
,
0100
0000
0010
0000
0001
0000
0010
0001
,
0000
0000
1000
0000
0010
0000
0100
0010
,
0000
0000
0100
0000
0010
0000
1000
0001
,
0000
1000
0001
0100
,
0001
0000
1000
0000
0010
0000
1000
0010
,
0000
1000
0001
0100
,
0001
0100
0001
1000
,
0000
1010
1010
1001
,
0101
0101
1001
1010
,
0002
0000
0013
1000
,
0010
0100
1000
0000
0001
0010
0100
0000
,
0011
0000
0000
0000
0001
1000
0010
0000
,
0100
0001
0010
0000
0001
0000
1000
0000
,
0101
0000
0000
0000
0001
0010
1000
0000
,
0100
0000
1000
0000
0001
0100
1000
0000
,
0010
0001
0100
0000
0010
0000
0100
0000
,
0010
0100
1000
0000
0001
0000
0100
0000
,
0010
0000
0100
0000
0010
0000
0100
0001
,
0000
0010
1000
0000
0100
0000
1000
0010
,
0000
0001
0100
0000
0010
0000
0100
0000
,
0010
0000
1000
0000
0001
0000
0010
0001
,
0000
1000
0010
0000
0001
0000
0100
0010
,
0000
0000
0100
0000
0010
0000
0100
0001
,
0000
0010
1000
0000
0010
0000
1000
0000
,
0001
0000
1000
0000
0100
0000
0010
0001
,
0000
0001
0010
0000
0001
0000
0010
0010
,
0000
0000
1000
0000
0010
0000
0100
0010
,
0000
0100
0001
0100
,
0001
0000
1000
0000
0010
0000
1000
0010
,
0000
0000
1000
0000
0001
0000
0100
0001
,
0000
0000
0100
0000
0001
0000
1000
0100
,
0000
1000
0100
1000
,
0010
0100
0110
0000
,
0010
0000
1000
0000
0100
0100
0100
0000
,
1000
0000
1000
0000
0001
0001
0001
0000
,
0001
0000
0100
0000
0010
0010
0010
0000
,
0100
0010
0100
1000
,
0100
0010
1000
0000
0001
0001
0001
0000
,
1000
0000
0100
0000
0100
0100
0100
0000
,
0010
0000
0100
0000
0010
0010
0010
0000
,
1000
0100
0001
0000
,
0010
0100
0010
1000
,
0100
0100
1000
0000
0100
0000
1000
0000
,
0001
0000
0010
0010
0001
0000
1000
0000
,
0001
0100
1000
0000
0100
0000
1000
0000
,
0010
0100
0010
0100
,
0010
0010
1000
0000
0100
0000
0010
0000
,
0100
0100
0010
0000
0100
0000
1000
0000
,
0010
1000
0110
0000
,
0000
0000
0220
0000
,
0000
0000
0000
0000
,
0000
0000
0000
0000
,
0000
0000
0000
0000
,
0000
0000
0330
0000
;

//--------------- dance-single - B. M'Rey ----------------
#NOTEDATA:;
#STEPSTYPE:dance-single;
#DESCRIPTION:B. M'Rey;
#DIFFICULTY:Medium;
#METER:11;
#RADARVALUES:0,0,0,0,0;
#NOTES:
0000
0000
0000
0000
,
0000
0000
0000
0000
,
0000
0000
0000
0000
,
0000
0000
0000
0000
,
0000
0000
0011
0101
,
0011
1100
1010
0110
,
0101
0011
0000
0000
,
0001
0010
0100
0000
1100
0000
0000
0000
,
0000
0100
0001
1000
0101
0000
0001
0000
,
0100
0010
0001
0100
0010
0000
0001
0000
,
0010
0000
0001
0000
0011
0000
0100
1000
,
0010
0100
0001
0100
0010
0000
0001
0000
,
0100
0001
1010
0001
,
0010
1000
0100
1000
0110
0000
0001
0000
,
0001
0010
0100
1000
0110
0000
0001
0010
,
0100
1000
0010
1000
1100
0000
0000
0000
,
0000
1000
0010
1000
0100
0010
0001
0100
,
0000
0100
0001
0010
0100
0010
0100
1000
,
0000
0100
0010
0100
0001
0000
0100
0000
,
0010
0100
0010
0000
0010
0100
0001
0010
,
0000
0010
0100
1000
0010
1000
0001
0010
,
0000
0000
0001
0100
0001
0100
0010
0100
,
0000
1000
0100
0010
0001
0000
0010
0000
,
0001
1000
0100
0000
0001
0010
0100
0010
,
0000
0100
0001
0000
1100
0000
0110
0000
,
0011
0101
1010
0011
,
0000
1000
0010
0100
0101
0000
0110
0000
,
1001
0000
0110
0000
0011
0000
0100
0010
,
0100
0000
1000
0000
0001
0100
0010
1000
,
0010
0000
0010
1000
0100
0000
0001
0010
,
0100
0000
1001
0000
0001
1000
0010
0000
,
0001
0010
0001
0100
0010
1000
0001
1000
,
0011
0000
0000
0000
0100
1000
0001
0100
,
0010
0000
0001
0010
0100
0010
0100
1000
,
0010
0100
0001
0000
0010
0100
0001
0010
,
0100
0000
0100
0010
0100
1000
0010
0100
,
0011
0000
0100
1000
0010
1000
0010
1000
,
0000
0010
0100
1000
0010
1000
0100
0010
,
0000
0010
0001
1000
1100
0000
1010
0000
,
0101
0000
0010
0100
0010
0100
0001
0010
,
0000
1000
0010
0100
0010
0100
0010
1000
,
0000
0010
0100
1000
0001
1000
0010
0100
,
0000
0010
0100
1000
0110
0000
1001
0000
,
1100
0000
1010
0000
0110
0000
0001
1000
,
0000
0010
0100
0000
0100
1000
0100
1000
,
0000
1000
0100
0010
0100
1000
0001
1000
,
0000
0100
0010
0100
1010
0000
0100
1000
,
1100
0000
0001
0010
0100
1000
0010
0100
,
0000
1000
0001
1000
0100
0010
0100
0010
,
0000
1000
0001
0100
0010
1000
0001
0100
,
0000
0100
0001
0010
0110
0000
0100
0010
,
0101
0000
0010
1000
0110
0000
0001
1000
,
0000
0100
0010
0000
0001
0110
0110
0000
,
0001
0100
0010
0100
0000
0110
0110
0000
,
0001
0010
0100
1000
0000
0110
0110
0000
,
0001
0100
0001
0010
0001
0000
0100
0000
,
0001
1000
0010
0100
0000
1010
1010
0000
,
0001
0010
0100
1000
0000
1010
1010
0000
,
0100
0010
0001
1000
0000
0101
0101
0000
,
0001
0100
0001
1000
0100
0000
0010
0000
,
0100
1000
0001
0100
0001
0000
0100
0010
,
0001
0100
0001
0000
0100
0000
0001
0000
,
0100
1000
0001
0100
0010
0000
0100
1000
,
0100
0010
0001
0000
0010
0100
0001
0000
,
0100
1000
0100
0000
0001
0000
0001
0010
,
0100
1000
0010
0000
0100
0000
0001
0010
,
0100
0010
0001
0100
0001
0000
0100
0000
,
0010
0100
0010
0000
0001
0010
0100
0000
,
0001
0000
0001
0100
0020
0000
0000
0000
,
0000
0000
0000
0000
,
0000
0000
0000
0000
,
0000
0000
0000
0000
,
0000
0000
0030
0000
;

//--------------- dance-single - B. M'Rey ----------------
#NOTEDATA:;
#STEPSTYPE:dance-single;
#DESCRIPTION:B. M'Rey;
#DIFFICULTY:Hard;
#METER:13;
#RADARVALUES:0,0,0,0,0;
#NOTES:
0000
0000
0000
0000
,
0000
0000
0000
0000
,
0000
0000
0000
0000
,
0000
0000
0000
0000
,
0000
0000
1001
0110
,
0101
0110
1010
0110
,
0101
1010
0000
0000
,
0001
1000
0010
0000
0100
0000
0000
0000
,
0001
1000
0010
0000
0100
0000
0001
0000
,
0001
0010
0001
1000
0100
1000
0100
1000
,
0010
0000
0100
0000
0010
0000
0100
0000
0001
0000
0000
0000
0010
0000
0001
0010
,
0001
0010
1000
0100
1000
0010
0100
0010
,
0100
1000
0100
1000
1001
0000
0010
0100
,
0001
0010
0001
0010
0101
0000
0010
1000
,
0100
0000
1000
0000
0100
0000
1000
0000
1010
0000
0000
0000
0010
0000
0100
0001
,
0010
0100
0010
1000
0220
0000
0000
0000
,
0330
0000
0001
0010
1000
0100
1000
0100
,
0000
0001
0010
0100
0010
1000
0100
1000
,
0000
0100
1000
0100
1000
0100
0010
0100
,
0001
0010
0100
0010
0100
0001
0010
0001
,
0000
0001
0010
1000
0100
1000
0100
1000
,
0000
0000
0010
0100
0010
0100
0001
1000
,
0000
0010
0100
0001
0010
0001
1000
0100
,
1000
0100
1000
0100
0010
0100
0010
1000
,
0000
0001
0100
0010
0101
0000
1010
0000
,
0110
0101
1010
0101
,
0000
0000
0001
0000
1000
0001
1000
0000
0010
0000
0100
0000
0010
0000
0100
0000
,
0001
0000
0010
0000
0100
0000
0010
0000
1001
0000
0000
0110
0000
0000
0101
0000
,
0010
0000
0000
0000
0100
0000
0000
0000
0010
0000
0000
0000
0100
0000
0000
0000
0010
0000
0000
0000
1000
0000
0000
0000
0100
0000
0000
0000
0000
0000
0001
0000
0000
0000
0000
0000
0010
0000
0000
0100
0000
0000
0001
0000
0000
0000
0000
0000
,
0010
1000
0000
0001
0100
0000
0010
0000
1000
0001
1000
0000
0010
0000
0100
0000
,
0100
0010
0000
0000
0001
0000
1000
0000
0100
0000
0001
0000
0010
0100
1000
0000
,
0001
0000
0100
0010
0000
0001
0010
0000
1000
0000
0001
0000
0100
0000
0010
0000
,
0101
0000
0000
0000
0000
0000
0000
0000
0100
0000
0010
0000
0001
1000
0010
0000
,
0100
0010
0000
1000
0001
0000
0100
0000
0010
0100
1000
0000
0100
1000
0000
0010
,
0100
0000
1000
0000
0010
0100
0000
0000
0001
0000
0100
0010
0001
0000
1000
0000
,
0010
0100
1000
0000
0010
0000
1000
0000
0100
0000
0010
0000
0001
0000
0100
0000
,
1001
1000
0001
0100
0001
1000
0001
1000
,
0001
0100
0010
1000
0010
1000
0010
0100
,
0001
0100
0001
0100
0010
1000
0010
1000
,
0010
0100
0001
0100
0001
0100
0010
1000
,
0010
1000
0010
0100
0001
0100
0001
0100
,
0010
1000
0010
1000
0010
0100
0001
0100
,
0010
0100
0010
1000
0100
0010
0001
0010
,
0001
1000
0010
1000
0010
1000
0001
0010
,
0000
0000
0100
0000
0001
0000
0100
0001
0010
0000
1000
0000
0100
0000
0010
0000
,
0100
0000
0010
1000
0001
0000
0100
0010
0001
0000
1000
0000
0100
0000
0010
0000
,
0100
0000
0010
0001
0100
0000
1000
0000
0010
0000
0100
1000
0001
0000
1000
0000
,
0100
0000
1000
0100
0010
0000
1000
0010
0100
0000
0010
0000
0001
0000
0010
0000
,
0100
0000
0010
1000
0100
0000
1000
0100
0010
0000
0100
0000
0010
0000
1000
0000
,
0010
0000
1000
0000
0001
0000
1000
0100
0001
0000
0010
0000
0100
0000
1000
0000
,
0001
0000
0100
1000
0010
0000
0100
0000
0010
0000
0100
1000
0001
0000
1000
0000
,
0010
0000
0100
0010
0001
0000
1000
0100
0010
0000
1000
0000
0100
0000
0010
0000
,
0000
0000
0100
0010
0100
0000
1000
0000
0001
0000
1001
0000
1100
0000
0001
0010
,
0001
0010
0001
0100
0010
0000
0010
0000
0001
0000
1001
0000
0011
0000
0100
0010
,
0001
0100
0001
0100
0001
0000
0100
0000
0100
0000
1001
0000
1001
0000
0001
0010
,
0100
0010
0100
1000
0100
0000
0001
0000
0100
0000
1000
0000
0100
0000
1000
0000
,
0100
0000
0010
0000
0001
0000
0010
0000
0001
0000
1100
0000
1001
0000
0001
0100
,
0001
0100
0010
0100
0010
0000
0010
0000
0100
0000
0110
0000
1010
0000
0010
1000
,
0100
1000
0100
0010
0100
0000
0001
0000
0001
0000
1001
0000
1010
0000
0010
0100
,
0010
1000
0001
0100
0001
0000
0001
0000
1000
0000
0000
0000
0001
0000
0000
0000
,
0001
0000
1000
0000
0001
0000
1000
0000
0001
0000
0100
1000
0000
0010
0100
0000
,
0001
0000
0100
0000
0101
0000
0000
0000
0010
0000
0100
0010
0000
1000
0010
0000
,
0100
0000
1000
0000
0100
0000
1000
0000
0001
0000
1000
0100
0000
0001
0010
0000
,
0001
0000
0000
0010
0000
0000
0100
0000
0000
0010
0000
0000
0001
0000
1000
0000
0001
0000
1000
0000
0001
0000
0100
0000
,
0010
0000
1000
0000
0010
0000
0100
0000
0010
0000
0100
1000
0000
0010
0100
0000
,
0001
0000
1000
0000
0001
0000
0000
0000
0100
0000
1000
0100
0000
0100
0010
0000
,
0001
0000
0010
0000
0001
0000
0010
0000
0100
0000
1000
0001
0000
0001
1000
0000
,
0001
0000
0000
1000
0000
0000
0100
0000
0000
0000
0000
0000
0001
0000
1000
0000
0001
0000
0010
0000
0001
0000
0010
0000
,
0100
1000
0100
1000
0220
0000
0000
0000
,
0000
0000
0000
0000
,
0000
0000
0000
0000
,
0000
0000
0000
0000
,
0000
0000
0330
0000
;
