#TITLE:Healing Vision;
#SUBTITLE:~Epic Rescue Mix~;
#ARTIST:Stealingvision;
#TITLETRANSLIT:;
#SUBTITLETRANSLIT:;
#ARTISTTRANSLIT:;
#GENRE:;
#CREDIT:;
#MUSIC:Healing Vision ~Epic Rescue Mix~.ogg;
#BANNER:Healing Vision ~Epic Rescue Mix~-bn.png;
#BACKGROUND:Healing Vision ~Epic Rescue Mix~-BG.png;
#CDTITLE:./CDTITLES/DANCE DANCE REVOLUTION/EXTREME 3.PNG;
#SAMPLESTART:30.768;
#SAMPLELENGTH:11.600;
#SELECTABLE:YES;
#OFFSET:-0.031;
#BPMS:0.000=49.000
,5.000=196.000
,149.000=98.000
,165.000=196.000
,261.000=49.000
,266.000=196.000
;
#STOPS:;
#BGCHANGES:;
#FGCHANGES:;

//--------------- dance-single - B. M'Rey ----------------
#NOTES:
     dance-single:
     B. M'Rey:
     Beginner:
     3:
     0,0,0,0,0:
0000
0000
0000
0000
,
0000
0001
0000
0000
,
0000
0100
0000
0000
,
0000
0010
0000
0000
,
0000
1000
0000
0000
,
0000
0001
0000
0000
,
0000
0100
0000
0000
,
0000
0010
0000
0000
,
0000
1000
0000
0000
,
0000
0001
0000
0001
,
0000
0001
0000
1000
,
0000
1000
0000
1000
,
0000
0100
0000
0100
,
0000
0100
0000
0000
,
0000
0010
0000
0000
,
0000
0001
0000
0000
,
0000
1000
0000
0000
,
0000
1001
0000
0000
,
0000
1001
0000
0000
,
0000
1001
0000
0000
,
0000
0001
0000
1000
,
0000
0001
0001
0001
,
0000
0100
0000
0010
,
0000
1000
1000
1000
,
0000
0100
0000
1000
,
0000
0010
0010
0010
,
0000
0100
0100
0100
,
0000
0001
0000
1000
,
0000
0001
0000
0100
,
0000
0010
0010
0010
,
0000
0001
0000
1000
,
0000
0100
0100
0100
,
0000
0010
0000
0001
,
0000
1000
1000
1000
,
0000
0001
0001
0001
,
0000
0100
0000
0010
,
0000
1000
0000
0001
,
0000
1001
0000
0000
,
0000
0100
0000
0000
,
0000
0010
0000
0000
,
0000
0001
0000
1000
,
0000
0001
0000
1000
,
0000
0001
0000
1000
,
0000
0001
0000
1000
,
0000
0010
0000
0000
,
0000
0100
0000
0000
,
0000
0010
0000
0000
,
0000
0001
0000
0000
,
0000
1001
0000
1001
,
0000
0010
0000
0100
,
0000
1000
0000
1000
,
0000
1000
0000
0000
,
0000
0010
0000
0100
,
0000
0001
0000
0000
,
0000
0000
0000
0010
,
0000
0100
0000
0000
,
0000
0000
0000
1000
,
0000
0100
0000
0000
,
0000
0000
0000
0001
,
0000
0010
0000
0000
,
0000
0100
0000
1000
,
0000
0001
0000
0000
,
0000
0100
0000
0010
,
0000
1000
0000
0000
,
0000
0001
0000
1000
,
0000
1001
0000
0000
,
0000
0000
0010
0000
,
0000
0000
0100
0000
,
0000
0000
1000
0000
,
0000
0000
0001
0000
,
0000
0000
0100
0000
,
0000
0000
0010
0000
,
0000
0000
1000
0000
,
0000
0000
0100
0000
,
0000
0000
1000
0000
,
0100
0000
1000
0000
,
0010
0000
0100
0000
,
0001
0000
0010
0000
,
0001
0000
1000
0000
,
1000
0000
0001
0000
,
0001
0000
1000
0000
,
0010
0000
0100
0000
,
0010
0000
1001
0000
;

//--------------- dance-single - B. M'Rey ----------------
#NOTES:
     dance-single:
     B. M'Rey:
     Easy:
     6:
     0,0,0,0,0:
0000
0000
0000
0000
,
0000
0001
0000
0010
,
0000
0100
0000
0010
,
0000
1000
0000
0100
,
0000
1000
0000
0001
,
0000
0010
0000
0001
,
0000
0100
0000
0010
,
0000
1000
0000
0001
,
0000
0010
0000
0100
,
0000
0001
0001
0001
,
0000
1000
1000
1000
,
0000
0010
0000
0100
,
0000
0010
0000
0001
,
0000
1000
0000
0010
,
0000
0100
0000
0001
,
0000
1000
0000
0010
,
0000
0100
0000
0001
,
0000
0000
0001
0000
0000
0001
0000
0000
,
0000
0000
1000
0000
0000
1000
0000
0000
,
0000
0000
0010
0000
0000
0010
0000
0000
,
0000
0100
0100
0010
,
0010
0000
0001
0000
0001
0010
0001
0000
,
1000
0100
0010
1000
,
0010
1000
0010
0000
0100
0000
0010
0000
,
0001
0001
0000
1000
,
0000
0010
0100
0010
,
0001
0010
0001
0000
1000
0000
0010
0000
,
0100
0010
1000
0000
0010
0000
0100
0000
,
0001
0100
0001
0000
0010
0000
1000
0000
,
0100
0010
0100
0001
,
0001
0100
0001
0000
0010
0000
1000
0000
,
0010
1000
0010
0000
0100
0000
0010
0000
,
0100
0001
0000
1000
,
0000
0010
0100
0010
,
0001
0100
0001
0000
0010
0000
1000
0000
,
0010
1000
0010
0000
0100
0000
0010
0000
,
0100
0001
1000
0010
,
0100
0001
0000
0100
,
0000
1000
0000
0010
,
0000
0001
0000
0100
,
0000
0010
0000
0001
,
1000
0010
0000
0001
,
0000
0100
0000
0010
,
0000
1000
0000
0100
,
0000
1000
0000
0010
,
0000
0100
0000
0010
,
0000
0001
0000
1000
,
0000
0010
0000
0100
,
0000
0001
1000
0001
,
1000
0010
0100
0010
,
0100
1000
0100
0010
,
0000
0001
0000
0100
,
0000
0010
0000
1000
,
0100
1000
0000
0010
,
0000
0100
0000
0001
,
0010
0001
0000
0100
,
0000
0010
0000
1000
,
0100
0010
0000
0001
,
0000
0010
0000
0001
,
0010
0100
0000
1000
,
0010
1000
0000
0010
,
0100
0001
0000
0010
,
1000
0100
0000
0010
,
0000
0001
0010
0100
,
0000
1000
0010
1000
,
0001
0020
0000
0000
,
0000
0000
0031
0010
,
0001
0000
1000
0100
,
0010
0000
1000
0100
,
0010
0000
0001
0010
,
0100
0000
0001
1000
,
0010
0000
0100
1000
,
0010
0000
0100
0010
,
1000
0000
0001
0010
,
0100
0000
0001
1000
,
0010
0100
0001
1000
,
0010
0100
0001
0010
,
0001
0010
0001
0010
,
0100
0010
1000
0100
,
1000
0100
1000
0010
,
0100
0010
0100
0001
,
1000
0010
0001
1000
,
0010
0001
1000
0000
2002
0000
0000
0000
,
0000
0000
3003
0000
;

//--------------- dance-single - B. M'Rey ----------------
#NOTES:
     dance-single:
     B. M'Rey:
     Medium:
     7:
     0,0,0,0,0:
0000
0000
0000
0000
,
0000
1000
0001
1000
,
0100
1000
0100
0010
,
0100
0010
0001
0010
,
0001
1000
0001
1000
,
0100
1000
0100
0010
,
0100
0010
0001
0010
,
0100
1000
0100
0010
,
0100
1000
0001
0100
,
0001
0000
0100
0010
0001
0000
1000
0000
,
0100
0000
1000
0010
0100
0000
1000
0000
,
0001
0000
0010
0100
0001
0000
0010
0000
,
0001
1000
0100
1000
,
0100
1000
0001
0100
,
0001
0100
0001
0010
,
0100
1000
0100
0010
,
0100
1000
0001
0010
,
0001
0000
1001
0000
0000
0110
0000
0000
,
0000
0000
0110
0000
0000
0110
0000
0000
,
0000
0000
1010
0000
0000
0110
0000
0000
,
0000
1000
0010
0100
,
0001
0000
1000
0000
0010
0100
1000
0000
,
0010
1000
0001
0100
,
0001
0010
0100
0000
0001
0000
0010
0000
,
0100
0000
0010
0001
0100
0000
0010
1000
,
0001
1000
0001
1000
,
0001
0010
0100
0010
,
0100
0001
0010
0000
0001
0000
1000
0000
,
0001
1000
0001
0010
,
0100
0000
0010
0000
0100
0001
0010
0000
,
0001
0000
1000
0000
0010
1000
0100
0000
,
0010
0100
0010
1000
,
0100
0000
0010
0100
0001
0000
0100
1000
,
0010
0100
0010
0100
,
0001
1000
0010
0000
0001
0000
1000
0000
,
0001
0000
1000
0010
0100
0000
1000
0000
,
0100
0010
0100
1000
,
0001
1000
0001
1000
,
0100
0010
0100
0010
,
0100
1000
0010
1000
,
0001
0000
1000
0000
0100
0000
0010
0010
,
0100
0100
1000
0001
0100
0000
0010
0100
,
0001
0000
0010
1000
0001
0000
0100
0000
,
0001
0000
0100
0001
0010
0000
0100
1000
,
0010
0000
1000
0001
0100
0000
0010
0000
,
0100
0010
0100
1000
,
0010
1000
0010
1000
,
0100
0010
0100
0010
,
0100
0000
1000
0001
1000
0000
1000
0001
,
1000
1000
0010
0100
,
0010
0000
0100
0000
0010
0000
1000
0100
,
0001
1000
0001
0100
,
0010
0100
0010
0100
,
0001
1000
0001
1000
,
0100
1000
0100
0010
,
0100
0010
0001
0010
,
0001
1000
0001
1000
,
0010
1000
0010
0100
,
0010
0100
0001
0100
,
0001
1000
0001
1000
,
0010
1000
0001
0010
,
0001
0010
0001
0100
,
0010
0100
0001
1000
,
0010
1000
0001
1000
,
0001
0100
0001
0100
,
0010
0200
0000
0000
,
0000
0000
0000
0000
0301
0000
1000
0100
,
0001
0000
0010
0000
0001
0000
0010
1000
,
0100
0000
0010
0000
0100
0000
1000
0001
,
0100
0000
1000
0000
0010
0000
1000
0001
,
0010
0000
0100
0000
0010
0000
0100
1000
,
0001
0000
0100
0000
0001
0000
1000
0010
,
0001
0000
0100
0000
0010
0000
0100
0001
,
0010
0000
0100
0000
0001
0000
1000
0010
,
0001
0000
1000
0000
0001
0010
0100
0000
,
0010
0000
0100
0000
0010
0000
0100
1000
,
0001
0000
0010
0000
0001
0000
1000
0100
,
0001
0000
1000
0000
0010
0000
1000
0001
,
0100
0000
0010
0000
0001
0010
1000
0000
,
0001
0100
1000
0000
0010
0001
1000
0000
,
0010
1000
0100
0000
0010
0001
0100
0000
,
0001
0010
0100
0000
0001
1000
0001
1000
,
0001
1000
0001
1000
0002
0000
0000
0000
,
0000
0000
0003
0000
;

//--------------- dance-single - B. M'Rey ----------------
#NOTES:
     dance-single:
     B. M'Rey:
     Hard:
     9:
     0,0,0,0,0:
0000
0000
0000
0000
,
0000
0000
1000
0000
0010
0100
0010
0000
,
0001
0000
1000
0000
0010
0100
0010
0000
,
0100
0000
0001
0000
0010
0001
0010
0000
,
1000
0000
0010
0000
0100
0010
0100
0000
,
0010
0000
1000
0000
0100
0010
1000
0000
,
0010
0100
0001
0000
0010
0001
1000
0000
,
0010
0000
0100
0000
0010
1000
0010
0000
,
0100
0000
0001
0000
0010
0001
0100
0000
,
0010
0000
0001
1000
0001
0000
0010
0100
,
0010
0000
0001
0010
0001
0000
1000
0010
,
1000
0000
0010
0100
0010
0000
0001
0010
,
0001
0000
1000
0010
1000
0000
0010
0100
,
0010
0000
1000
0010
1000
0000
0010
0100
,
0010
0000
0001
0010
0001
0000
0010
0100
,
0010
0000
1000
0100
1000
0000
0010
0100
,
0010
0000
0001
0010
0001
0000
0010
1000
,
0010
0000
1001
0000
0000
0101
0000
0010
,
0000
0000
1001
0000
0000
0110
0000
1001
,
0000
0000
0110
0000
0000
0101
0000
1010
,
0000
0010
1000
0010
,
0100
0000
1000
0000
0010
0100
1000
0000
,
1000
0100
0010
0000
0100
0001
0100
0001
,
0010
0100
0010
0000
0010
0000
1000
0001
,
0100
0000
1000
0010
1000
0000
0100
0010
,
0100
0000
0100
0001
1000
0000
1000
0000
,
0010
0001
1000
0000
0001
0000
1000
0100
,
0010
0000
0010
0001
1000
0000
0100
0001
,
0010
0000
0010
0100
0010
0000
1000
0001
,
1000
0000
0010
0000
0010
0100
0010
0001
,
1000
0100
1000
0000
1000
0000
0100
0001
,
0010
0001
0100
0000
0100
0000
0100
0001
,
1000
0100
1000
0000
1000
0001
0100
0000
,
0100
0010
0100
0000
0010
0000
0010
0001
,
0100
0010
0100
0000
0100
0000
0010
0100
,
0010
0100
0010
0000
0100
0000
0100
0001
,
1000
0100
1000
0100
1000
0000
0100
0000
,
0100
0001
0010
0000
1000
0000
0100
0000
,
1000
0010
0100
0001
,
0010
0001
0100
0010
,
1000
0100
1000
0010
,
0100
0000
1000
0000
0010
0001
0100
0000
,
0010
0100
0010
0000
0010
0001
0100
0000
,
1000
0100
1000
0000
1000
0001
0010
0000
,
1000
0001
0100
0000
0100
0001
1000
0000
,
1000
0010
1000
0000
0010
0100
0010
0000
,
0010
0100
1000
0000
1000
0001
1000
0000
,
0100
0001
0100
0000
0100
0010
1000
0000
,
0100
0001
0100
0000
0010
0000
0100
0000
,
0001
0000
1000
0000
1000
0001
1000
0000
,
0010
0000
0100
0000
1000
0000
1000
0001
,
1000
0000
0100
0010
0100
0000
1000
0000
,
0100
0000
1000
0001
1000
0000
1000
0000
,
0100
0010
1000
0000
0010
0000
0010
0001
,
0100
0000
0100
0010
0100
0000
1000
0000
,
0010
0001
1000
0000
0010
0000
1000
0000
,
0010
0000
0010
0100
1000
0000
1000
0000
,
0010
0001
0010
0000
1000
0000
1000
0001
,
1000
0000
0100
0000
0010
0000
1000
0001
,
1000
0000
1000
0010
0100
0000
0100
0000
,
1000
0000
0001
0000
1000
0100
0010
0000
,
0010
0100
1000
0000
0010
0000
0010
0001
,
1000
0000
1000
0100
1000
0000
0010
0000
,
0010
0001
1000
0000
0010
0000
0010
0100
,
1000
0000
1000
0000
0001
0000
0010
0001
,
0010
0002
0000
0000
,
0000
0000
0000
0000
0013
1000
0001
1000
,
0001
0000
0100
0000
0010
0100
0010
0100
,
0010
0000
1000
0000
0100
1000
0100
1000
,
0100
0000
0010
0000
0100
0010
0100
0010
,
0100
0000
0001
0000
0001
0010
0001
0010
,
0001
0000
0001
0000
0010
1000
0010
1000
,
0010
0000
0100
0000
0010
0100
0010
0100
,
0010
0000
1000
0000
0001
1000
0001
1000
,
0001
0000
0001
0000
0001
1000
0001
1000
,
0001
1000
0010
0000
0100
0010
0100
0010
,
0100
0010
0100
0000
0001
0010
0001
0010
,
0001
0010
0001
0000
1000
0100
1000
0100
,
1000
0100
1000
0000
0010
0100
0010
0100
,
0010
0100
0001
1000
0010
0100
0001
1000
,
0010
0100
0001
1000
0010
0100
0001
1000
,
0010
0100
0001
1000
0010
0100
0001
1000
,
0010
0100
0001
1000
2002
0000
0000
0000
,
0000
0000
3003
0000
;

//--------------- dance-single - B. M'Rey ----------------
#NOTES:
     dance-single:
     B. M'Rey:
     Challenge:
     10:
     0,0,0,0,0:
0000
0000
0000
0000
,
0000
0000
1000
0100
1000
0000
0010
0100
,
0010
0000
0001
0010
0001
0000
0001
0010
,
0001
0000
0010
1000
0010
0000
0100
0010
,
0100
0000
0010
1000
0010
0000
0100
0010
,
0100
0001
0010
1000
,
0010
0100
0010
0000
0001
0000
0010
0000
,
1000
0001
1000
0000
0010
0000
0100
0000
,
0001
0010
0001
0000
1000
0000
0010
0000
,
0100
0000
0010
0100
0010
0000
0001
0010
,
0001
0000
1000
0100
1000
0000
0010
0100
,
0010
0000
0001
0010
0001
0000
0010
1000
,
0010
0000
0100
0010
0100
0000
0010
0001
,
0010
0000
0001
0010
0001
0000
1000
0100
,
1000
0000
0010
0100
0010
0000
1000
0100
,
1000
0000
0010
0100
0010
0000
0001
0010
,
0001
0000
0010
0100
0010
0000
0001
0010
,
0001
0000
1001
0000
0000
1001
0000
0010
,
0000
0001
1010
0000
0000
1010
0000
0101
,
0000
0010
0001
0000
0000
1010
0000
0110
,
0000
0000
0001
0000
0010
0000
0001
0010
0001
0000
0100
0000
1000
0000
0100
1000
,
0100
0010
0001
0100
0001
0100
0001
0010
,
0100
0010
0100
0010
0001
1000
0001
1000
,
0001
0010
0100
0010
0100
0010
0001
1000
,
0010
0000
1000
0000
0010
0000
0100
0010
0100
0000
0000
0000
0001
0000
0100
0001
,
0100
0000
0001
0100
0010
0100
0010
0100
,
0001
1000
0001
1000
0001
0010
0100
1000
,
0100
1000
0010
0100
0010
1000
0010
0100
,
0001
1000
0100
0010
0100
0010
0100
1000
,
0001
1000
0001
1000
0010
0100
0010
0100
,
0010
1000
0001
1000
0001
1000
0100
0010
,
0100
0010
0100
1000
0001
0010
0001
0010
,
0001
0000
0100
0000
0010
0000
1000
0100
1000
0000
0000
0000
0100
0000
1000
0010
,
1000
0000
0010
0100
0010
1000
0100
1000
,
0100
1000
0010
0100
0010
0100
0010
1000
,
0001
1000
0001
1000
0100
0010
0100
0010
,
0100
1000
0001
1000
0001
1000
0010
0100
,
0001
0000
0100
0000
0100
0010
0100
0010
0001
0000
0001
0100
0010
1000
0001
0010
,
0100
0000
0010
0100
0010
1000
0100
0010
0100
0000
0001
0100
0010
1000
0100
0010
,
0001
0000
0010
1000
0100
0010
0100
0010
0001
0000
0001
0100
0010
1000
0100
1000
,
0010
0000
0001
0010
0001
0100
0010
1000
0100
0000
0001
0100
0001
1000
0100
0010
,
0001
0100
0010
1000
0001
0000
1000
0000
0001
0000
1000
0000
0001
0000
0100
0000
,
0010
0100
0010
0100
0001
1000
0001
1000
,
0001
0010
0100
0010
0100
0010
0001
1000
,
0010
1000
0100
1000
0100
0010
0001
0010
,
0001
0010
0100
1000
0100
1000
0100
0010
,
0001
0100
0001
0100
0001
1000
0100
1000
,
0100
1000
0001
0010
0001
1000
0001
1000
,
0010
0000
1000
0000
0100
0000
0001
0010
0001
0000
0100
0000
0010
0000
0100
1000
,
0100
0010
0001
1000
0010
1000
0010
0100
,
0010
0100
0001
0100
0001
1000
0001
1000
,
0100
1000
0100
0010
0100
1000
0010
1000
,
0001
1000
0001
0100
0001
0100
0010
0100
,
0001
0010
0001
0100
0010
0100
0001
1000
,
0001
1000
0001
0010
0100
0010
0100
1000
,
0001
1000
0100
1000
0100
0010
0001
0010
,
0001
0010
0100
1000
0001
1000
0001
1000
,
0010
0100
0010
0100
0010
1000
0001
1000
,
0001
1000
0010
0100
0010
0100
0010
1000
,
0100
1000
0100
1000
0001
0010
0001
0010
,
0001
1000
0100
1000
0001
1000
0001
0010
,
0001
0100
0010
0100
0010
0100
0001
1000
,
0100
1000
0100
1000
0001
0100
0001
1000
,
0100
1000
0100
1000
0001
0100
0001
0100
,
0001
1000
0010
0100
0010
0100
0010
1000
,
0001
2002
0000
0000
,
0000
0000
0000
0000
0000
0000
0000
3003
0100
0000
0001
0000
0010
0000
0001
0000
,
0010
0001
1000
0010
1000
0010
1000
0001
,
0010
0001
0010
0001
1000
0010
1000
0010
,
1000
0001
0010
0001
0010
0001
1000
0100
,
1000
0100
1000
0001
0100
0001
0100
0001
,
0010
0100
0010
0100
1000
0100
1000
0001
,
1000
0001
0100
0001
0100
0010
0100
0010
,
1000
0010
0100
0001
0100
0001
1000
0001
,
0100
0000
0010
0000
0100
0000
0001
0000
0100
0000
0010
0100
1000
0000
0100
0000
,
0010
0000
0100
0000
0010
0000
0100
0000
1000
0000
0010
0001
0100
0000
0010
0000
,
1000
0000
0100
0000
0010
0000
0001
0000
0100
0000
0010
1000
0100
0000
0001
0000
,
0100
0000
0001
0000
1000
0000
0001
0000
1000
0000
0010
1000
0100
0000
0001
0000
,
0010
0000
0100
0000
1000
0000
0001
0000
1000
0001
1000
0001
1000
0000
0010
0000
,
0010
0000
1000
0000
1000
0000
1000
0000
0100
0010
1000
0100
0010
0000
0010
0000
,
0010
0000
1000
0000
1000
0000
0100
0000
0010
0001
0100
0001
0100
0001
1000
0100
,
1000
0100
1000
0001
0100
0001
0100
0001
1000
0100
1000
0100
1000
0001
0100
0001
,
0100
0010
0100
0010
1000
0010
1000
0100
2000
0000
0000
0000
0000
0000
0000
0000
,
0000
0000
3000
0000
;
