#TITLE:행복;
#SUBTITLE:-super euro version-;
#ARTIST:H.O.T.;
#TITLETRANSLIT:Haengbog;
#SUBTITLETRANSLIT:;
#ARTISTTRANSLIT:;
#GENRE:;
#CREDIT:;
#MUSIC:Haengbog -super euro version-.ogg;
#BANNER:Haengbog -super euro version--bn.png;
#BACKGROUND:Haengbog -super euro version--bg.png;
#CDTITLE:./CDTITLES/Para Para Paradise.PNG;
#SAMPLESTART:54.571;
#SAMPLELENGTH:12.000;
#SELECTABLE:YES;
#OFFSET:-0.039;
#BPMS:0.000=154.000;
#STOPS:;
#BGCHANGES:;
#FGCHANGES:;

//--------------- dance-single - B. M'Rey ----------------
#NOTES:
     dance-single:
     B. M'Rey:
     Beginner:
     2:
     0,0,0,0,0:
0000
0000
0000
0000
,
0000
0000
0000
0000
,
1000
0000
0000
0000
,
0001
0000
0000
0000
,
0100
0000
0000
0000
,
0010
0000
0010
0000
,
0001
0000
0000
0000
,
1000
0000
0000
0000
,
0100
0000
0000
0000
,
0010
0000
0010
0000
,
0001
0001
0001
0000
,
1000
0000
0100
0000
,
0010
0000
1000
0000
,
0100
0100
0000
0000
,
0001
0000
0010
0000
,
0001
0000
1000
0000
,
0010
0010
0100
0000
,
1000
0000
0001
0000
,
0100
0000
0010
0000
,
0100
0010
0100
0000
,
0001
0000
1000
0000
,
0010
1000
0010
0000
,
0100
0000
0010
0000
,
0001
0010
0001
0000
,
0100
0000
0010
0000
,
1000
0100
1000
0000
,
0010
0000
0100
0000
,
0001
0000
0001
1000
,
0001
0000
0100
0000
,
0010
0000
0000
0000
,
0001
0000
1000
0000
,
0010
0000
0100
0001
,
0100
0000
1000
0000
,
0010
0100
0010
0100
,
0020
0000
0030
0000
,
0001
0000
1000
0010
,
0100
0000
0001
0010
,
1000
0000
0100
0000
,
0010
0000
0001
0000
,
1000
0000
0001
0010
,
1000
0000
0100
1000
,
0010
0000
0100
0000
,
0001
0000
1000
0000
,
0001
1000
0001
0000
,
0020
0000
0000
0030
,
0100
0000
0001
0000
,
2000
0000
0000
3001
,
1000
0000
0000
0000
,
0001
0000
0000
0000
,
0100
0000
0000
0000
,
0010
0000
0010
0000
,
0001
0000
0000
0000
,
1000
0000
0000
0000
,
0100
0000
0000
0000
,
0010
0000
0010
0000
,
0001
0000
0000
0000
;

//--------------- dance-single - B. M'Rey ----------------
#NOTES:
     dance-single:
     B. M'Rey:
     Easy:
     4:
     0,0,0,0,0:
0000
0000
0000
0000
,
0000
0000
0000
0000
,
1000
0000
0001
0000
,
0100
0100
0100
0000
,
0010
0000
0001
0000
,
0001
0001
0001
1000
,
1000
0000
0010
0000
,
0100
0100
0100
0000
,
0001
0000
0010
0000
,
0001
0010
0100
1000
,
0010
0100
0001
0000
,
0010
0001
1000
0000
,
0100
0010
1000
0100
,
0001
0000
0000
1000
0000
0000
0100
0000
,
0010
0100
0001
0000
,
1000
0010
0100
0000
,
0001
1000
0010
0100
,
1000
0001
0010
0000
,
0001
0100
0010
1000
,
0100
1000
0010
0100
,
0001
0010
0001
1000
,
0010
0100
0001
0000
,
0001
0010
1000
0100
,
1000
0010
0001
0100
,
0010
1000
0100
1000
,
0001
0100
0010
0001
,
1000
0010
0100
1000
,
0001
0010
0001
0100
,
0010
0001
1000
0100
,
1000
0000
0001
0000
,
0010
0100
0001
0010
,
0001
1000
0100
1000
,
0010
0100
1000
0010
,
0001
1000
0010
0100
,
2002
0000
0000
3003
,
1000
0010
0100
1000
,
0001
0010
0001
0100
,
0010
1000
0100
1000
,
0010
0100
0002
0000
,
0013
0100
0001
1000
,
0010
0100
1000
0001
,
0010
0100
0001
0010
,
1000
0000
0001
0000
,
0100
0010
1000
0001
,
0200
0000
0320
0000
,
0031
0010
1000
0100
,
2000
0000
0000
3001
,
0010
0000
1000
0000
,
0001
0010
0100
0001
,
1000
0000
0010
0000
,
0100
0100
0010
0010
,
0001
0000
1000
0000
,
0010
0100
0001
1000
,
0010
0000
0100
0000
,
0001
0010
1000
0100
,
1001
0000
0000
0000
;

//--------------- dance-single - B. M'Rey ----------------
#NOTES:
     dance-single:
     B. M'Rey:
     Medium:
     6:
     0,0,0,0,0:
0000
0000
0000
0000
,
0000
0000
0000
0000
,
1000
0000
0001
0000
0010
0100
1000
0000
,
0010
0000
0100
0000
0001
0100
0010
0000
,
1000
0000
0001
0000
0010
0100
1000
0000
,
0001
1000
0010
0100
,
0001
0000
1000
0000
0010
0100
0001
0000
,
0010
0000
1000
0000
0010
1000
0100
0000
,
0001
0000
0010
0000
0001
0010
0100
0000
,
0001
1000
0010
0100
,
0001
0010
0001
0000
1000
0000
0010
0000
,
0100
0000
0010
1000
0010
0100
0000
0001
,
0000
0010
0001
0000
0010
0000
1000
0000
,
0010
0100
0000
0001
0000
0000
0000
0000
,
0010
0000
1000
0000
0010
1000
0000
0010
,
0000
0100
0001
0000
0010
0000
1000
0000
,
0010
0000
1000
0000
0010
0100
0001
0000
,
0010
1000
0010
0000
,
0001
0000
1000
0000
0010
0100
1000
0000
,
0010
0100
0001
0000
0010
1000
0010
0000
,
0010
0100
0001
0000
0010
1000
0010
0000
,
0100
0010
1000
0001
,
0001
0000
0010
0100
1000
0000
0010
0100
,
0001
0000
0010
1000
0010
0000
0100
0010
,
0100
0000
0001
0000
1000
0000
0010
0100
,
0001
0000
0010
0000
1000
0000
0001
1000
,
0001
0000
0010
0000
0100
0001
0100
0000
,
0010
0000
1000
0000
0010
1000
0010
0000
,
0100
0010
0001
0010
,
0001
0000
0000
1000
0000
0000
0020
0000
0000
0000
0000
0000
0130
0000
0000
0000
,
0001
0000
0010
0000
0001
1000
0010
0000
,
0100
0000
1000
0000
0010
1000
0100
0000
,
0010
0001
0010
0001
,
1000
0001
0010
0000
0100
0010
0001
0000
,
2002
0000
0000
3003
,
1000
0000
0010
0000
0100
0001
0100
0000
,
0010
0000
1000
0000
0010
1000
0010
0000
,
0100
0000
0010
0000
0001
0100
0010
0000
,
1000
0000
0100
0000
0001
1000
0001
1000
,
0001
0000
0010
0000
0100
0001
0100
0000
,
0010
0000
1000
0000
0010
1000
0010
0000
,
0100
0000
0010
0000
0001
0100
0001
0000
,
0010
0000
0000
1000
0000
0000
0100
0000
0020
0000
0000
0000
0000
0000
0000
0000
,
0031
0010
0001
0100
,
0010
0000
0000
0100
0000
0000
1000
0000
0010
0000
0000
0000
0001
0000
0000
0000
,
0001
0100
0010
0000
0001
0100
0010
0000
,
0002
1000
0010
0103
,
0001
0010
1000
0000
0010
0100
0010
0000
,
0001
0000
1000
0000
0001
0010
0100
0000
,
1000
0000
0010
0000
0100
1000
0100
0000
,
0001
0100
0010
1000
,
0001
1000
0100
0000
0010
1000
0100
0000
,
0001
0000
0010
0000
0001
0010
0100
0000
,
1000
0000
0010
0000
0100
0010
1000
0000
,
0001
0100
0010
0001
,
1001
0000
0000
0000
;

//--------------- dance-single - B. M'Rey ----------------
#NOTES:
     dance-single:
     B. M'Rey:
     Hard:
     9:
     0,0,0,0,0:
0000
0000
0000
0000
,
0000
0000
0000
0000
,
0010
0000
0100
0000
0010
0000
0100
0000
0001
0010
0001
0010
0001
0000
0100
0000
,
0001
1000
0100
1000
0010
1000
0010
0100
,
0010
1000
0100
0010
0001
0010
0100
1000
,
0010
0001
0000
0100
0001
0000
0010
0100
0000
1000
0100
0000
0010
0000
0001
0000
,
0010
0000
0100
0000
0001
0000
0100
0000
0001
1000
0001
1000
0001
0000
1000
0000
,
0010
0100
0001
0010
0001
1000
0010
0100
,
0010
0100
0001
0100
0001
0010
0100
1000
,
0001
0010
0000
1000
0100
0000
0001
0010
0000
1000
0100
0000
1000
0000
0100
0000
,
0001
0100
0010
0100
0001
0100
0000
1000
,
0000
1000
0001
0100
0010
1000
0000
1000
,
0000
1000
0010
0100
0001
1000
0010
0100
,
0001
0010
0000
1000
0000
0010
0100
0000
,
0100
0010
0001
1000
0010
1000
0000
0010
,
0000
1000
0001
0100
0001
0010
0000
0010
,
0000
1000
0010
0100
0010
0100
0001
0010
,
0100
1000
0001
0010
1000
0000
0000
1000
,
0100
1000
0001
0010
0100
0010
0100
0010
,
0001
1000
0010
0100
0010
0100
0010
1000
,
0100
1000
0001
0100
0010
0100
0001
0010
,
0100
1000
0010
0100
0001
0100
0001
1000
,
0010
1000
0001
0010
0001
1000
0001
0100
,
0010
1000
0100
1000
0010
0100
0001
0100
,
0010
0100
0001
1000
0010
0100
0001
0010
,
0100
1000
0100
0010
0100
0010
0001
1000
,
0010
0000
0100
0000
0100
1000
0100
0010
,
0001
0000
0001
0000
0001
1000
0100
1000
,
0100
0000
0001
0010
0001
0100
0001
0100
,
0010
0000
0000
1000
0000
0000
0100
0000
0000
0000
1000
0000
0010
0000
1000
0000
,
0001
0000
0001
0000
0001
0100
0010
1000
,
0010
0000
0001
0000
0001
0010
0100
1000
,
0100
0000
0000
0010
0000
0000
0001
0000
0010
0000
0000
0100
0000
0000
0010
0000
,
0100
0010
0100
0010
0001
0010
0100
1000
,
0011
0000
0000
0101
0000
0000
0011
0000
0000
0000
0010
0000
0100
0000
0000
0000
,
0010
0000
0000
0100
0000
0000
0010
0000
0001
0000
0010
0000
0100
0000
0010
0000
,
0001
0000
0000
0010
0000
0000
0100
0000
0010
0000
1000
0000
0001
0000
1000
0000
,
0010
0000
0000
0001
0000
0000
0100
0000
0001
0000
0100
0000
0010
0000
1000
0000
,
0100
0000
0000
0010
0000
0000
0100
0000
0010
0000
0100
0000
0010
0000
1000
0000
,
0001
0000
0000
0010
0000
0000
0100
0000
0010
0000
0100
0000
0001
0000
1000
0000
,
0100
0000
0000
0100
0000
0000
1000
0000
0001
0000
0100
0000
0001
0000
1000
0000
,
0010
0000
0000
0001
0000
0000
0100
0000
0001
0000
0010
0000
0001
0000
0010
0000
,
0100
0000
0000
0001
0000
0000
1000
0000
0002
0000
0000
0000
0000
0000
0000
0000
,
0103
0000
0001
0000
1000
0000
0100
0001
,
1000
0000
0000
0100
0000
0000
1000
0000
0000
0000
1000
0000
0010
0000
0000
0000
,
0010
0100
0001
0000
0100
0010
0001
0000
,
0200
0010
0001
0310
,
0010
0000
0100
0000
0010
0000
0100
0000
1000
0010
1000
0010
1000
0000
0100
0000
,
1000
0001
0100
0001
0010
0001
0010
0100
,
0010
0001
0100
0010
1000
0010
0100
0001
,
0010
1000
0000
0100
1000
0000
0010
0100
0000
0001
0100
0000
0010
0000
1000
0000
,
0010
0000
0100
0000
1000
0000
0100
0000
1000
0001
1000
0001
1000
0000
0001
0000
,
0010
0100
1000
0010
1000
0001
0010
0100
,
0010
0100
1000
0100
1000
0010
0100
0001
,
1000
0010
0000
0001
0100
0000
1000
0010
0000
0001
0100
0000
0001
0000
0100
0000
,
2200
0000
0000
0000
,
3300
0000
0000
0000
;
