#VERSION:0.83;
#TITLE:HEY GUY (SPIDER MIX);
#ARTIST:LAURIE;
#GENRE:EUROBEAT;
#MUSIC:Hey Guy (Spider Mix).ogg;
#BANNER:HEY GUY (SPIDER MIX)-bn.png;
#BACKGROUND:HEY GUY (SPIDER MIX)-bg.png;
#CDTITLE:./CDTITLES/LOVE PARA² PRESENTS DONKIPARA.png;
#SAMPLESTART:68.878;
#SAMPLELENGTH:15;
#OFFSET:-0.359;
#BPMS:0=162;

//--------------- dance-single - B. M' Rey ----------------
#NOTEDATA:;
#STEPSTYPE:dance-single;
#DESCRIPTION:B. M' Rey;
#DIFFICULTY:Beginner;
#METER:3;
#RADARVALUES:0,0,0,0,0;
#NOTES:
0000
0000
0000
0000
,
0000
0000
0000
0000
,
0000
0000
0000
0000
,
0000
0000
0000
0000
,
0000
0000
0000
0000
,
0000
0000
0000
0000
,
0000
1000
0000
0001
,
0000
0100
0000
0000
,
0000
0010
0000
1000
,
0000
0010
0000
0000
,
0000
0001
0000
0100
,
0000
0010
0000
0000
,
0000
1000
0000
0010
,
0000
0100
0000
0000
,
0000
0001
0000
1000
,
0000
0010
0000
0000
,
0000
0100
0000
1000
,
0000
0010
0000
0000
,
0000
0001
0000
0100
,
0000
0000
0000
1000
,
0000
0010
0000
0000
,
0100
0000
0000
0000
,
0000
0001
0000
1000
,
0000
0010
0000
0000
,
0000
0100
0000
0001
,
0000
1000
0000
0000
,
0000
0010
0000
0100
,
0000
0010
0000
0000
,
0000
1000
0000
0000
,
0000
0001
0000
0000
,
0000
1010
0000
0101
,
0000
0110
0000
1001
,
0000
0001
0001
0001
,
0000
0100
0000
0010
,
0000
1010
0000
0110
,
0000
0101
0000
0110
,
0000
1000
0000
0000
,
0000
0001
0000
0000
,
0000
0101
0000
0110
,
0000
1010
0000
0110
,
0000
0001
0001
0001
,
0000
1000
0000
0010
,
0000
0110
0000
1010
,
0000
0101
0000
0110
,
0000
1000
0000
0000
,
0000
0010
0000
0000
,
0000
0100
0000
0010
,
0000
0001
0000
0000
,
0000
1000
0000
0010
,
0000
0100
0000
0000
,
0000
0001
0000
1000
,
0000
0010
0000
0100
,
0001
1000
0000
0010
,
0000
0100
0000
1000
,
0000
0001
0000
0100
,
0000
0010
1000
0000
,
0000
0010
0000
0100
,
0000
0001
0000
0000
,
0000
1000
0000
0010
,
0000
0100
0000
0010
,
1000
0001
0000
0010
,
0000
0100
0000
0000
,
0000
0001
0000
1000
,
0000
0010
0000
0100
,
0000
0010
0000
0001
,
0000
1000
0000
0010
,
0000
1001
0000
0010
,
0000
0100
0000
0001
,
0000
1000
0000
0010
,
0000
0100
0000
1000
,
0000
1001
0000
0000
;

//--------------- dance-single - B. M' Rey ----------------
#NOTEDATA:;
#STEPSTYPE:dance-single;
#DESCRIPTION:B. M' Rey;
#DIFFICULTY:Easy;
#METER:7;
#RADARVALUES:0,0,0,0,0;
#NOTES:
0000
0000
0000
0000
,
0000
0000
0000
0000
,
0000
0000
0000
0000
,
0000
0000
0000
0000
,
0000
0000
0000
0000
,
0000
0000
0000
0000
,
1001
1000
0010
1000
,
0010
0010
1000
0100
,
0010
0001
0001
0010
,
0001
0010
0100
1000
,
0010
0001
0010
0001
,
0010
0010
0001
0100
,
0010
1000
1000
0010
,
1000
0010
0100
0001
,
0010
1001
0000
0100
,
0001
0200
0300
0020
,
0030
0000
1000
0010
,
0100
0020
0030
2000
,
3000
0001
1000
0001
,
1000
0010
0000
1000
,
0010
0001
0000
0010
,
0000
1000
0000
0010
,
0000
1001
0000
0010
,
1000
0020
0030
0200
,
0300
0000
0001
0100
,
0010
0200
0300
0002
,
0003
1000
0001
1000
,
0001
0100
0000
0001
,
0100
1000
0000
0200
,
0300
0002
0003
0000
,
1000
0010
1000
0010
,
0001
0010
0001
0010
,
1000
1001
1001
1001
,
1000
0100
0001
0010
,
1000
0010
0001
0010
,
0001
0010
1000
0010
,
2000
3000
0002
0003
,
2000
3000
0002
0003
,
0001
0010
0001
0010
,
1000
0010
1000
0010
,
0001
1001
1001
1001
,
1000
0100
1000
0010
,
0001
0010
1000
0010
,
1000
0010
0001
0010
,
1000
0002
0003
2000
,
3000
0020
0000
0030
,
0000
2001
0000
3010
,
0000
0001
1000
0010
,
0000
1000
0010
1000
,
0010
1000
0100
0010
,
0000
0002
0000
0013
,
0000
0100
0001
0010
,
0000
0100
1000
0010
,
0000
2000
3000
0002
,
0003
1002
0000
0013
,
0000
1000
0001
0010
,
0000
0001
0010
0001
,
0010
0001
0010
0100
,
0000
2000
0000
3010
,
0000
0100
1000
0010
,
0000
0200
0300
0002
,
1003
0001
0001
1000
,
1000
1001
0010
1000
,
0010
0010
1000
0100
,
0010
0001
0001
0010
,
0001
0010
0100
1000
,
0010
0001
0010
0001
,
0010
0010
0001
0100
,
0010
1000
1000
0010
,
1000
0010
0100
0001
,
0010
2002
0000
3003
;

//--------------- dance-single - B. M' Rey ----------------
#NOTEDATA:;
#STEPSTYPE:dance-single;
#DESCRIPTION:B. M' Rey;
#DIFFICULTY:Medium;
#METER:10;
#RADARVALUES:0,0,0,0,0;
#NOTES:
0000
0000
0000
0000
,
0000
0000
0000
0000
,
0000
0000
0000
0000
,
0000
0000
0000
0000
,
0000
0001
0000
1000
,
0000
0000
0010
0100
0010
0100
0000
0000
,
1001
0010
0100
0001
,
0010
0000
1000
0000
0100
0010
1000
0000
,
0001
0100
0010
0000
1000
0000
0100
0000
,
1000
0000
0010
0000
1000
0010
1000
0000
,
0001
0100
0010
0000
1000
0000
0100
0000
,
0010
0000
1000
0000
0001
0010
0001
0000
,
1000
0100
1000
0000
0010
0000
0100
0000
,
0001
0000
0010
0000
0100
0010
0100
0000
,
1000
0100
1000
0000
0001
0000
0010
0000
,
0001
0100
0010
0000
1000
0000
0100
0000
,
0010
1000
0001
0010
,
0100
0010
1000
0000
0001
0000
0010
0000
,
0100
0000
0001
0100
0000
0010
0000
1000
,
0000
0100
0000
0010
0000
0000
1000
0010
,
1000
0010
0000
0001
0100
0000
0000
0010
,
1000
0010
1000
0000
0001
0100
0000
0010
,
0100
1000
0000
0001
,
0100
0000
0010
0000
1000
0000
0001
1000
,
0001
1000
0000
0000
0000
0000
0010
0000
,
0100
0000
1000
0000
0010
0000
0100
0001
,
0100
0010
1000
0100
,
1000
0000
0001
0000
0010
0100
0000
0001
,
0000
2000
0000
0000
0000
0000
0000
3010
,
0100
0020
0000
0000
0000
0030
0000
0001
,
0010
0001
0000
1000
0100
1000
0000
0010
,
0100
0010
0000
0001
0010
0001
0000
1000
,
0010
1001
1001
0010
,
0100
0000
0001
0000
0010
1000
0000
0001
,
1000
0001
0000
0010
0100
0010
0000
0001
,
0010
0001
0000
1000
0100
1000
0000
0010
,
0000
0200
0000
0000
0301
0000
0000
0000
,
0000
2000
0000
0000
3010
0000
0000
0001
,
0010
0001
0000
0010
0100
0010
0000
1000
,
0100
1000
0000
0010
0100
0010
0000
0001
,
0010
1001
1001
0010
,
0100
0000
0001
0010
1000
0010
0000
0001
,
0000
0100
0000
0010
1000
0010
0000
0001
,
0100
0001
0000
0010
1000
0010
0000
0100
,
0000
0020
0000
0000
1030
0000
0000
0000
,
0000
0001
0100
0000
0010
0000
0100
0001
,
0100
1001
0011
1000
,
1010
0000
0100
0001
0010
0002
0000
0003
,
0000
0100
0001
0100
0010
0100
0001
0100
,
0010
1000
0100
0010
0001
0001
0010
0001
,
0010
0001
0012
0000
0103
0000
2010
0000
,
3100
0000
0010
0001
0010
0200
0000
0300
,
1000
0020
0000
0030
0100
0002
0000
0003
,
1000
0010
0000
0100
0010
0001
0000
0001
,
0010
0001
1001
0000
1010
0000
0001
0000
,
0011
0000
0100
1000
0010
2000
0000
3000
,
0000
0100
1000
0100
0010
0100
1000
0100
,
0010
0001
0100
0010
1000
1000
0010
0000
,
0001
2010
3100
0012
,
0103
0000
0010
1000
0010
0200
0000
0300
,
0001
0020
0000
0030
0100
2000
0000
3010
,
1000
1010
0000
0001
0010
0011
0000
1000
,
1001
0010
0100
0001
,
0010
0000
1000
0000
0100
0010
1000
0000
,
0001
0100
0010
0000
1000
0000
0100
0000
,
1000
0000
0010
0000
1000
0010
1000
0000
,
0001
0100
0010
0000
1000
0000
0100
0000
,
0010
0000
1000
0000
0001
0010
0001
0000
,
1000
0100
1000
0000
0010
0000
0100
0000
,
0001
0000
0010
0000
0100
0010
0100
0000
,
1000
0100
1002
0000
0000
0000
0003
0000
;

//--------------- dance-single - B. M' Rey ----------------
#NOTEDATA:;
#STEPSTYPE:dance-single;
#DESCRIPTION:B. M' Rey;
#DIFFICULTY:Hard;
#METER:13;
#RADARVALUES:0,0,0,0,0;
#NOTES:
0000
0000
0000
0000
,
0000
0000
0000
0000
,
0000
0000
0000
0000
,
0000
0000
0000
0000
,
0000
1001
0000
0101
,
0000
0000
0010
1000
0010
0100
0000
0001
,
1000
0000
1000
0001
0010
0001
0010
0001
,
1000
0100
1000
0100
0010
0100
0010
0001
,
0010
0001
0100
0001
0100
0010
0100
0010
,
1000
0010
1000
0001
1000
0010
0100
0001
,
0100
0001
0100
0010
1000
0010
1000
0010
,
0100
0001
1000
0001
1000
0001
0100
0010
,
0100
0010
1000
0001
1000
0010
1000
0010
,
0100
0010
0100
0001
0100
0001
1000
0001
,
1000
0000
0010
0000
0001
0000
0000
0000
0000
0000
1000
0000
0001
0000
0000
0100
,
0000
0010
1000
0000
0001
0100
0001
0100
,
0001
0000
1000
0000
0000
0000
0010
0000
0000
0000
0100
0000
0010
0000
0000
1000
,
0000
0100
1000
0000
0010
0100
0001
0000
,
0010
0000
0001
0010
0000
1000
0000
0010
,
0100
1000
0000
0001
0000
0100
0010
1000
,
0001
0100
0000
0010
1000
0001
0000
0100
,
0010
0000
1000
0000
0000
0000
0001
0000
0100
0000
0010
0000
0100
0000
0001
0100
,
0010
0000
1000
0000
0010
0000
0000
0000
0100
0000
0001
0000
1000
0000
0000
0100
,
0000
0010
1000
0000
0001
0100
0010
0001
,
0010
0000
0001
0000
0000
0000
1000
0000
0000
0000
0010
0000
0100
0000
0000
1000
,
0000
0001
0100
0000
0010
0000
0001
1000
,
0010
0100
0010
1000
0000
0001
0000
0010
,
0000
0100
0000
0000
0001
1000
0000
0010
,
0000
0200
0000
0001
0000
0010
0301
0010
,
0001
0010
0000
1000
0100
0010
1000
0001
,
0010
0000
0001
0010
0001
0000
1000
0000
0100
0000
1000
0100
1000
0000
0010
0000
,
0100
0000
0010
0001
0010
0000
0001
0000
0010
0000
0001
1000
0100
0000
0001
0000
,
0010
0001
1001
0000
1001
0000
0010
0000
,
0100
0000
0001
0010
1000
0100
0000
0010
,
1000
0000
1000
0100
1000
0000
0001
0000
0100
0000
0010
0001
0010
0000
0010
0000
,
1000
0000
0010
0100
0010
0000
0100
0000
0010
0000
1000
0000
0000
0000
0001
0000
,
0000
0100
0000
0010
1000
0100
1000
0000
,
0010
0100
0000
0001
0000
0010
0000
0001
,
0010
0000
0001
1000
0001
0000
1000
0000
0010
0000
0100
0001
1000
0000
0010
0000
,
0100
0000
0100
0001
0100
0000
0010
0000
0100
0000
1000
0001
1000
0000
0010
0000
,
0100
0001
1001
0000
1001
0000
0010
0000
,
0001
0000
0001
1000
0010
0100
0000
0010
,
1000
0000
0010
0100
0001
0000
0001
0000
0100
0000
0001
0010
1000
0000
0010
0000
,
1000
0000
0010
0001
0100
0000
0100
0000
0010
0000
0100
1000
0010
0000
0001
0000
,
0000
1000
0000
0000
0010
0000
0100
0000
,
0001
0000
0000
0000
0010
0000
0000
0000
1000
0000
0000
0000
0001
1000
0001
1000
,
0001
1000
0001
1000
0001
0010
0001
0000
0010
0100
0010
0000
0100
1000
0100
0000
,
0010
0001
0010
0000
0100
0000
1000
0000
0010
0000
0100
0000
0000
0000
0001
0000
,
0001
1000
0000
1000
0010
0100
0010
0100
,
0010
1000
0100
1000
0100
1000
0001
0100
,
0001
0000
0100
0000
0001
0010
0001
0000
0100
0010
0100
0000
1000
0100
1000
0000
,
0010
0100
0010
0000
1000
0000
0001
0000
1000
0000
0010
0000
0000
0000
0010
0000
,
0100
0010
0200
0001
0000
0301
0010
0001
,
0010
0100
0000
0100
1000
0001
0000
0001
,
1000
0000
0010
0000
0001
0010
0001
0000
0010
0100
0010
0000
0100
1000
0100
0000
,
0001
1000
0001
0000
0001
0000
1000
0000
0001
0000
0100
0000
0000
0000
1000
0000
,
0100
1000
0000
1000
0010
0100
0010
0100
,
0010
1000
0001
1000
0001
1000
0000
0100
,
0010
0000
0000
0000
0001
0010
0001
0000
0010
0100
0010
0000
0100
1000
0100
0000
,
0001
1000
0001
0000
0001
0000
1000
0000
0001
0000
0100
0000
0000
0000
0100
0000
,
0010
0100
0001
0010
0001
0010
0001
1001
,
1001
1001
0000
0110
0110
0110
0000
0011
,
1100
0000
0001
0010
0001
0010
0001
1000
,
0010
1000
0010
1000
0001
0010
0001
0010
,
0001
1000
0010
1000
0010
1000
0001
0100
,
0001
0100
0001
1000
0010
1000
0100
1000
,
0100
0010
0001
0010
0001
0010
0100
1000
,
0010
1000
0010
1000
0001
0100
0001
0100
,
0001
1000
0010
1000
0100
1000
0100
0010
,
0100
0010
0001
0010
0001
1000
0001
1000
,
0100
0010
2002
0000
0000
0000
0000
0000
,
0000
0000
0000
3003
;
