#TITLE:HEY BABY TONIGHT;
#SUBTITLE:(OH OH OH MIX);
#ARTIST:LUPIN;
#TITLETRANSLIT:;
#SUBTITLETRANSLIT:;
#ARTISTTRANSLIT:;
#GENRE:;
#CREDIT:;
#MUSIC:HEY BABY TONIGHT (OH OH OH MIX).ogg;
#BANNER:HEY BABY TONIGHT (OH OH OH MIX)-bn.png;
#BACKGROUND:HEY BABY TONIGHT (OH OH OH MIX)-bg.png;
#CDTITLE:./CDTITLES/LOVE PARA²/4.PNG;
#SAMPLESTART:79.067;
#SAMPLELENGTH:12.000;
#SELECTABLE:YES;
#OFFSET:-0.264;
#BPMS:0.000=157.989;
#STOPS:;
#BGCHANGES:;
#FGCHANGES:;

//--------------- dance-single - B. M'Rey ----------------
#NOTES:
     dance-single:
     B. M'Rey:
     Beginner:
     2:
     0,0,0,0,0:
0000
0000
0000
0000
,
0000
0000
0000
0000
,
0000
0000
0000
0000
,
0000
0000
0000
0000
,
0000
0000
0000
0000
,
0000
1000
0000
0010
,
0000
0100
0000
0000
,
0000
0000
0000
0000
,
0000
0001
0000
1000
,
0000
0010
0000
0100
,
0000
0001
0000
1000
,
0000
0010
0000
0100
,
0000
0000
0000
0010
,
0000
0001
0000
1000
,
0000
0010
0000
0100
,
0000
0001
0000
1000
,
0000
0001
1000
0001
,
0000
0010
0000
0100
,
0000
0001
0010
0001
,
0000
1000
0000
0010
,
0000
0100
0010
0100
,
0000
1000
0000
0001
,
0000
0001
0010
0001
,
0000
0100
0000
0010
,
0000
1001
0000
0010
,
0000
0100
0000
0010
,
0000
0101
0000
0010
,
0000
1000
0000
0010
,
0000
0110
0000
0010
,
0000
0100
0000
0001
,
0000
1000
0001
0000
,
1000
0001
0000
0000
,
0000
0110
0000
0001
,
0000
0010
0000
1000
,
0000
0110
0000
0001
,
0000
1000
0000
0010
,
0000
1010
0000
0100
,
0000
0010
0000
0001
,
0000
1000
0001
0000
,
1000
0001
0000
0000
,
0000
0100
0000
0010
,
0000
1000
0000
0001
,
0000
0010
0000
0001
,
0000
0100
0000
0010
,
0000
1000
0000
0100
,
0000
1000
0000
0010
,
0000
0200
0000
0000
,
0000
0302
0000
0000
,
0000
1003
0000
0000
,
0000
0010
0000
0100
,
0000
0001
0000
0010
,
0000
0001
0000
2000
,
0000
3000
0000
0010
,
0000
0100
0000
0010
,
0000
0002
0000
0000
,
0000
2003
0000
3200
,
0000
0310
0000
0100
,
0000
0010
0000
1000
,
0000
0001
0000
1000
,
0000
0010
0000
0200
,
0000
0000
0300
0001
,
0000
1000
0000
0010
,
0000
0200
0000
0000
,
0000
0320
0000
0000
,
0000
1030
0001
1000
,
0000
0010
0000
0100
,
0000
1000
0010
1000
,
0000
0001
0000
0010
,
0000
0100
0010
0100
,
0000
0001
0000
1000
,
0000
1000
0010
1000
,
0000
0100
0000
0010
,
0000
0001
1000
0001
,
0000
0010
0000
0100
,
0000
0001
0000
0001
,
0000
1000
0000
0010
,
0000
0100
0000
0000
,
0000
1000
0000
0000
,
0000
0001
0000
0200
,
0000
0000
0000
0000
,
0300
0000
0000
0000
;

//--------------- dance-single - B. M'Rey ----------------
#NOTES:
     dance-single:
     B. M'Rey:
     Easy:
     4:
     0,0,0,0,0:
0000
0000
0000
0000
,
0000
0000
0000
0000
,
0000
0000
0000
0000
,
0000
0000
0000
0000
,
0001
1000
0001
1000
,
0001
0100
0000
0100
,
0100
0000
0000
0000
,
0000
0010
0000
0020
,
0000
1030
0001
0100
,
0001
0100
0010
0100
,
0010
1000
0010
0100
,
0001
0100
0001
0200
,
0000
1300
0010
1000
,
0010
0100
0001
0100
,
0001
0100
0010
1000
,
0010
1000
0010
0200
,
0000
0301
0010
0001
,
0000
0010
0000
0010
,
1000
0001
0000
0001
,
0000
0001
0100
0010
,
1000
0100
0000
0100
,
0000
0001
1000
0001
,
1000
0001
0000
0010
,
0000
0010
1000
0010
,
0100
0001
0000
0001
,
0100
0010
0000
0100
,
0010
0100
0000
0001
,
1000
0010
0000
0001
,
1000
0100
0000
0001
,
0100
0001
0000
0100
,
1000
0200
0000
0000
,
0000
0302
0000
1003
,
0000
0100
0000
0001
,
0100
0001
0000
0001
,
1000
0100
0000
0100
,
1000
0001
0000
0001
,
0010
0100
0000
0010
,
0100
0010
0000
0001
,
0010
0200
0000
0000
,
0000
0320
0000
0000
,
0000
0130
1000
0010
,
1000
0010
0000
0010
,
0000
0001
0100
0010
,
1000
0100
0000
0010
,
0000
0100
0010
0001
,
0100
0001
0000
0001
,
0000
0200
0000
1300
,
1000
0020
0000
0031
,
0010
0000
0000
0100
,
0000
0002
0000
0013
,
0000
0100
1000
0100
,
0010
0100
0000
0002
,
0000
0103
0000
0001
,
1000
0100
0000
0001
,
1000
0200
0000
0310
,
0001
0200
0000
0310
,
1000
0010
0000
0010
,
0100
0002
0000
0103
,
0000
0100
1000
0001
,
1000
0100
0000
0200
,
0000
0310
0000
0001
,
0010
0001
0000
0100
,
0000
0020
0000
1030
,
0100
2000
0000
3002
,
0000
1003
0010
0001
,
0000
0010
0000
0010
,
1000
0001
0000
0001
,
0000
0001
0100
0010
,
1000
0100
0000
0100
,
0000
0001
1000
0001
,
1000
0001
0000
0010
,
0000
0010
1000
0010
,
0100
1000
0010
1000
,
0000
0010
0000
0010
,
0001
1000
0000
1000
,
0000
1000
0100
0010
,
0001
0100
0000
0100
,
0000
1000
0000
1000
,
0000
0001
0000
0220
,
0000
0000
0000
0000
,
0000
0330
0000
0000
;

//--------------- dance-single - B. M'Rey ----------------
#NOTES:
     dance-single:
     B. M'Rey:
     Medium:
     7:
     0,0,0,0,0:
0000
0000
0000
0000
,
0000
0000
0000
0000
,
0000
0000
0000
0000
,
0000
0000
0000
0000
0000
0000
0000
0001
,
1000
0001
1000
0000
0010
0000
0100
0000
,
0001
0000
0010
0000
0000
0000
0100
1000
,
0100
0001
0000
0010
0000
0100
0000
0001
,
1000
0000
0010
0000
0100
0000
0001
0010
,
0001
0010
0100
0000
0010
0000
0001
0000
,
0100
0010
1000
0001
,
0010
0100
0010
0001
,
1000
0000
0100
0000
0010
0000
0001
1000
,
0001
1000
0001
0000
1000
0000
0100
0000
,
1000
0010
0100
0001
,
0010
1001
0101
0110
,
1010
0000
0001
1000
0001
1000
0100
1000
,
0100
0010
0001
0000
1000
0000
0010
0100
,
0000
0001
0000
1000
0100
0000
0010
0100
,
0010
0100
0001
0000
1000
0000
0010
0100
,
0010
0100
0000
0001
0010
0000
0100
1000
,
0100
0000
0001
0000
1000
0000
0010
0001
,
0000
0100
0000
0010
1000
0100
0000
0001
,
0010
0001
0010
0000
0100
0000
0001
1000
,
0001
1000
0000
0010
0100
0000
0010
0001
,
0010
0000
1000
0000
0001
0000
0010
0001
,
0100
0010
0001
0000
1000
0000
0010
0001
,
0010
0000
1000
0000
0010
0000
0001
0100
,
0001
0100
0010
0000
1000
0000
0001
0010
,
0001
0010
0001
0000
0100
0000
0010
0100
,
0010
0100
1000
0000
0010
0000
0100
0010
,
0100
0010
0001
0000
1000
0000
0010
0000
,
0100
0002
0000
1003
,
0000
0000
0110
0000
0001
0000
0010
0100
,
0010
0100
0000
0000
0001
0000
1000
0010
,
1000
0000
0001
0000
0100
0000
0001
0100
,
0001
0100
0000
0000
0010
0000
1000
0001
,
1000
0000
0001
0000
0100
0000
0010
0100
,
0010
0100
0000
0000
0001
0000
1000
0000
,
0010
0100
1000
0100
,
1000
0000
0001
0010
0001
0000
0010
0100
,
0010
0000
1000
0000
0001
0100
0000
0010
,
0000
1000
0000
0010
0100
0000
0001
0000
,
0001
0010
0100
0000
0001
1000
0000
0010
,
0000
0100
0000
0001
0010
0000
0100
1000
,
0100
0000
1000
0000
0001
0010
0000
0100
,
0000
0010
0000
0001
1000
0000
0010
0100
,
0010
0001
1000
0010
,
0100
0000
0000
0000
0001
0000
0000
0010
0000
0000
1000
0000
0100
0000
0010
0000
,
0100
0010
0000
0000
0000
0000
0000
0000
,
0000
1000
0001
0010
,
0001
0000
0100
0010
0100
0000
1000
0100
,
1000
0000
0001
0000
0100
0000
0010
0100
,
0010
0100
0000
0000
0001
0000
1000
0000
,
0010
0100
0001
0010
,
0001
1000
0010
0000
0100
0000
0001
0100
,
0010
0000
1000
0000
0100
0000
1000
0010
,
1000
0010
1000
0000
0100
0000
0010
0001
,
0010
0100
1000
0001
,
0010
1000
0100
0000
0001
0010
0001
0000
,
0100
0010
0100
0000
0001
0000
1000
0001
,
1000
0001
0000
0000
0100
0000
0001
0010
,
0001
0000
1000
0000
0010
0000
0100
0010
,
0001
1000
0010
0100
,
0001
2000
0000
3002
,
0000
0000
0013
0000
1000
0000
0010
0100
,
0000
0001
0000
1000
0100
0000
0010
0100
,
0010
0100
0001
0000
1000
0000
0010
0100
,
0010
0100
0000
0001
0010
0000
0100
1000
,
0100
0000
0001
0000
1000
0000
0010
0001
,
0000
0100
0000
0010
1000
0100
0000
0001
,
0010
0001
0010
0000
0100
0000
0001
1000
,
0001
1000
0000
0010
0100
0000
0010
0001
,
0010
0000
1000
0000
0001
0000
0010
0001
,
0000
0010
0000
0001
1000
0000
0010
0001
,
0010
0000
1000
0000
0010
0000
0001
0100
,
0001
0100
0000
0010
1000
0000
0001
0010
,
0001
0010
0100
0000
0010
0000
0100
0000
,
0010
0100
1000
0001
,
1000
0001
1000
0200
,
0000
0320
0000
0000
,
0030
0000
0000
0000
;

//--------------- dance-single - B. M'Rey ----------------
#NOTES:
     dance-single:
     B. M'Rey:
     Hard:
     9:
     0,0,0,0,0:
0000
0000
0000
0000
,
0000
0000
0000
0000
,
0000
0000
0000
0000
,
0000
0000
0000
0000
0000
0000
0000
0001
,
1000
0001
1000
0000
0010
0000
0100
0000
,
0001
0010
1000
0000
0100
0000
0010
1000
,
0100
0010
0001
0000
0010
0100
1000
0000
,
0010
0100
0001
0000
0010
0000
0001
1000
,
0010
0100
1001
0000
0101
0000
0010
0100
,
1000
0100
0010
0000
0100
0000
0001
0010
,
1000
0100
1010
0000
0101
0000
0010
0100
,
0010
1000
0101
0000
1010
0000
0010
0100
,
0010
1000
0101
0000
1010
0000
0010
0100
,
1000
0000
1010
0000
0101
0000
0010
0100
,
1000
0101
1010
0101
,
1010
0000
0000
0000
0001
0000
1000
0000
0001
0000
1000
0000
0001
1000
0001
1000
,
0001
0000
1001
0000
0101
0000
0010
1000
,
0100
1001
0000
0100
0010
0001
0000
0010
,
1000
0100
1010
0000
0101
0000
0010
1000
,
0001
0110
0000
0100
0001
0000
0100
0010
,
0100
1000
1001
0000
0110
0000
0001
0010
,
0001
0010
0000
1000
0001
0000
0100
0010
,
0100
1000
0101
0000
0110
0000
1010
1010
,
1010
1001
0000
1000
0001
1001
0000
0010
,
0100
0101
0001
0000
1000
0000
0010
0100
,
1000
0001
0000
0010
0100
0001
1000
0010
,
0100
0000
1001
0000
0110
0000
0001
0010
,
1000
0100
0000
0010
1000
0100
1000
0010
,
0100
0000
0101
0000
1010
0000
0010
0100
,
0001
1000
0000
0010
0100
1000
0100
0010
,
1000
0101
1010
0101
,
1010
0000
0010
0100
0001
1000
0010
0000
,
0100
0000
0011
0000
1001
0000
0100
1000
,
0100
1000
0000
0010
0100
0001
1000
0001
,
0010
0000
1100
0000
0101
0000
0010
0100
,
1000
0100
0000
0010
0100
0001
1000
0010
,
0100
0000
0011
0000
1001
0000
0010
0100
,
0001
0010
0000
1000
0010
0100
0010
1000
,
0001
0101
1010
0101
,
1010
0000
0000
0000
0001
0000
1000
0000
0001
0000
0100
0000
0010
1000
0010
1000
,
0010
0000
0010
1000
0001
0100
0000
1000
,
0001
1000
0000
1000
0010
0000
0010
0100
,
0001
0010
0001
0000
0010
1000
0000
0100
,
0001
0100
0001
0000
0100
1000
0010
0100
,
0001
0010
0001
0000
0001
0100
0000
1000
,
0010
0100
0000
1000
0100
1000
0010
1000
,
0010
0100
2000
0000
0001
0000
3001
0000
,
0010
0000
0000
0000
0002
0000
0010
0000
0000
0010
0000
0000
0013
0000
1000
0000
,
0001
1000
0000
0000
0000
0000
0001
0010
,
0001
0010
1000
0100
1000
0010
1000
0100
,
0010
0100
0010
0001
0100
0010
0100
0001
,
1000
0100
0010
0001
0010
0001
0110
0000
,
1010
0000
1001
0000
0100
0001
0010
0001
,
0100
0010
0100
0001
1000
0100
1000
0001
,
1000
0100
0020
0000
1000
0000
1030
0100
,
2000
0000
0000
0000
3010
0000
0100
0000
0010
0000
0100
0000
1000
0010
1000
0010
,
1000
0001
0100
0000
1000
0010
1000
0100
,
1000
0001
0100
0001
0010
0100
0010
1100
,
1100
0000
1000
0100
1000
0100
0010
0100
,
0010
0001
0010
0001
0100
0001
1010
0000
,
1100
0000
0110
0000
0010
0100
0001
1000
,
0100
0010
0001
0100
0001
1000
0010
0100
,
0001
0100
0002
0000
0010
0000
1003
0100
,
1000
0100
1000
0000
0001
0000
0010
0000
,
0100
0000
1001
0000
0101
0000
0010
1000
,
0100
1001
0000
0110
0000
0101
0000
0010
,
1000
0100
1010
0000
0101
0000
0010
1000
,
0001
0110
0000
0100
0001
0000
0100
0010
,
0100
1000
1001
0000
0110
0000
0001
0010
,
0001
0010
0000
1000
0001
0000
0100
0010
,
0100
1000
0101
0000
0110
0000
1010
1010
,
1010
1001
0000
1000
0001
1001
0000
0010
,
0100
0101
0001
0000
1000
0000
0010
0100
,
0000
0001
0000
0010
1000
0000
0010
0100
,
0010
0100
0001
0000
0010
0000
0001
1000
,
0001
1000
0000
0010
0100
0000
0001
1000
,
0001
0010
0100
0001
,
1000
0010
0100
0001
,
0010
0000
0001
0000
1000
0000
0010
0100
,
0010
0100
0000
0001
0010
1000
0000
0100
,
0010
0001
0000
0000
0000
0000
0000
0000
;
