#VERSION:0.83;
#TITLE:HELL SCAPER ~Hell on Earth Mix~;
#ARTIST:L.E.D.LIGHT-G remixed by Jadman;
#GENRE:GABBAH;
#MUSIC:HELL SCAPER ~Hell on Earth Mix~.ogg;
#BANNER:HELL SCAPER ~Hell on Earth Mix~-bn.png;
#BACKGROUND:HELL SCAPER ~Hell on Earth Mix~-bg.png;
#CDTITLE:./CDTITLES/DANCE DANCE REVOLUTION EXTREME 3.PNG;
#SAMPLESTART:24.079;
#SAMPLELENGTH:15;
#OFFSET:-0.212;
#BPMS:0=189.963,57=190.963,74=192.963,204=190.963;
#DISPLAYBPM:190;

//--------------- dance-single - B. M'Rey ----------------
#NOTEDATA:;
#STEPSTYPE:dance-single;
#DESCRIPTION:B. M'Rey;
#CREDIT:B. M'Rey;
#DIFFICULTY:Beginner;
#METER:6;
#RADARVALUES:0,0,0,0,0;
#NOTES:
0000
0000
0000
0000
,
0000
0000
0000
0000
,
0000
0000
0000
0000
,
0000
0000
0000
0000
,
0000
1000
0000
0000
,
0000
0001
0000
0000
,
0000
0100
0000
0000
,
0000
0010
0000
0100
,
0000
1000
0000
0000
,
0000
0001
0000
0000
,
0000
1001
0000
0000
,
0000
0000
0110
0000
0000
0110
0000
0000
,
0110
0000
0001
0000
0000
1000
0000
0000
,
0001
0000
0101
0000
0000
1010
0000
0000
,
0110
1001
0000
0000
,
0000
1000
1000
1000
,
1000
0010
0010
0010
,
0010
0100
0100
0001
,
0001
1000
1000
0000
,
0001
0000
0100
0000
,
0010
0000
1000
0100
,
0001
0000
0010
0000
,
0100
0000
0001
0010
,
1000
0000
0010
0000
,
0100
0000
1000
0001
,
0100
0000
0010
0000
,
1001
0000
1001
0000
,
0001
0000
0100
0010
,
0001
0000
1000
0000
,
0010
0000
0010
0100
,
1000
0000
0010
0000
,
0100
0000
0010
0100
,
1000
0000
0001
0000
,
1000
0000
0100
0001
,
0010
0000
0000
0000
,
1000
0000
1000
0000
,
0001
0000
0001
0001
,
0010
0000
0010
0000
,
0100
0000
0010
0100
,
0001
0000
1000
0000
,
0010
0000
0100
0100
,
0100
0000
1000
0000
,
0001
0000
0000
0000
,
0000
0010
0000
0010
0000
0010
0000
0100
,
0000
0100
0000
0100
0000
0000
0000
0000
,
1000
1000
1000
0001
,
0001
0001
0000
0000
,
0100
0100
0100
0010
,
0010
0010
0000
0000
,
0001
0000
1000
0000
,
0001
1000
0010
1001
,
0000
0000
0000
0101
0000
0000
0000
0110
,
0000
0000
0000
0000
0000
0000
0000
1010
,
0000
0000
0000
0110
0000
0000
0101
0000
,
0000
0000
0000
1000
,
1000
0000
1000
0000
0000
0010
0000
0000
,
0000
0100
0000
0000
0000
0001
0000
0001
,
0000
0001
0000
0000
0000
0100
0000
0000
,
0000
0010
0000
0000
0000
0100
0000
0000
,
0000
0010
0000
0000
0100
0000
0000
0000
,
0000
0000
0001
0000
,
0001
0000
1000
0000
,
0000
0000
0000
0100
0000
0000
0000
0100
,
0000
0000
0000
0010
0000
0000
0000
0000
,
0000
1000
0000
1000
,
0000
0001
0000
0000
,
0000
0010
0000
0010
,
0000
0100
0000
0000
0000
0000
0000
0000
,
0000
1001
0000
0000
,
0000
0000
0000
0000
,
0000
0000
0000
0000
,
0000
0000
0000
0000
,
2002
0000
0000
0000
0000
0000
0000
3003
;

//--------------- dance-single - B. M'Rey ----------------
#NOTEDATA:;
#STEPSTYPE:dance-single;
#DESCRIPTION:B. M'Rey;
#CREDIT:B. M'Rey;
#DIFFICULTY:Easy;
#METER:9;
#RADARVALUES:0,0,0,0,0;
#NOTES:
0000
0000
0000
0000
,
0000
0000
0000
0000
,
0000
0000
0000
0000
,
0000
0000
0000
0000
,
0000
1000
0010
0100
,
0010
0001
0010
0100
,
0010
1000
0010
1000
,
0010
0100
0010
0001
,
0010
1000
0000
0000
,
0000
0001
0000
0000
,
0010
0100
0000
0000
,
0001
0000
1000
0000
0000
0010
0000
0000
,
0100
0000
0001
0000
0000
1000
0000
0000
,
0010
0000
0100
0000
0000
0001
0000
0000
,
1000
1001
0000
0000
,
0000
0001
0001
0010
,
0010
0000
0000
0100
0000
0000
0000
1000
0000
0000
0000
0100
0000
0000
0000
0100
,
0000
0000
0000
0010
0000
0000
0000
0001
0000
0000
0000
0010
0000
0000
1000
0000
,
0000
0001
0000
0100
0000
0000
0000
0000
,
0001
0010
0100
1000
,
0100
1000
0100
1000
,
0010
0100
0010
0001
,
0010
0001
0010
0001
,
0010
0100
0010
0100
,
0010
1000
0100
1000
,
0010
0100
0010
0100
,
1001
0000
1001
0000
,
0001
0100
0001
0010
,
0100
0010
1000
0100
,
0010
0100
1000
0001
,
0010
0100
0001
0010
,
1001
0010
0100
0010
,
0100
0010
1000
0100
,
0010
0100
0001
0010
,
1001
0000
0000
0000
,
1000
1000
0100
0100
,
0010
0010
0001
0001
,
1000
0001
1000
0001
,
1000
0010
0100
0010
,
0001
0001
0010
0010
,
0100
0100
1000
0010
,
1000
0010
0100
0001
,
0100
0010
1000
0000
,
1001
0101
0110
0101
,
1010
0101
0110
0000
,
1010
0110
0101
0110
,
1001
0110
0101
0000
,
0110
1001
0110
1010
,
0101
0101
1010
0000
,
0110
0000
0101
0000
,
1001
0110
1001
0110
,
1001
0001
1000
0001
,
1000
0001
0100
0010
,
0100
0010
1000
1001
,
0000
0000
0000
1000
,
1000
1000
0010
0100
,
0010
0001
0001
0001
,
0010
0100
1000
0100
,
0010
1000
0100
0000
,
0010
0000
1001
0000
,
0000
0000
0000
0000
0000
0000
0000
0000
1000
0000
0000
0010
0000
0000
0000
0000
,
1000
0000
0000
0010
0000
0000
0000
1000
0000
0000
0000
0000
0000
0000
0000
0001
,
0000
0000
0000
0000
0000
0000
0100
0000
0000
0001
0000
0000
0000
0000
0100
0000
,
0000
0001
0000
0000
0000
0000
0100
0000
0000
0000
0000
0000
0000
0000
0010
0000
,
0000
0000
0000
0000
0000
1000
0000
0000
0010
0000
0000
0000
1000
0000
0000
0010
,
0000
0100
0000
0010
,
0000
0000
0000
0000
0001
0000
0000
0010
0000
0000
0000
0000
0001
0000
0000
0010
,
0000
0000
0000
0100
0000
0000
0000
0000
0000
0000
0000
0010
0000
0000
0000
0000
,
0000
1001
0000
0000
,
0000
0000
0000
0000
,
0000
0000
0000
0000
,
0000
0000
0000
0000
,
1000
0001
1000
0001
,
1001
0000
0000
0000
;

//--------------- dance-single - B. M'Rey ----------------
#NOTEDATA:;
#STEPSTYPE:dance-single;
#DESCRIPTION:B. M'Rey;
#CREDIT:B. M'Rey;
#DIFFICULTY:Medium;
#METER:11;
#RADARVALUES:0,0,0,0,0;
#NOTES:
0000
0000
0000
0000
,
0000
0000
0000
0000
,
0000
0000
0000
0000
,
0000
0000
0000
0000
,
0000
0100
0010
0001
,
1000
0010
0100
0010
,
0100
0010
1000
0001
,
0010
0001
0100
0001
,
1000
0110
0110
0000
,
1000
0000
0001
0001
1000
1000
0001
0000
,
1000
0100
0000
0000
,
0010
0000
0100
0000
0000
0001
0000
0000
,
1000
0000
0000
0000
0010
0000
0000
0010
0000
0000
0100
0000
0000
0100
0000
0000
,
1000
1000
0001
0000
0000
0100
0000
0000
,
0001
1001
0000
0000
,
0000
0000
0100
0010
0100
0010
0100
1000
,
0010
1000
0010
1000
0001
0100
0001
0100
,
0001
1000
0100
1000
0100
1000
0010
0100
,
0001
1000
0001
1000
0010
0000
0000
0000
,
0010
0000
0100
0010
0001
0000
0010
0000
,
0100
0000
0001
0010
0100
0000
0001
0000
,
0010
0000
0001
0100
0010
0000
0001
0000
,
0001
0010
0100
0000
0001
0000
1000
0000
,
0001
0000
0010
1000
0001
0000
0100
0000
,
0001
1000
0100
0000
1000
0000
0100
0000
,
0001
0000
0001
0010
0100
0000
0010
0000
,
0010
0000
0100
0000
,
0010
0000
0001
0010
0001
0000
0010
0000
,
0010
0000
0100
1000
0010
0000
0001
0000
,
0001
0010
0100
0000
0001
0000
0010
0000
,
0010
0100
0001
0000
0100
1000
0001
0000
,
0100
0000
0010
0100
0001
0000
0010
0000
,
0100
0010
0001
0000
0010
0000
0001
0000
,
0100
0000
0010
0100
0010
0000
0100
0000
,
0001
0000
0000
0000
,
0010
0100
0010
1000
,
0001
0000
0010
0000
0100
0010
0010
0100
,
0100
0000
0010
0000
0001
0000
0100
0100
,
0010
0000
1000
0000
0100
0000
0010
0010
,
0100
0000
0010
0000
0001
0000
0100
0010
,
0010
0000
0000
0000
0100
0000
0000
0000
0001
0000
0000
0010
0000
0000
0100
0000
,
1000
1000
0001
0100
,
0010
0100
0001
1000
,
0100
0110
0011
1100
,
0110
0000
0011
0000
0101
0000
0001
1000
,
0010
0100
0011
0000
1100
0000
0110
0000
,
1010
0000
0110
0000
1001
0000
0010
0100
,
0001
1100
0110
0101
,
0110
0000
0000
0000
1001
0000
0000
0000
0100
0000
0000
0010
0000
0000
0100
0000
,
0011
0100
0011
0100
,
0101
0110
0011
1100
,
0010
0100
0001
0010
,
0100
1000
0001
0010
,
0100
1000
0010
0100
,
0000
0000
0000
0000
0000
0000
0010
0010
,
1000
1000
0100
0000
0010
0000
0100
0100
,
0010
0010
0100
0100
1000
1000
0001
0001
,
0010
0010
0001
0000
0100
0100
0010
0000
,
1000
0000
0001
0001
1000
1001
0000
0000
,
0000
0110
0000
0000
0101
0000
0000
0000
,
0000
0000
0000
0000
0001
0010
1000
0000
,
0100
1000
0001
0000
0110
0000
0110
0000
,
0110
0000
1010
0000
0010
0100
1000
0000
,
0100
0001
0010
0000
0011
0000
0110
0000
,
0110
0000
0110
0000
0100
0010
1000
0000
,
0010
0001
0100
0000
0110
0000
1100
0000
,
0110
0000
0010
0001
0100
0000
0010
1000
,
0100
1010
0110
0110
,
1010
1001
0000
0000
,
0000
0000
0000
0000
,
0000
0000
0000
0000
,
0000
0000
0000
0000
,
0001
1000
0001
1000
0001
0100
0010
0100
,
0010
0000
0000
0000
;

//--------------- dance-single - B. M'Rey ----------------
#NOTEDATA:;
#STEPSTYPE:dance-single;
#DESCRIPTION:B. M'Rey;
#CREDIT:B. M'Rey;
#DIFFICULTY:Hard;
#METER:15;
#RADARVALUES:0,0,0,0,0;
#NOTES:
0000
0000
0000
0000
,
0000
0000
0000
0000
,
0000
0000
0000
0000
,
0000
0000
0000
0000
,
0000
0000
0001
0010
0001
0010
0001
0100
,
0010
0100
0010
0100
0001
0010
0001
0100
,
0001
0100
0010
0100
0010
1000
0010
1000
,
0001
1000
0001
0100
0001
0100
0010
0100
,
0010
1000
1010
0000
1001
0000
0000
0000
,
0001
0000
0100
0100
0010
0010
0001
0000
,
0001
1000
0010
0000
0000
0000
0001
0000
,
0001
0100
0001
0000
0010
0100
0000
1000
,
0010
0000
0001
0100
0001
1000
0001
1000
,
0010
1000
0110
0000
0010
1000
0000
1000
,
0001
0110
0000
0000
,
0000
0000
0100
0010
0001
0100
0010
1000
,
0010
1000
0100
0010
0001
1000
0010
1000
,
0100
0010
0001
1000
0010
1000
0001
0100
,
0001
0010
0100
1000
0001
0000
0000
0000
,
0010
0100
0001
1000
0010
0100
0001
1000
,
0001
1000
0100
1000
0001
0100
0010
1000
,
0001
0100
0010
1000
0001
0100
0001
1000
,
0010
0100
0010
1000
0001
0100
0010
1000
,
0010
0100
0001
1000
0001
0100
0001
0100
,
0010
1000
0100
0010
0100
1000
0010
0100
,
0010
1000
0001
0100
0010
1000
0001
1000
,
0101
0000
0000
0000
1010
0000
0000
1000
,
0010
0100
0001
0010
0100
1000
0001
0010
,
0100
1000
0001
0010
0100
1000
0001
0100
,
0001
1000
0001
0100
0010
1000
0100
0010
,
0001
1000
0100
0010
0001
0100
0001
0100
,
0010
0100
0010
1000
0001
0100
0010
1000
,
0010
0100
0010
1000
0100
1000
0001
0010
,
0001
1000
0001
1000
0100
0010
0100
1000
,
0001
0000
0010
0000
1000
0000
0100
0000
0010
0000
0001
0000
,
0001
1000
0001
1000
0001
0010
0100
0010
,
0100
0010
0001
0100
0001
0100
0001
1000
,
0100
1000
0010
1000
0100
0010
0100
0010
,
0100
1000
0001
1000
0001
1000
0100
0010
,
0100
0010
0100
1000
0001
0010
0001
0100
,
0001
0000
0100
0000
0010
0000
1000
0000
0010
0000
1010
0000
0000
0110
0000
0000
,
0001
1000
0001
0010
0001
1000
0010
0100
,
0010
0001
0000
0000
0000
1000
1000
0000
,
0000
0010
1010
0010
1010
0001
0101
0001
,
0101
0000
0001
0000
1100
0000
0100
0000
0011
0000
0001
0000
0000
0010
0000
0000
,
0010
0100
1100
0100
1100
0001
0101
0001
,
0101
0010
0110
0010
1010
0001
1001
0001
,
1000
0010
0110
0010
0110
0010
1010
0001
,
1001
0000
0001
0000
1001
0000
0010
0000
0110
0000
0000
0010
0000
0000
0010
0000
,
1001
0000
0010
1000
0011
0000
0100
0010
,
0110
0101
0011
1001
,
0010
0100
0001
0000
0001
0100
0010
0000
,
0001
0010
0001
0100
0001
0010
0100
1000
,
0001
1000
0100
1000
0001
0010
0001
1001
,
0000
0000
0000
0000
0000
0000
0010
0010
,
1000
0000
1000
0000
0001
0000
0000
0000
1000
0000
1000
0000
0000
0010
0000
0000
,
0100
0000
0010
0010
1000
1000
0010
0010
,
1000
1000
0100
0100
1000
1000
0100
0100
,
0010
0010
0001
0001
1001
0000
0000
0000
,
0000
0110
0000
0000
0101
0000
0000
0000
,
0000
0000
0000
0000
0000
0000
0000
0000
0000
0000
0000
0000
0010
0000
0000
1000
0000
0000
0010
0000
0100
0000
1000
0000
,
0001
0000
0000
0000
0010
0000
0100
0000
0001
0000
1000
0000
0010
0000
0000
1000
0000
0000
0010
0000
0000
0100
0000
0000
,
0001
0000
0000
0010
0000
0000
1000
0000
0000
0001
0000
0000
0010
0000
0000
0000
0001
0000
0100
0000
0010
0000
0100
0000
,
0001
0000
0000
0000
0010
0000
0100
0000
0010
0000
1000
0000
0001
0000
0000
0010
0000
0000
1000
0000
0000
0100
0000
0000
,
0001
0000
0000
0010
0000
0000
0100
0000
0000
0001
0000
0000
0100
0000
1000
0000
0001
0000
0010
0000
0000
0000
1000
0000
,
0010
0000
0100
0000
0001
0000
0010
0000
0000
1000
0000
0000
0001
0000
0000
0010
0000
0000
1000
0000
0000
0100
0000
0000
,
0001
0000
0000
0010
0000
0000
0100
0000
0000
0000
1000
0000
0001
0000
1000
0000
0100
0000
0010
0000
0000
0000
0100
0000
,
0001
0000
0010
0000
0100
0000
0010
0000
0000
0100
0000
0000
0010
0000
0000
0100
0000
0000
0010
0000
0000
1000
0000
0000
,
0100
0010
0002
0000
0003
0000
0000
0000
,
0000
0000
0000
0000
,
0000
0000
0000
0000
,
0000
0000
0000
0000
,
0001
1000
0001
1000
0001
0010
0100
0010
0100
0010
0001
1000
0001
1000
0100
0010
,
0100
0010
0000
0000
0000
0000
0000
0000
0000
0000
0000
0000
0000
0000
0000
0000
;

//--------------- dance-single - B. M'Rey ----------------
#NOTEDATA:;
#STEPSTYPE:dance-single;
#DESCRIPTION:B. M'Rey;
#CREDIT:B. M'Rey;
#DIFFICULTY:Challenge;
#METER:17;
#RADARVALUES:0,0,0,0,0;
#NOTES:
0000
0000
0000
0000
,
0000
0000
0000
0000
,
0000
0000
0000
0000
,
0000
0000
0000
0000
,
0000
0000
0001
0100
0010
1000
0010
0100
,
0001
0010
0100
1000
0001
0100
0001
0100
,
0010
1000
0001
1000
0100
1000
0001
0010
,
0100
1000
0010
0100
0001
1000
0001
1000
,
0100
1000
1001
0000
0101
0000
0000
0000
,
0020
0000
0130
1010
1010
1010
0000
0000
,
0002
0000
0000
0000
1003
0000
0001
0000
1000
0001
1000
0001
1000
0001
1000
0001
,
2000
0000
3001
0000
0000
1010
0000
0000
,
0101
0000
0000
0000
1000
0000
0001
1000
0001
0000
1000
0001
1000
0000
0010
0000
,
0100
0010
0100
0000
1001
0000
0000
0000
0000
0000
0101
0000
0000
0000
0000
0000
,
0110
1001
0000
0000
,
0002
0000
0000
0000
0013
1000
0001
1000
0001
1000
0100
0010
0100
0010
0100
1000
,
0001
0000
0001
0010
0001
0100
0010
0100
0010
0100
0001
1000
0001
0010
0001
1000
,
0000
0010
0100
1000
0100
0010
0001
0000
0001
0010
0100
0010
0100
1000
0100
0000
,
0000
0000
0100
0010
0100
1000
0001
1000
0002
0000
0000
0000
0003
0000
0100
0000
,
0010
0100
0010
0100
1000
0001
1000
0100
,
1000
0001
0100
0001
1000
0100
1000
0001
,
0010
0100
0010
0100
1000
0001
1000
0010
,
1000
0001
0010
0001
0010
0100
0010
0100
,
1000
0100
0010
0001
1000
0010
0100
0001
,
1000
0001
0100
0010
0100
0001
0100
0001
,
0010
0001
0100
0010
1000
0100
1000
0000
,
0000
0000
0000
0000
2000
0000
0000
3001
,
0010
0001
1000
0001
1000
0010
1000
0100
,
0010
0100
0010
0100
1000
0001
0100
0010
,
1000
0100
1000
0100
1000
0001
0010
0100
,
1000
0001
0100
0001
0100
0010
0100
0001
,
1000
0001
0010
0100
1000
0010
1000
0100
,
0010
0001
1000
0010
1000
0001
0010
0001
,
1000
0001
1000
0100
1000
0001
0100
0001
,
1000
0000
0000
0100
0000
0000
0010
0000
0001
0000
0000
0010
0000
0000
1000
0000
,
0100
1000
0100
0000
0100
0010
0100
0000
0001
1000
0100
0000
0001
1000
0010
0000
,
0010
1000
0001
0000
0010
1000
0001
0000
0001
0000
0001
0000
0010
0000
0010
0000
,
0001
0010
0001
0000
0001
0100
0010
0000
0100
0010
0001
0000
0001
1000
0010
0000
,
0001
1000
0001
0000
0010
1000
0010
0000
0010
0000
0100
0000
0101
0000
0100
0000
,
0101
0000
0001
0100
0010
0000
0010
1000
0100
0000
0001
0010
0100
0000
0010
0100
,
0010
0000
0010
1000
0001
0000
0001
0100
0010
0000
1010
0000
0000
0110
0000
0000
,
0011
0000
0100
1000
0100
0000
0100
1000
0001
0000
0100
0010
0100
0000
0001
0000
,
0010
0001
0010
0000
0100
1000
0001
0000
,
0000
0000
0010
1000
0100
0000
0100
1000
0001
0000
0001
0010
0001
0000
0010
0100
,
0010
0000
0001
0100
0001
0000
0001
0100
0010
0000
0110
0000
0000
0011
0000
0000
,
0101
0000
0010
0100
0010
0000
0010
1000
0100
0000
0100
0010
0100
0000
0001
1000
,
0001
0000
0100
0010
0100
0000
0100
1000
0001
0000
0010
1000
0101
0000
0011
0000
,
0101
0000
0001
1000
0100
0000
0010
0100
0001
0000
0100
0010
0100
0000
0001
0100
,
0001
0000
0001
1000
0100
0000
0100
1000
0101
0000
0000
0101
0000
0000
1100
0000
,
0100
0010
0100
0000
0010
0000
0010
0100
0010
1000
0100
0000
0100
1000
0001
0000
,
1000
0000
0001
1000
0010
0000
0010
0000
0100
0000
0001
1000
0001
0000
0011
0000
,
0011
1100
0000
0011
0011
0110
0000
0010
,
0100
0001
0100
0010
0100
0001
1000
0010
,
0100
0001
0010
0100
0010
0100
0010
0200
,
0000
0000
0000
0000
0000
0300
0001
1001
,
1010
0110
0101
0000
0010
1100
0000
1100
,
0000
0000
1001
0000
0011
0000
0011
0000
1001
0000
1001
0000
0101
0000
0000
0100
,
0000
0000
0110
0000
0110
0000
0000
0110
0000
0000
0110
0000
0011
0000
0000
0000
,
1100
1001
1001
1001
0011
0000
0000
0000
,
1100
0000
0000
0000
0100
1000
0001
1000
,
0010
0000
1000
0000
0010
0000
0100
0000
0001
0000
1000
0010
0001
0000
1000
0000
,
0100
0000
1000
0010
0100
0000
1100
0000
0000
0000
1001
0000
0000
0000
0011
0000
,
0000
0000
1010
0000
0000
0000
0100
0000
0010
0001
0100
0000
0001
0000
0100
0000
,
0001
0010
1000
0000
0001
0000
1100
0000
0000
0000
0110
0000
0000
0000
0011
0000
,
0000
0000
0011
0000
0100
0000
1000
0100
0010
0000
1000
0000
0010
0000
1000
0001
,
0100
0010
0110
0000
1100
0000
1010
0000
,
1001
0000
0000
0000
0010
0000
0100
0001
0010
0000
0100
0000
0010
0100
1000
0000
,
0001
0100
0001
1000
0010
0100
0010
0100
,
0010
2000
0000
0000
3000
0000
0000
0000
,
0000
0000
0000
0000
,
0000
0000
0000
0000
,
0000
0000
0000
0000
,
0010
0100
0001
1000
0010
0100
0001
0010
0001
0100
0010
1000
0100
1000
0001
1000
,
0001
0000
0000
0000
;
