#VERSION:0.83;
#TITLE:HEARTS OF ICE;
#ARTIST:MISSING HEART;
#GENRE:EURODANCE;
#MUSIC:Hearts Of Ice.ogg;
#BANNER:HEARTS OF ICE.png;
#BACKGROUND:HEARTS OF ICE-bg.png;
#CDTITLE:./CDTITLES/DANCEMANIA PRESENTS AKI MONOGATARI 2007.PNG;
#SAMPLESTART:56.63;
#SAMPLELENGTH:15;
#OFFSET:-0.118;
#BPMS:0=136;

//--------------- dance-single - B. M'Rey ----------------
#NOTEDATA:;
#STEPSTYPE:dance-single;
#DESCRIPTION:B. M'Rey;
#DIFFICULTY:Beginner;
#METER:1;
#RADARVALUES:0,0,0,0,0;
#NOTES:
0000
0000
0000
0000
,
0000
0000
0000
0000
,
0000
0000
0000
0000
,
0000
0000
0000
0000
,
0001
0000
0000
0000
,
0001
0000
0000
0000
,
0001
0000
0000
0000
,
0001
0000
0000
0000
,
0010
0000
0010
0000
,
0001
0000
0001
0000
,
1000
0000
1000
0000
,
0100
0000
0100
0000
,
0001
0000
0001
0000
,
0100
0000
0100
0000
,
1000
0000
1000
0000
,
0010
0000
0010
0000
,
0010
0000
0000
0010
,
0000
0001
0000
0010
,
0000
0000
0000
0010
,
0000
1000
0000
0100
,
0000
0000
0000
0000
,
0100
0000
0001
0000
,
1000
0000
0000
0000
,
0010
0000
0000
0000
,
0101
0000
0000
0100
,
0000
0010
0000
0100
,
0000
0000
0000
0100
,
0000
0001
0000
0010
,
0000
0100
0000
0000
,
0001
0000
0010
0000
,
0200
0000
0000
0000
,
0300
0010
0000
0000
,
0100
0000
0100
0000
,
0100
0000
0001
0010
,
0001
0000
0000
1000
,
0000
1000
0000
0000
,
0001
0000
0001
0000
,
0100
0000
0010
0000
,
0020
0000
0030
0100
,
0000
0000
0100
0000
,
0001
0000
0010
0000
,
0010
0000
0001
0100
,
0001
0000
0000
1000
,
0000
0000
0010
0000
,
0100
0000
0100
0000
,
0100
0000
0001
0000
,
0001
0000
0000
0010
,
0100
0000
0001
0000
,
1000
0000
0000
0000
;

//--------------- dance-single - B. M'Rey ----------------
#NOTEDATA:;
#STEPSTYPE:dance-single;
#DESCRIPTION:B. M'Rey;
#DIFFICULTY:Easy;
#METER:4;
#RADARVALUES:0,0,0,0,0;
#NOTES:
0000
0000
0000
0000
,
0000
0000
0000
0000
,
0000
0000
0000
0000
,
0000
0000
0000
0000
,
0001
0000
0000
0000
,
0010
0000
0000
0000
,
0001
0000
0000
0000
,
1000
0000
0000
0000
,
0010
0000
0000
0010
0000
0000
0001
0000
,
0100
0000
0000
1000
0000
0000
0001
0000
,
0001
0000
0000
1000
0000
0000
0001
0000
,
0010
0000
0000
1000
0000
0000
0001
0000
,
0010
0000
0000
1000
0000
0000
0001
0000
,
0010
0000
0000
1000
0000
0000
0001
0000
,
0100
0000
0000
0010
0000
0000
0001
0000
,
0010
0100
0001
0010
,
0001
1000
0010
0100
,
0010
1000
0001
0100
,
0010
0100
0010
1000
,
0001
1000
0010
0100
,
0001
0100
0010
0100
,
0010
1000
0010
1000
,
0100
0010
0000
0000
,
0000
0000
0000
0000
,
0110
0010
0001
1000
,
0001
0100
0001
0010
,
0100
0010
0001
1000
,
0001
0100
0001
0010
,
0100
0010
0001
0010
,
0100
1000
0001
0100
,
0010
1000
0100
0010
,
1001
0000
0000
0000
,
0010
0000
0000
0100
0000
0000
1000
0000
,
0100
0000
0000
0010
0000
0000
1000
0000
,
0010
0000
0000
0100
0000
0000
1000
0000
,
0001
0000
0000
0010
0000
0000
0010
0000
,
0100
0000
0000
1000
0000
0000
0010
0000
,
0001
0000
0000
1000
0000
0000
0100
0000
,
0001
0000
0000
0100
0000
0000
0100
0000
,
0001
0000
0000
0010
0000
0000
1000
0000
,
1001
0000
0000
0100
0000
0000
0100
0000
,
0010
0000
0000
1000
0000
0000
0010
0000
,
0100
0000
0000
0010
0000
0000
1000
0000
,
0010
0000
0000
0100
0000
0000
0010
0000
,
0001
0000
0000
1000
0000
0000
0100
0000
,
0001
0000
0000
1000
0000
0000
0010
0000
,
0100
0000
0000
1000
0000
0000
0100
0000
,
0010
0001
0100
0010
,
2002
0000
0000
0000
,
3003
0000
0000
0000
;

//--------------- dance-single - B. M'Rey ----------------
#NOTEDATA:;
#STEPSTYPE:dance-single;
#DESCRIPTION:B. M'Rey;
#DIFFICULTY:Medium;
#METER:7;
#RADARVALUES:0,0,0,0,0;
#NOTES:
0000
0000
0000
0000
,
0000
0000
0000
0000
,
0000
0000
0000
0000
,
0000
0000
0000
0000
,
0001
0100
0100
0010
,
0001
0001
0100
0010
,
0010
0010
0100
0100
,
0100
0001
0100
0001
,
0010
0000
0010
1000
0000
0100
0010
0000
,
0001
0000
0010
1000
0000
0010
0100
0000
,
0100
0000
0001
0010
0000
1000
0010
0000
,
0001
0000
0100
0010
0000
1000
0001
0000
,
0100
0000
0010
0100
0000
0100
0010
0000
,
0010
0000
0100
1000
0000
1000
0001
0000
,
0010
0000
0001
1000
0000
0010
0001
0000
,
0100
0000
0010
0100
0000
0010
0001
0000
,
1000
0000
0001
0000
0010
0000
0001
1000
,
0001
0100
0000
0010
0000
1000
0000
1000
,
0000
0100
0001
0000
0010
0000
0001
1000
,
0001
0010
0000
0100
0000
1000
0010
0100
,
0000
0100
0000
1000
0000
0010
0000
1000
,
0001
0010
0100
1000
0000
1000
0010
0100
,
0000
0100
0000
1000
0001
0000
0010
0000
,
0100
0001
0100
0001
,
0110
0000
0001
0000
0100
0000
0001
0100
,
0001
0100
0000
0100
0000
1000
0000
0010
,
0000
1000
0010
0000
0010
0000
0001
0100
,
0001
1000
0000
1000
0000
0100
0001
0100
,
0000
1000
0000
0010
0000
0100
0000
0100
,
0001
0100
0010
1000
0000
0100
0010
0200
,
0000
0310
0000
1000
0001
0000
0100
0010
,
0001
0000
0000
0000
,
0001
0000
0100
1000
0000
1000
0001
0000
,
0010
0000
0001
0010
0000
1000
0001
0000
,
0001
0000
0001
1000
0000
0100
0001
0000
,
0001
0000
0001
1000
0000
1000
0000
1000
,
0010
0000
0001
0100
0000
1000
0100
0000
,
0100
0000
0001
0100
0000
0100
0001
0000
,
0010
0000
0001
0100
0000
1000
0100
0000
,
0100
1000
0001
0100
0000
0010
0000
1000
,
0010
0000
0001
1000
0000
0100
0001
0000
,
0010
0000
0010
1000
0000
1000
0000
0010
,
0100
0000
0001
1000
0000
0100
0010
0000
,
0001
0000
0100
1000
0000
0100
0000
1000
,
0100
0000
0001
0010
0000
1000
0001
0000
,
0010
0000
0001
0100
0000
0100
0000
1000
,
0010
0000
0001
0010
0000
1000
0010
0000
,
0001
0100
0001
1000
0000
0100
0000
0100
,
0020
0000
0000
0000
,
0030
0000
0000
0000
;

//--------------- dance-single - B. M'Rey ----------------
#NOTEDATA:;
#STEPSTYPE:dance-single;
#DESCRIPTION:B. M'Rey;
#DIFFICULTY:Hard;
#METER:10;
#RADARVALUES:0.465,0.453,0.029,0.078,0.054;
#NOTES:
0000
0000
0000
0000
,
0000
0000
0000
0000
,
0000
0000
0000
0000
,
0000
0000
0000
0000
,
0001
0000
0001
1000
0000
0100
0001
0000
,
0100
0000
0001
1000
0000
0010
0100
0000
,
0100
0000
0010
0100
0000
1000
0001
0000
,
0001
0000
0001
1000
0000
0010
0001
0000
,
0001
0010
0100
0010
0001
0100
0001
0000
,
0001
1000
0010
1000
0001
1000
0100
0000
,
0001
0010
0100
0010
0001
0100
0010
0000
,
0010
0100
0001
0100
0001
0010
0100
0000
,
0010
0100
0001
0100
0010
0100
0010
0000
,
0100
1000
0010
1000
0100
0010
0100
0000
,
0100
1000
0001
0100
0001
0010
0001
0000
,
0010
0000
0000
0000
0000
0000
0000
0000
0000
0000
0000
0000
0000
0000
0000
0000
0000
0000
0000
0000
0000
0000
0000
0000
1000
0000
0000
0000
0000
0000
0000
0000
0000
0000
0000
0000
0000
0000
0000
0000
0000
0000
0000
0000
0000
0000
0000
0000
0100
0000
0000
0000
0000
0000
0000
0000
0000
0000
0000
0000
0000
0000
0000
0000
0000
0000
0000
0000
0000
0000
0000
0000
1000
0000
0000
0000
0000
0000
0000
0000
0000
0000
0000
0000
0000
0000
0000
0000
0000
0000
0000
0000
0000
0000
0000
0000
0010
0000
0000
0000
0000
0000
0000
0000
0000
0000
0000
0000
0000
0000
0000
0000
0000
0000
0000
0000
0000
0000
0000
0000
1000
0000
0000
0000
0000
0000
0000
0000
0000
0000
0000
0000
0000
0000
0000
0000
0000
0000
0000
0000
0000
0000
0000
0000
0010
0000
0000
0000
0000
0000
0000
0000
0000
0000
0000
0000
0000
0000
0000
0000
0000
0000
0000
0000
0000
0000
0000
0000
0000
0000
0000
0000
0000
0000
0000
0000
0000
0000
0000
0000
0000
0000
0000
0000
0000
0000
0000
0000
0000
0000
0000
0100
,
0100
0010
1000
0000
1000
0100
0001
0000
,
0001
0100
1000
0010
0100
0001
0010
0100
,
0010
1000
0001
0000
0001
0010
1000
0000
,
1000
0100
0010
0100
1000
0001
0100
0000
,
0010
0001
1000
0000
1000
0010
0100
0000
,
0100
0010
0001
0100
0010
0100
1000
0001
,
0100
1000
0010
0000
0010
0001
1000
0000
,
1000
0010
0100
1000
0010
0100
0001
0000
,
0010
0000
1000
0000
0001
0000
0000
0001
0000
0000
0010
0000
0100
0000
0000
0001
,
0000
0000
1000
0000
0100
0000
0000
0100
0000
0000
1000
0000
0010
0000
0000
0001
,
0000
0000
1000
0000
0010
0000
0000
0010
0000
0000
0001
0000
0100
0000
0000
0010
,
0000
0000
0100
0000
0001
0000
0000
0001
0000
0000
1000
0000
0100
0000
0000
0001
,
0000
0000
1000
0000
0001
0000
0000
0001
0000
0000
0100
0000
1000
0000
0000
0010
,
0000
0000
0100
0000
0001
0000
0000
0001
0000
0000
1000
0000
0100
0000
0000
0000
,
0001
1000
0010
1000
0001
0100
0001
1000
,
0100
1000
0001
0100
0000
1001
1001
0000
,
1000
0010
0010
0001
0000
0100
0010
0000
,
1000
0100
0100
0001
0100
1000
0000
0000
,
0010
0100
0001
0010
0100
0010
1000
0000
,
0001
0010
1000
0100
0001
0100
1000
0000
,
0010
0001
0001
1000
0000
0100
0001
0000
,
0010
1000
1000
0001
0010
1000
0000
0000
,
0100
0001
1000
0010
0100
0010
0001
0000
,
1000
0010
0100
0001
1000
0100
0010
0000
,
1000
0001
0001
0100
0000
1000
0001
0000
,
0100
0010
0010
1000
0100
0001
0000
0000
,
1000
0100
0010
0100
0001
1000
0100
0000
,
0010
1000
0001
0100
1000
0010
0001
0000
,
1000
0001
0001
0100
0000
1000
0010
0000
,
0001
1000
1000
0010
0001
0100
0000
0000
,
0010
1000
0100
0010
0100
1000
0001
0000
,
0100
1000
0001
1000
0010
0001
0100
0000
,
2002
0000
0000
0000
,
0000
0000
0000
0000
0000
3003
0000
0000
;
