#VERSION:0.83;
#TITLE:HEADHUNTER (Moto Blanco Radio Edit);
#ARTIST:LAS BIBAS FROM VIZCAYA;
#GENRE:POP;
#MUSIC:Headhunter (Moto Blanco Radio Edit).ogg;
#BANNER:Headhunter (Moto Blanco Radio Edit)-bn.png;
#BACKGROUND:Headhunter (Moto Blanco Radio Edit)-bg.png;
#CDTITLE:./CDTITLES/LICENSED MUSIC.PNG;
#SAMPLESTART:44.175;
#SAMPLELENGTH:15;
#OFFSET:-0.025;
#BPMS:0=125.03;

//--------------- dance-single - B. M'Rey ----------------
#NOTEDATA:;
#STEPSTYPE:dance-single;
#DESCRIPTION:B. M'Rey;
#CREDIT:B. M'Rey;
#DIFFICULTY:Beginner;
#METER:2;
#RADARVALUES:0,0,0,0,0;
#NOTES:
0000
0000
0000
0000
,
0000
0000
0000
0000
,
0000
0000
0000
0000
,
0000
0000
0000
0000
,
0000
0000
0000
0000
,
0010
0000
0000
0000
,
0010
0000
0000
0000
,
0001
0000
0000
0000
,
0001
0000
0000
0000
,
0100
0000
0001
0000
,
0010
0000
0100
0000
,
0001
1000
0001
0100
,
0010
0100
0010
0000
,
0001
0000
0100
0000
,
0010
0000
0000
0000
,
0100
0000
0010
0000
,
0010
0000
0001
0000
,
0001
0000
0010
0000
,
0010
0100
0001
0010
,
0001
0010
0001
0100
,
0020
0000
0000
0000
,
0130
0000
0000
0000
,
0010
0000
0000
0000
,
0100
0000
0010
0000
,
1001
0000
0000
0000
,
0010
0000
0100
0000
,
0110
0000
0000
0000
,
0010
0000
0100
0000
,
0010
0000
0100
0000
,
0010
0000
0001
0000
,
0100
0000
0000
0000
,
0001
0000
0000
0000
,
0100
1000
0010
0200
,
0000
0300
0000
0000
,
0001
0000
0000
0000
,
0010
0000
0000
0000
,
0001
1000
0010
0200
,
0000
0300
0000
0000
,
0001
0000
0000
0000
,
0010
0100
0000
0000
,
0001
0100
0000
0000
,
0100
0010
0000
0000
,
0001
1000
0000
0000
,
0100
1000
0000
0000
,
0001
0100
0000
0000
,
0100
0010
0000
0000
,
0010
0000
0001
0010
,
1000
0000
0010
0000
,
0100
0000
0001
0010
,
0100
0000
1000
0000
,
0001
0000
0100
0010
,
0001
0000
1000
0000
,
0010
0000
0100
1000
,
0010
0000
0100
0000
,
0001
0000
1000
0000
,
2002
0000
0000
0000
,
0000
0000
0000
0000
,
0000
0000
0000
0000
,
0000
0000
0000
0000
,
3003
0000
0000
0000
;

//--------------- dance-single - B. M'Rey ----------------
#NOTEDATA:;
#STEPSTYPE:dance-single;
#DESCRIPTION:B. M'Rey;
#CREDIT:B. M'Rey;
#DIFFICULTY:Easy;
#METER:5;
#RADARVALUES:0,0,0,0,0;
#NOTES:
0000
0000
0000
0000
,
0000
0000
0000
0000
,
0000
0000
0000
0000
,
0000
0000
0000
0000
,
0000
0000
0000
0000
,
0001
0100
0000
0000
,
0010
0100
0000
0000
,
0001
1000
0000
0000
,
0001
0010
0000
0000
,
0010
0100
0010
1000
,
0010
1000
0001
0100
,
0001
0010
0001
1000
,
0100
1000
0100
0000
,
0001
0000
0010
0000
,
0002
0000
0000
0000
,
0103
1000
0100
0000
,
0100
0000
0100
1000
,
0001
0000
0001
1000
,
0001
0100
0010
1000
,
0100
0010
0100
0010
,
0002
0000
0000
0203
,
0000
0000
0000
0000
,
0310
0000
0000
0000
,
0100
0010
0001
1000
,
0001
0000
0010
0000
,
0100
1000
0001
0020
,
0000
0130
0000
0000
,
0010
1000
0001
1000
,
0100
0010
0000
1000
,
0010
0100
0001
2000
,
0000
3010
0000
0000
,
0001
1000
0000
0000
,
0001
1000
0100
2000
,
0000
3010
0000
0100
,
0001
0010
0000
0000
,
0001
0010
0000
0000
,
0100
1000
0100
0020
,
0000
0031
0100
0000
,
0001
0100
0000
1000
,
0010
1000
0100
0000
,
0001
1000
0000
1000
,
0010
0100
0000
0000
,
0001
0100
0000
0000
,
0010
0100
0010
0000
,
0010
1000
0000
0000
,
0001
0100
0000
0000
,
0010
0100
0001
0010
,
0100
0010
0100
0010
,
0001
0000
1000
0000
0010
0000
0100
0010
,
0001
1000
0100
1000
,
0100
0000
1000
0000
0001
0000
0010
1000
,
0100
1000
0001
0100
,
0010
0000
1000
0000
0100
0000
1000
0010
,
0001
0010
0001
0100
,
0010
0000
0010
0000
,
0220
0000
0000
0000
,
0000
0000
0000
0000
,
0000
0000
0000
0000
,
0000
0000
0000
0000
,
0330
0000
0000
0000
;

//--------------- dance-single - B. M'Rey ----------------
#NOTEDATA:;
#STEPSTYPE:dance-single;
#DESCRIPTION:B. M'Rey;
#CREDIT:B. M'Rey;
#DIFFICULTY:Medium;
#METER:7;
#RADARVALUES:0,0,0,0,0;
#NOTES:
0000
0000
0000
0000
,
0000
0000
0000
0000
,
0000
0000
0000
0000
,
0000
0000
0000
0000
,
0000
0000
0000
0000
,
0010
0000
1000
0000
0100
0010
1000
0000
,
0100
0000
0010
0000
0001
1000
0100
0000
,
0010
0000
0100
0000
0001
0010
1000
0000
,
0010
0000
0100
0000
0001
1000
0100
0000
,
0100
0000
0001
0000
0001
1000
0000
0100
,
0010
0000
0000
1000
0001
0010
0000
1000
,
0010
0000
0010
0100
0010
0000
0001
0100
,
0001
0000
0100
0010
0100
1000
0000
0000
,
0010
0000
0100
0000
,
0100
0010
0100
1000
,
0001
0000
0001
1000
0001
0000
0000
0100
,
0001
0010
0000
0010
0001
0100
0000
1000
,
0100
0010
0000
0010
0100
1000
0000
0010
,
0100
0000
0100
1000
0001
0000
0001
0010
,
0100
0000
0100
0010
0001
0000
0001
0100
,
0010
1000
0001
1000
,
0001
0100
0001
0100
,
0020
0000
0000
0000
,
0031
0000
0100
0000
0001
0000
0010
1000
,
0001
1000
0100
1000
,
0100
0001
0010
0000
0100
0000
1000
0000
,
0001
0100
1000
0000
0010
0000
0100
0000
,
0001
0010
0100
0000
0010
0000
0100
0000
,
0010
0100
1000
0000
0100
0000
0010
0000
,
0100
1000
0010
0000
0001
0000
0010
0000
,
0100
0001
1000
0000
0010
0000
0100
0000
,
0001
1000
0010
0000
0001
0000
0100
0000
,
0001
0100
0010
0000
0100
0000
1000
0000
,
0010
0100
1000
0000
0100
0000
1000
0000
,
0001
0010
0100
0000
0001
0000
0010
0000
,
0001
0100
1000
0000
0100
0000
1000
0000
,
0001
0010
1000
0000
0100
0000
0010
0000
,
0100
0001
1000
0000
0100
0000
0010
0000
,
0001
1000
0010
0000
0001
0000
0010
0000
,
0100
0010
1000
0000
0001
0000
1000
0000
,
0100
0010
1000
0000
0001
0000
0100
0000
,
0001
0010
1000
0000
0001
0000
0010
0000
,
0100
0001
1000
0000
0001
0000
0100
0000
,
0001
0010
1000
0000
0100
0000
1000
0000
,
0100
1000
0010
0000
0001
0000
0010
0000
,
0001
0100
0010
0000
0100
0000
1000
0000
,
0010
1000
0100
0000
0001
0000
0100
0000
,
0010
0000
0001
0100
0001
0000
0100
0010
,
0100
1000
0100
0000
0001
0010
0100
0010
,
0100
0000
0100
0000
0001
0000
0100
1000
,
0100
0010
0100
0000
0001
0100
0001
0010
,
0001
0000
0010
0000
0010
0000
0001
0010
,
0001
0010
0100
0000
0001
0000
0010
1000
,
0010
0000
0001
0000
0100
0000
0001
1000
,
0100
1000
0001
0000
0001
0010
0001
0000
,
0200
0000
0000
0000
,
0000
0000
0000
0000
,
0000
0000
0000
0000
,
0000
0000
0000
0000
,
0300
0000
0000
0000
;

//--------------- dance-single - B. M'Rey ----------------
#NOTEDATA:;
#STEPSTYPE:dance-single;
#DESCRIPTION:B. M'Rey;
#CREDIT:B. M'Rey;
#DIFFICULTY:Hard;
#METER:10;
#RADARVALUES:0,0,0,0,0;
#NOTES:
0000
0000
0000
0000
,
0000
0000
0000
0000
,
0000
0000
0000
0000
,
0000
0000
0000
0000
,
0000
0000
0000
0000
,
0001
0000
0010
0000
0001
0000
0000
0000
0001
0000
0000
0000
0010
0000
0100
0010
,
0100
0100
0001
0000
0100
0010
0100
0010
,
0100
0000
1000
0000
0010
0000
0000
0000
0001
0000
0000
0000
0100
0000
0001
1000
,
0010
0100
0000
0001
1000
0000
1000
0001
,
0100
0000
0100
1000
0100
0010
0000
1000
,
0010
0100
0010
0000
0000
0000
0100
0000
0001
0010
0001
0000
0000
0000
0010
0000
,
0001
1000
0100
0010
0100
0000
0100
1000
,
0010
0000
0010
0100
0001
1000
0000
0100
,
0010
0100
0000
1000
0001
0100
0000
0100
,
1000
0010
0001
0010
,
0001
1000
0001
0010
0200
0000
0000
0310
,
0001
0000
0100
0000
0000
0000
1000
0010
1000
0100
0010
0000
0000
0000
0010
0000
,
0100
0000
2000
0000
0000
0000
3100
0010
1000
0001
0010
0000
0000
0000
0010
0000
,
0001
0100
0001
0010
0100
0010
0001
1000
,
0010
1000
0100
0010
0100
0010
0100
1000
,
1000
0100
1000
0100
1000
0010
0100
0010
0100
0000
0100
0000
1000
0000
1000
0000
,
0001
0010
0001
0100
0001
1000
0010
1000
,
0010
0100
0010
0100
,
0100
0010
0100
0010
0100
0001
0010
0100
,
0010
0000
0100
0000
1000
0100
0010
0000
,
0011
0000
0110
0000
1001
0000
0100
0010
,
1000
0001
1000
0000
0100
0001
0100
0001
,
0110
0000
0110
0000
1000
0100
1000
0001
,
0000
0001
0100
0000
0100
0010
1000
0001
,
0110
0000
1010
0000
1100
0000
0010
0100
,
1000
0001
0010
0000
1000
0100
0010
0001
,
1000
0001
0100
0000
0010
0000
1000
0010
,
0100
0010
1001
0000
0011
0000
0100
0001
,
0100
0010
1000
0000
0100
0000
1000
0000
,
0010
0001
1000
0000
0010
0001
0100
0001
,
0010
0100
1000
0000
0010
0000
0001
0000
,
1000
0100
0110
0000
0110
0000
1000
0010
,
0100
0010
0100
0000
0010
0000
0100
0000
,
1000
0100
1000
0000
0010
0001
1000
0010
,
1000
0010
0100
0001
1000
0000
0100
0001
,
0010
0001
1000
0000
0010
0000
1000
0001
,
0010
0100
1000
0000
1000
0000
0010
0000
,
0010
0001
1000
0000
0100
0000
1000
0000
,
0010
0100
1000
0001
1000
0000
0010
0000
,
1000
0010
0100
0000
1000
0000
0010
0000
,
0010
0001
0100
0000
1000
0000
1000
0000
,
0010
0100
0011
0000
0101
0000
0110
0000
,
1000
0001
1000
0001
1000
0010
0100
0010
,
1000
0000
0010
0000
1000
0000
0001
0000
1000
0001
0100
1000
0000
0010
0100
0001
,
1000
0100
0010
0001
0010
0001
0010
0100
,
1000
0000
0100
0000
1000
0000
0100
0000
0010
0001
0010
0001
0000
1000
0001
0100
,
0010
0100
1000
0100
1000
0010
1000
0010
,
0100
0000
0010
0000
1000
0000
0001
0000
1000
0001
1000
0001
0000
1000
0010
0001
,
0100
0001
0100
0010
0100
0010
1000
0010
,
1000
0001
0000
0010
0100
0010
0100
0000
,
2002
0000
0000
0000
,
0000
0000
0000
0000
,
0000
0000
0000
0000
,
0000
0000
0000
0000
,
3003
0000
0000
0000
;

//--------------- dance-double - B. M'Rey ----------------
#NOTEDATA:;
#STEPSTYPE:dance-double;
#DESCRIPTION:B. M'Rey;
#CREDIT:B. M'Rey;
#DIFFICULTY:Easy;
#METER:5;
#RADARVALUES:0,0,0,0,0;
#NOTES:
00000000
00000000
00000000
00000000
,
00000000
00000000
00000000
00000000
,
00000000
00000000
00000000
00000000
,
00000000
00000000
00000000
00000000
,
00000000
00000000
00000000
00000000
,
00001000
00010000
00000000
00000000
,
00000010
00000100
00000001
00000000
,
00001000
00000100
00000000
00000000
,
00010100
00000000
00011000
00000000
,
00000010
00000010
00001000
00001000
,
00000100
00000100
00010000
00010000
,
00001000
01000000
00100000
00000000
,
10000000
01000000
00110000
00000000
,
10010000
00000000
10100000
00000000
,
01000000
01000000
00001000
00001000
,
00100000
00010000
01000000
00000000
,
00001000
00000000
00010000
00000010
,
00001000
00000000
00000001
00000000
,
00000010
00000100
00010000
00000010
,
00001000
00000001
00000100
00000001
,
00001010
00001010
00011000
00011000
,
00100000
00000000
00100000
00000000
,
01010000
00000000
01010000
00000000
,
01000000
00010000
10000000
01000000
,
00110000
00000000
00001000
01000000
,
00100000
10000000
00010000
00100000
,
00001000
00000000
00010000
00000000
,
00000100
00000010
00000100
00001000
,
00000001
00001000
00000000
00000100
,
00010000
00000100
00001000
00000010
,
00010000
00000000
00000100
00001000
,
00010000
00001000
00000000
01000000
,
00010000
10000000
00010000
01000000
,
00001000
00100000
00000000
00010000
,
00000100
00010000
00001000
00100000
,
00001000
01000000
00000000
10000000
,
00010000
01010000
00100000
01000000
,
00100000
00001000
00010000
00000000
,
00000010
00001000
00000010
00000100
,
00000001
00000001
00001000
00000000
,
00000100
00000001
00000100
00000000
,
00000010
00000100
00000010
00000000
,
00001100
00000000
00001100
00000000
,
00000010
00001000
00000010
00000000
,
00010000
00000100
00010000
00000000
,
00001000
00000000
00100000
00000000
,
00010000
01000000
00100000
00000000
,
01000000
01000000
00001000
00001000
,
00010000
00010000
10000000
00010000
,
00100000
00100000
00001000
00001000
,
01000000
01000000
00010000
01000000
,
00010000
00010000
01000000
01000000
,
00001000
00001000
00010000
00000100
,
00001000
00001000
00000100
00000100
,
00000010
00000000
00000001
00000000
,
00000022
00000000
00000000
00000000
,
00000000
00000000
00000000
00000000
,
00000000
00000000
00000000
00000000
,
00000000
00000000
00000000
00000000
,
00000033
00000000
00000000
00000000
;

//--------------- dance-double - B. M'Rey ----------------
#NOTEDATA:;
#STEPSTYPE:dance-double;
#DESCRIPTION:B. M'Rey;
#CREDIT:B. M'Rey;
#DIFFICULTY:Medium;
#METER:6;
#RADARVALUES:0,0,0,0,0;
#NOTES:
00000000
00000000
00000000
00000000
,
00000000
00000000
00000000
00000000
,
00000000
00000000
00000000
00000000
,
00000000
00000000
00000000
00000000
,
00000000
00000000
00000000
00000000
,
00010000
00000010
00010000
00000000
00000100
00000000
00000010
00000000
,
00000001
00001000
00000001
00000000
00001000
00000000
00000100
00000000
,
00001000
00000100
00001000
00000000
00000010
00000000
00000100
00000000
,
00000001
00001000
00000000
00000000
00000100
00000010
00000000
00000000
,
00010000
00000000
00000010
00010000
00000010
00000000
00001000
00000000
,
00010000
00100000
00010000
00000000
01000000
10000000
00000000
00000000
,
00100000
00000000
00001000
00000000
01000000
00000000
00001000
01000000
,
00010000
10000000
01010000
00000000
,
10010000
00000000
11000000
00000000
,
00100000
00100000
00001000
00001000
,
00010000
00000100
00010000
00000000
00001000
00000000
00100000
00000000
,
01000000
00100000
00000000
00000000
00010000
01000000
00000000
00000000
,
00001000
00010000
00000000
00000000
00000100
00001000
00000000
00000000
,
00000010
00010000
00001000
00010000
,
00010000
00010000
00010000
00000000
00000100
00000100
00000100
00000000
,
00001000
00000001
00010010
00000000
,
00001001
00000000
00001100
00000000
,
00000010
00010000
00001000
01000000
,
00100000
00000000
01000000
00000000
00100000
00000000
10000000
01000000
,
10000000
00100000
01000000
00100000
,
11000000
00000000
11000000
00000000
00010000
00000000
01000000
00001000
,
00100000
00010000
00000010
00001000
,
00010000
00000000
00000100
00000000
00001000
00000000
00000100
00001000
,
00000100
00000000
00010000
00001000
00010000
00000000
00000010
00000000
,
00001000
00000000
00000001
00000000
00001000
00000000
00000010
00010000
,
00001000
00000000
01000000
00000000
00100000
01000000
00100000
00000000
,
00010000
01000000
00010000
00000000
00100000
00000000
00001000
00000000
,
00100000
00001000
00100000
00000000
00010000
00000000
00001000
00000000
,
00010000
00001000
00010000
00000000
00000100
00000000
00000010
00000000
,
00000001
00000100
00000001
00000000
00000010
00000000
00000100
00000000
,
00001000
00000010
00010000
00000000
00000100
00000000
00010000
00000000
,
00001000
00010000
00000100
00000000
00001000
00000000
00000001
00000000
,
00000010
00000001
00001000
00000000
00000010
00000000
00010000
00000000
,
00001000
00010000
00100000
00000000
00001000
00000000
01000000
00000000
,
00010000
01000000
00010000
00000000
10000000
00000000
00100000
00000000
,
01000000
00100000
10000000
00000000
00100000
00000000
00010000
00000000
,
10000000
00010000
01000000
00000000
00001000
00000000
01000000
00000000
,
00011000
00000000
00011000
00000000
00000010
00001000
00000010
00000000
,
00000001
00001000
00000100
00000000
00000001
00000000
00001000
00000000
,
00000100
00000010
00000001
00000000
00000010
00000000
00001000
00000000
,
00001000
00000000
00000100
00000000
,
00010000
00001000
01000000
00100000
,
01000000
01000000
01000000
00000000
00010000
00000000
10000000
00000000
,
00010000
00010000
00010000
00000000
00100000
00000000
00001000
00000000
,
00100000
00100000
00100000
00000000
00001000
00000000
00010000
00000000
,
00001000
00001000
00001000
00000000
01000000
00000000
00001000
00000000
,
00100000
00100000
00100000
00000000
00001000
00000000
00010000
00000000
,
00000100
00000100
00000100
00000000
00000010
00000000
00000001
00000000
,
00000010
00000010
00000010
00000000
00010000
00000000
00000100
00000000
,
00000010
00001000
00000000
00000000
00000001
00000100
00000000
00000000
,
00000022
00000000
00000000
00000000
,
00000000
00000000
00000000
00000000
,
00000000
00000000
00000000
00000000
,
00000000
00000000
00000000
00000000
,
00000033
00000000
00000000
00000000
;

//--------------- dance-double - B. M'Rey ----------------
#NOTEDATA:;
#STEPSTYPE:dance-double;
#DESCRIPTION:B. M'Rey;
#CREDIT:B. M'Rey;
#DIFFICULTY:Hard;
#METER:10;
#RADARVALUES:0,0,0,0,0;
#NOTES:
00000000
00000000
00000000
00000000
,
00000000
00000000
00000000
00000000
,
00000000
00000000
00000000
00000000
,
00000000
00000000
00000000
00000000
,
00000000
00000000
00000000
00000000
,
00001000
00000000
01000000
00000000
00001000
00000000
00000000
00000000
00010000
00000000
00000000
00000000
00000100
00000000
00000000
00000100
,
00000010
00000001
00001000
00000000
00000010
00001000
00000010
00000100
,
00000001
00001000
00000100
00000000
00000010
00000100
00000001
00000000
,
00000001
00000000
00001000
00000000
00000000
00000000
00000010
00000000
00010000
00000010
00010000
00000000
00001000
00000000
00000000
00000000
,
01000000
00010000
01000000
00100000
10000000
00100000
00000000
00010000
,
00100000
00010000
00100000
00000000
00000000
00000000
01000000
00000000
00010000
01000000
00010000
00000000
00000000
00000000
10000000
00000000
,
00010000
10000000
00010000
00100000
01000000
00000000
00001000
01000000
,
00001000
00000000
00100000
00001000
00100000
00010000
00100000
00000000
,
01010000
00000000
00001000
00010000
01010000
00000000
00001000
00100000
,
00010100
00001010
00001100
00001010
,
00000010
00000100
00000001
00000100
00000001
00000000
00001000
00000001
,
00000100
00000000
00001000
00000000
00000000
00000000
00000100
00010000
00000100
00010000
00000000
00000000
00000000
00000000
00001000
00000000
,
01000000
00000000
00001000
00000000
00000000
00000000
00001000
01000000
00001000
01000000
00001000
00000000
00000000
00000000
00010000
00000000
,
00001000
00000100
00001000
00010000
00000010
00001000
00000100
00010000
,
00001000
00100000
00010000
10000000
00100000
01000000
00010000
01000000
,
00010000
10000000
00010000
10000000
00010000
10000000
00010000
10000000
00010000
00000000
00000000
00000000
00100000
00000000
00000000
00000000
,
00001000
00010000
00000100
00000010
,
00001010
00000000
00001010
00000000
,
00001000
00000000
00000001
00000000
00000010
00000000
00000100
00001000
,
00000100
00000000
00000000
00000000
00010000
00000000
00000000
00000000
00001000
00000000
00010000
00001000
00000000
00010000
00001000
00000000
,
01000000
00000000
00001000
00000000
00010000
00000000
01000000
00100000
,
00010000
00000000
01000000
00000000
00100000
00000000
00000000
00000000
00010000
00000000
01000000
00010000
00000000
01000000
00010000
00000000
,
00100000
10000000
01000000
00000000
00100000
00000000
10000000
00100000
,
01000000
00000000
00100000
00000000
10000000
00000000
00000000
00000000
00100000
00000000
10000000
00100000
00000000
10000000
00100000
00000000
,
01000000
00100000
00010000
00000000
00100000
00000000
01000000
00001000
,
00010000
00000000
00001000
00000000
00000010
00000000
00000000
00000000
00000010
00000000
00000100
00000010
00000000
00000100
00000010
00000000
,
00001000
00010000
00000100
00000000
00001000
00010000
00000100
00010000
,
00000010
00000100
00001001
00000000
00010100
00000000
00011000
00000000
,
00000100
00000010
00000001
00000000
00001000
00000001
00001000
00000010
,
00001000
00000000
00010000
00000000
00000100
00000000
00000000
00000000
00001000
00000000
00010000
00000010
00000000
00010000
00000010
00000000
,
00001000
00000010
00000001
00000000
00000010
00001000
00000100
00010000
,
00001000
00000100
00010100
00000000
00101000
00000000
01010000
00000000
,
00100000
01000000
10000000
00000000
01000000
00100000
01000000
00000000
,
00010000
00000000
10000000
00000000
00000000
00000000
00100000
00000000
01000000
00100000
01000000
00100000
00000000
00000000
00000000
00000000
,
00010000
00100000
01000000
00001000
00000000
00010000
00001000
00000100
,
00001000
00000001
00001000
00000000
00000100
00010000
00000100
00010000
,
00001000
01000000
00001000
00000000
00010000
00000010
00001000
00000000
,
00001100
00000000
00001001
00000000
00000011
00000000
00000100
00001000
,
00000100
00000001
00001000
00000000
00000010
00000000
00000100
00000000
,
00010000
00000100
00010000
00000000
00001000
00000000
00100000
00000000
,
00010000
01000000
00010000
01000000
00001000
00000000
01000000
00000000
,
00010000
00001000
00000000
00000010
00010000
00001000
01000000
00000000
,
00010000
01000000
00010000
10000000
00100000
10000000
00100000
01000000
,
00010000
00000000
01000000
00000000
00010000
00000000
01000000
00000000
00001000
00000000
00010000
00000010
00000000
00000010
00010000
00000000
,
00000100
00001000
00000001
00001000
00000100
00010000
00000100
00001000
,
00000100
00000000
00010000
00000000
00001000
00000000
00010000
00000000
00000010
00000000
00001000
00000010
00000000
00000010
00010000
00000000
,
00001000
01000000
00100000
10000000
00010000
10000000
00010000
00100000
,
00010000
00000000
10000000
00000000
00100000
00000000
01000000
00000000
00001000
00000000
01000000
00001000
00000000
00001000
00100000
00000000
,
00001000
00010000
00000010
00010000
00000100
00010000
00000100
00001000
,
00000101
00000000
00000101
00000000
00000000
00000000
00000010
00000000
00010000
00000000
00001000
00010000
00000000
00000000
00000000
00000000
,
02002000
00000000
00000000
00000000
,
00000000
00000000
00000000
00000000
,
00000000
00000000
00000000
00000000
,
00000000
00000000
00000000
00000000
,
03003000
00000000
00000000
00000000
;
