#TITLE:HE LIVES IN YOU;
#SUBTITLE:;
#ARTIST:BRIAN ICE;
#TITLETRANSLIT:;
#SUBTITLETRANSLIT:;
#ARTISTTRANSLIT:;
#GENRE:;
#CREDIT:;
#MUSIC:He Lives In You.ogg;
#BANNER:He Lives In You.png;
#BACKGROUND:He Lives In You-bg.png;
#CDTITLE:./CDTITLES/AVEX.PNG;
#SAMPLESTART:43.813;
#SAMPLELENGTH:12.000;
#SELECTABLE:YES;
#OFFSET:-0.040;
#BPMS:0.000=150.102;
#STOPS:;
#BGCHANGES:;
#FGCHANGES:;

//--------------- dance-single - B. M'Rey ----------------
#NOTES:
     dance-single:
     B. M'Rey:
     Easy:
     3:
     0.236969,0.275081,0.036862,0,0,135,132,3,0,0,0,0.236969,0.275081,0.036862,0,0,135,132,3,0,0,0:
0000
0000
0000
0000
,
0000
0000
0000
0000
,
0000
0000
0000
0000
,
0000
0000
0000
0000
,
0010
0000
0010
1000
,
0001
0000
0010
0100
,
0001
0000
0001
0100
,
0110
0000
0000
0000
,
0001
0010
0001
0100
,
0010
0100
0001
0010
,
0100
1000
0010
1000
,
0010
0100
0001
0000
,
0001
0100
0001
0100
,
0010
0100
0010
1000
,
0010
1000
0100
1000
,
0100
0010
0001
0000
,
0100
0000
0001
0000
,
0100
0000
0000
1000
,
0010
1000
0100
0000
,
0100
0000
0100
0000
,
0001
1000
0010
0000
,
0010
0000
0100
0000
,
0100
0010
0001
0000
,
0010
0000
0100
0000
,
1100
0000
0000
0000
,
0010
0000
0000
0000
,
0101
0000
0000
0000
,
0000
0000
0001
0010
,
0001
0000
0010
0000
,
0001
0000
0010
1000
,
0010
0000
0010
0000
,
0001
0000
0001
0010
,
0100
0000
0001
0000
,
0100
0010
0001
1000
,
0010
0000
0001
0000
,
0100
0010
0100
1000
,
0100
0000
0001
0000
,
0100
0010
0100
1000
,
0001
0000
0001
0000
,
0010
0000
0010
1000
,
0100
0000
0010
0000
,
0010
0000
0001
0010
,
0001
0010
0001
0100
,
0010
0100
0001
0010
,
0100
1000
0010
1000
,
0010
0100
0001
0000
,
0001
0100
0001
0100
,
0010
0100
0010
1000
,
0010
1000
0100
1000
,
0100
0010
0000
0010
;

//--------------- dance-single - B. M'Rey ----------------
#NOTES:
     dance-single:
     B. M'Rey:
     Medium:
     4:
     0.315959,0.365854,0.086011,0.049149,0.024575,180,173,7,4,0,0,0.315959,0.365854,0.086011,0.049149,0.024575,180,173,7,4,0,0:
0000
0000
0000
0000
,
0000
0000
0000
0000
,
0000
0000
0000
0000
,
0000
0000
0000
0000
,
0010
0010
0010
0110
,
0001
0001
0001
0011
,
0010
0010
0010
1010
,
0110
0000
0000
0101
0000
0000
0000
0000
,
0001
0010
0100
0010
,
0001
0010
1000
0100
,
1000
0010
0100
0001
,
0020
0000
0000
0000
,
0130
0001
0010
0001
,
0100
0010
0001
1000
,
0010
0001
0100
0010
,
0002
0000
0000
0000
0000
0000
0000
0000
0000
0000
0000
0000
0000
0000
0000
0000
0000
0000
0000
0000
0000
0000
0000
0000
0000
0000
0000
0000
0000
0000
0000
0000
0000
0000
0000
0000
0000
0000
0000
0000
0000
0000
0000
0000
0000
0000
0000
0000
0000
0000
0000
0000
0000
0000
0000
0000
0000
0000
0000
0000
0000
0000
0000
0000
0000
0000
0000
0000
0000
0000
0000
0000
0000
0000
0000
0000
0000
0000
0000
0000
0000
0000
0000
0000
0000
0000
0000
0000
0000
0000
0000
0000
0000
0000
0000
0000
0000
0000
0000
0000
0000
0000
0000
0000
0000
0000
0000
0000
0000
0000
0000
0000
0000
0000
0000
0003
0000
0000
0000
0000
0000
0000
0000
0000
0000
0000
0000
0000
0000
0000
0000
0000
0000
0000
0000
0000
0000
0000
0000
0000
0000
0000
0000
0000
0000
0000
0000
0000
0000
0000
0000
0000
0000
0000
0000
0000
0000
0000
0000
0000
0000
0000
0000
0000
0000
0000
0000
0000
0000
0000
0000
0000
0000
0000
0000
0000
0000
0000
0000
0000
0000
0000
0000
0000
0000
0000
0000
0000
0000
0000
0000
0000
,
0001
1000
0001
1000
,
0001
0000
1000
0000
0001
0000
0100
0010
,
0100
0010
0100
0010
,
0100
0010
0100
0010
,
0001
0000
0000
0010
0000
0000
1000
0000
0100
0000
0000
0000
0010
0000
0000
0000
,
0001
0000
0010
0000
0001
0000
0001
0010
,
1000
0000
0000
0100
0000
0000
0010
0000
1000
0000
0000
0000
0001
0000
0000
0000
,
0010
0001
0100
0010
,
0110
0000
0000
0000
,
0000
0000
0000
0000
,
1001
0000
0000
0000
,
0000
0000
0001
0010
,
0100
0010
0100
0010
,
0001
0000
1000
0001
0100
0000
0010
0001
,
0010
0100
0010
0100
,
0010
0000
0100
1000
0001
0000
0010
0001
,
0100
1000
0100
0010
,
0100
0010
1000
0000
0010
0001
0100
0000
,
0001
0100
0010
0100
,
0001
0000
1000
0000
0001
0000
0100
0010
,
0001
0010
0100
1000
,
0001
0000
0010
0000
0001
0000
0010
0100
,
0000
0010
0001
0100
,
0010
0000
0100
0010
0001
0000
1000
0010
,
0100
0010
0001
0010
,
0100
0000
1000
0010
0001
0000
0010
1000
,
0001
1000
0010
0100
,
0001
0010
0001
0100
,
0010
1000
0001
0100
,
0020
0000
0000
0000
0000
0000
0000
0000
0000
0000
0000
0000
0000
0000
0000
0000
0000
0000
0000
0000
0000
0000
0000
0000
0000
0000
0000
0000
0000
0000
0000
0000
0000
0000
0000
0030
0000
0000
0000
0000
0000
0000
0000
0000
0000
0000
0000
0000
,
0001
0100
0010
0001
,
1000
0100
0010
1000
,
0100
0010
0001
0010
,
0002
0000
0000
0000
0000
0003
0000
0000
;

//--------------- dance-single - B. M'Rey ----------------
#NOTES:
     dance-single:
     B. M'Rey:
     Hard:
     7:
     0.480959,0.491491,0.073724,0.061436,0.13516,274,268,6,5,0,0,0.480959,0.491491,0.073724,0.061436,0.13516,274,268,6,5,0,0:
0000
0000
0000
0000
,
0000
0000
0000
0000
,
0000
0000
0000
0000
,
0000
0000
0000
0000
,
0100
0010
0001
0000
0010
0000
0010
0000
,
0100
1000
0100
0000
0001
0000
0001
0000
,
0001
0100
0010
0000
0001
0000
0001
0000
,
0110
0000
0000
0110
0000
0000
0000
0000
,
0001
1000
0100
0010
0001
0100
0001
0100
,
0000
1000
0100
0010
0100
1000
0001
0000
,
0100
0000
1000
0000
0001
0000
0100
0000
0000
0000
1000
0000
0000
0000
0100
1000
,
0010
1000
0010
0100
0000
0200
0000
0000
,
0301
0100
0010
0100
0010
1000
0001
1000
,
0000
0010
0001
0100
0000
0100
0010
0000
,
0010
0000
1000
0000
0001
0000
1000
0000
0000
0000
0010
0000
0000
0000
0001
0010
,
0001
0010
0100
1000
0000
0010
0001
1000
,
0001
0000
0010
0100
0010
0000
0100
1000
,
0100
0000
0100
1000
0001
0000
0100
0010
,
0100
0000
0000
0010
0000
0000
0010
0000
0001
0000
0000
0000
0001
0000
1000
0000
,
0010
0000
0001
0100
0010
0000
0200
0000
,
0010
0000
0000
0310
0000
0000
0100
0000
0010
0000
0000
0000
0010
0000
1000
0000
,
0000
0010
0000
1000
0000
0100
0001
0100
,
0010
0000
0000
1000
0000
0000
0010
0000
0100
0000
0000
0000
0010
0000
0100
0000
,
0000
0100
0000
0010
0000
1000
0001
0100
,
0000
0000
0100
0000
0010
0000
0000
0000
0010
0000
0100
0001
0000
0000
0100
0000
,
0000
0000
1000
0000
0001
0000
0000
0000
0010
0000
1000
0001
0000
0000
1000
0000
,
0110
0000
0000
0000
0001
0000
0000
0000
0010
0000
0100
0010
0000
0000
0100
0000
,
0000
0000
0000
1000
0100
0000
0010
0100
,
0001
0000
0100
0000
0000
0010
0000
0000
0010
0000
0000
0100
0000
0000
0100
0000
,
0001
0010
0000
1000
0100
0000
0001
1000
,
0010
0000
0001
0010
0100
0000
0100
0010
,
0100
0000
0001
1000
0010
0000
0010
0100
,
0000
0000
0010
0000
0000
1000
0000
0000
0100
0000
0000
0010
0000
0000
0100
0000
,
0001
0000
0010
0000
0000
0001
0000
0000
0001
0000
0000
0010
0000
0000
0010
0000
,
0001
0000
0100
1000
0100
0000
0010
0100
,
0001
0000
0101
0000
1010
0000
0010
0100
,
0000
0000
1000
0000
0000
0100
0000
0000
0001
0000
0000
0100
0000
0000
1000
0000
,
0010
1000
0001
0000
0100
0000
0100
1000
,
0001
0000
0100
0000
0000
0010
0000
0000
0100
0000
0000
0001
0000
0000
0100
0000
,
0010
0000
0010
1000
0100
0000
0001
0010
,
0000
0000
0010
0000
0000
0100
0000
0000
0001
0000
0000
1000
0000
0000
0100
0000
,
0010
0000
0001
0010
0100
0000
0100
1000
,
0001
1000
0100
0010
0001
0100
0001
0100
,
0000
1000
0100
0010
0100
1000
0001
0000
,
0100
0000
1000
0000
0001
0000
0100
0000
0000
0000
1000
0000
0000
0000
0100
1000
,
0010
1000
0010
0100
0000
0200
0000
0000
,
0301
0100
0010
0100
0010
1000
0001
1000
,
0000
0010
0001
0100
0000
0100
0010
0000
,
0010
0000
1000
0000
0001
0000
1000
0000
0000
0000
0010
0000
0000
0000
0001
0010
,
0001
0010
0100
1000
0000
0022
0000
0000
,
0033
0000
0000
0000
;

//--------------- dance-double - B. M'Rey ----------------
#NOTES:
     dance-double:
     B. M'Rey:
     Easy:
     3:
     0.266809,0.335366,0.073724,0.098298,0.036862,152,146,6,8,0,0,0.266809,0.335366,0.073724,0.098298,0.036862,152,146,6,8,0,0:
00000000
00000000
00000000
00000000
,
00000000
00000000
00000000
00000000
,
00000000
00000000
00000000
00000000
,
00000000
00000000
00000000
00000000
,
00010000
00100000
01000000
00100000
,
20000000
00000000
00000000
00000000
00000000
00000000
00000000
00000000
00000000
00000000
00000000
00000000
00000000
00000000
00000000
30000000
00000000
00000000
00000000
00000000
00000000
00000000
00000000
00000000
00000000
00000000
00000000
00000000
00000000
00000000
00000000
00000000
00000000
00000000
00000000
00000000
00000000
00000000
00000000
00000000
00000000
00000000
00000000
00000000
00000000
00000000
00000000
00000000
02000000
00000000
00000000
00000000
00000000
00000000
00000000
00000000
00000000
00000000
00000000
00000000
00000000
03000000
00000000
00000000
00000000
00000000
00000000
00000000
00000000
00000000
00000000
00000000
00000000
00000000
00000000
00000000
00000000
00000000
00000000
00000000
00000000
00000000
00000000
00000000
00000000
00000000
00000000
00000000
00000000
00000000
00000000
00000000
00000000
00000000
00000000
00000000
10000000
00000000
00000000
00000000
00000000
00000000
00000000
00000000
00000000
00000000
00000000
00000000
00000000
00000000
00000000
00000000
00000000
00000000
00000000
00000000
00000000
00000000
00000000
00000000
00000000
00000000
00000000
00000000
00000000
00000000
00000000
00000000
00000000
00000000
00000000
00000000
00000000
00000000
00000000
00000000
00000000
00000000
00000000
00000000
00000000
00000000
00000000
00000000
00100000
00000000
00000000
00000000
00000000
00000000
00000000
00000000
00000000
00000000
00000000
00000000
00000000
00000000
00000000
00000000
00000000
00000000
00000000
00000000
00000000
00000000
00000000
00000000
00000000
00000000
00000000
00000000
00000000
00000000
00000000
00000000
00000000
00000000
00000000
00000000
00000000
00000000
00000000
00000000
00000000
00000000
00000000
00000000
00000000
00000000
00000000
00000000
,
02000000
00000000
00000000
00000000
00000000
00000000
00000000
00000000
00000000
00000000
00000000
00000000
00000000
00000000
00000000
03000000
00000000
00000000
00000000
00000000
00000000
00000000
00000000
00000000
00000000
00000000
00000000
00000000
00000000
00000000
00000000
00000000
00000000
00000000
00000000
00000000
00000000
00000000
00000000
00000000
00000000
00000000
00000000
00000000
00000000
00000000
00000000
00000000
20000000
00000000
00000000
00000000
00000000
00000000
00000000
00000000
00000000
00000000
00000000
00000000
00000000
30000000
00000000
00000000
00000000
00000000
00000000
00000000
00000000
00000000
00000000
00000000
00000000
00000000
00000000
00000000
00000000
00000000
00000000
00000000
00000000
00000000
00000000
00000000
00000000
00000000
00000000
00000000
00000000
00000000
00000000
00000000
00000000
00000000
00000000
00000000
00100000
00000000
00000000
00000000
00000000
00000000
00000000
00000000
00000000
00000000
00000000
00000000
00000000
00000000
00000000
00000000
00000000
00000000
00000000
00000000
00000000
00000000
00000000
00000000
00000000
00000000
00000000
00000000
00000000
00000000
00000000
00000000
00000000
00000000
00000000
00000000
00000000
00000000
00000000
00000000
00000000
00000000
00000000
00000000
00000000
00000000
00000000
00000000
00010000
00000000
00000000
00000000
00000000
00000000
00000000
00000000
00000000
00000000
00000000
00000000
00000000
00000000
00000000
00000000
00000000
00000000
00000000
00000000
00000000
00000000
00000000
00000000
00000000
00000000
00000000
00000000
00000000
00000000
00000000
00000000
00000000
00000000
00000000
00000000
00000000
00000000
00000000
00000000
00000000
00000000
00000000
00000000
00000000
00000000
00000000
00000000
,
01001000
00000000
00000000
01001000
00000000
00000000
00000000
00000000
,
00001000
00010000
00100000
00010000
,
00001000
00010000
01000000
00100000
,
01000000
00010000
00100000
00001000
,
00002000
00000000
00000000
00000000
,
00013000
00000100
00001000
00000100
,
00010000
00001000
00000100
00100000
,
00001000
00000100
00010000
00001000
,
00000020
00000000
00000000
00000000
00000000
00000000
00000000
00000000
00000000
00000000
00000000
00000000
00000000
00000000
00000000
00000000
00000000
00000000
00000000
00000000
00000000
00000000
00000000
00000000
00000000
00000000
00000000
00000000
00000000
00000000
00000000
00000000
00000000
00000000
00000000
00000000
00000000
00000000
00000000
00000000
00000000
00000000
00000000
00000000
00000000
00000000
00000000
00000000
00000000
00000000
00000000
00000000
00000000
00000000
00000000
00000000
00000000
00000000
00000000
00000000
00000000
00000000
00000000
00000000
00000000
00000000
00000000
00000000
00000000
00000000
00000000
00000000
00000000
00000000
00000000
00000000
00000000
00000000
00000000
00000000
00000000
00000000
00000000
00000000
00000000
00000000
00000000
00000000
00000000
00000000
00000000
00000000
00000000
00000000
00000000
00000000
00000000
00000000
00000000
00000000
00000000
00000000
00000000
00000000
00000000
00000000
00000000
00000000
00000000
00000000
00000000
00000000
00000000
00000000
00000000
00000030
00000000
00000000
00000000
00000000
00000000
00000000
00000000
00000000
00000000
00000000
00000000
00000000
00000000
00000000
00000000
00000000
00000000
00000000
00000000
00000000
00000000
00000000
00000000
00000000
00000000
00000000
00000000
00000000
00000000
00000000
00000000
00000000
00000000
00000000
00000000
00000000
00000000
00000000
00000000
00000000
00000000
00000000
00000000
00000000
00000000
00000000
00000000
00000000
00000000
00000000
00000000
00000000
00000000
00000000
00000000
00000000
00000000
00000000
00000000
00000000
00000000
00000000
00000000
00000000
00000000
00000000
00000000
00000000
00000000
00000000
00000000
00000000
00000000
00000000
00000000
00000000
,
00000100
00000000
00000100
00000000
,
00000100
00000000
00000100
00000010
,
00000100
00010000
00001000
00000000
,
00000100
00000000
00000100
00000000
,
00000100
00000001
00000010
00000000
,
00000100
00000000
00000010
00000000
,
00000001
00000010
00000001
00000000
,
00000100
00000000
00010000
00000000
,
00001100
00000000
00000000
00000000
,
00000000
00000000
00000000
00000000
,
00010010
00000000
00000000
00000000
,
00000000
00000000
00000010
00000100
,
00000100
00001000
00000100
00100000
,
00001000
00010000
00100000
00001000
,
00010000
00001000
00000100
00001000
,
00000100
00100000
00001000
00010000
,
01000000
00100000
01000000
00010000
,
00001000
00010000
00001000
00100000
,
00010000
00001000
01000000
00010000
,
00001000
00010000
00100000
00010000
,
10010000
00100000
01000000
00100000
,
00010000
00100000
01000000
00100000
,
10010000
00100000
01000000
00010000
,
00100000
00010000
10000000
00100000
,
00100000
01000000
00010000
00001000
,
00010000
00001000
00100000
00010000
,
00001000
01000000
00010000
00100000
,
00001000
00010000
00001000
00100000
,
00001000
00100000
00000100
00010000
,
00002000
00000000
00000000
00000000
00000000
00000000
00000000
00000000
00000000
00000000
00000000
00000000
00000000
00000000
00000000
00000000
00000000
00000000
00000000
00000000
00000000
00000000
00000000
00000000
00000000
00000000
00000000
00000000
00000000
00000000
00000000
00000000
00000000
00000000
00000000
00003000
00000000
00000000
00000000
00000000
00000000
00000000
00000000
00000000
00000000
00000000
00000000
00000000
,
00000100
00010000
00001000
00000100
,
00100000
00010000
00001000
00100000
,
00001000
00000100
00000010
00000100
,
00000020
00000000
00000000
00000000
00000000
00000030
00000000
00000000
;

//--------------- dance-double - B. M'Rey ----------------
#NOTES:
     dance-double:
     B. M'Rey:
     Medium:
     5:
     0.37564,0.395343,0.061436,0.024575,0.012287,214,209,5,2,0,0,0.37564,0.395343,0.061436,0.024575,0.012287,214,209,5,2,0,0:
00000000
00000000
00000000
00000000
,
00000000
00000000
00000000
00000000
,
00000000
00000000
00000000
00000000
,
00000000
00000000
00000000
00000000
,
00100000
01000000
00100000
01000000
,
00010000
10000000
00010000
10000000
,
00010000
01000000
00100000
01000000
,
01010000
00000000
00000000
00101000
00000000
00000000
00000000
00000000
,
00010000
00000000
01000000
00001000
00100000
00000000
00010000
01000000
,
00001000
00000000
00010000
00000000
00100000
01000000
00010000
00000000
,
00001000
00000000
00100000
00010000
00001000
00000000
01000000
00000000
,
00010000
00000000
00001000
00100000
00000100
00000000
00001000
00000000
,
00000100
00000000
00001000
00000000
00010000
00000000
00100000
00001000
,
00000100
00000000
00010000
00000000
00001000
00000100
00100000
00000000
,
00010000
00000000
00001000
00100000
00010000
00000000
00001000
00000000
,
00001000
00000010
00010000
00000000
00000010
00000000
00000000
00000000
,
00000010
00000100
00000010
00010000
,
00001000
00000000
00000100
00000000
00000010
00000000
00001000
00000100
,
00000010
00000000
00010000
00001000
00000100
00000000
00010000
00000000
,
00000100
00001000
00000010
00000200
,
00000001
00000000
00000000
00000001
00000300
00000000
00000000
00000000
00000100
00000000
00000000
00000000
00000010
00000000
00000000
00000000
,
00000001
00000000
00001000
00000000
00000100
00000000
00000010
00000002
,
00000100
00000000
00000000
00000103
00000000
00000000
00000000
00000000
00000001
00000000
00000000
00000000
00001000
00000000
00000000
00000000
,
00001000
00010000
00000100
00001000
,
00001010
00000000
00000100
00001000
,
00010100
00000000
00000010
00001000
,
00001100
00000000
00000010
00001000
,
00000000
00000000
00000000
00100000
00000100
00000000
00001000
00000100
,
00010000
00001000
00010000
00001000
,
00000100
00000000
00100000
00000100
00010000
00000000
00001000
00000100
,
00001000
00010000
00001000
00010000
,
00010000
00000000
00100000
01000000
00001000
00000000
00010000
00001000
,
00100000
01000000
00100000
00010000
,
00100000
00010000
01000000
00000000
00010000
00001000
00100000
00000000
,
00001000
00100000
00010000
00100000
,
00010000
00000000
10000000
00000000
00010000
00000000
01000000
00100000
,
00010000
00100000
01000000
10000000
,
00010000
00000000
00100000
00000000
00010000
00000000
00100000
01000000
,
00000000
00100000
00010000
01000000
,
00010000
00000000
00100000
00010000
00001000
00000000
01000000
00010000
,
00100000
00010000
00001000
00010000
,
00100000
00000000
01000000
00010000
00001000
00000000
00010000
01000000
,
00010000
00000000
01000000
00001000
00100000
00000000
00010000
01000000
,
00000100
00000000
00001000
00000000
00010000
00100000
00001000
00000000
,
00000100
00000000
00010000
00001000
00000100
00000000
00100000
00000000
,
00010000
00000000
00001000
00100000
00000100
00000000
00001000
00000000
,
00000100
00000000
00001000
00000000
00010000
00000000
00100000
00001000
,
00000010
00000000
00001000
00000000
00000100
00000010
00010000
00000000
,
00001000
00000000
00000100
00010000
00001000
00000000
00000100
00000000
,
00001000
00000010
00010000
00000000
00000010
00000000
00000000
00000000
;
