#TITLE:HARDER, BETTER, FASTER, STRONGER;
#SUBTITLE:;
#ARTIST:DAFT PUNK;
#TITLETRANSLIT:;
#SUBTITLETRANSLIT:;
#ARTISTTRANSLIT:;
#GENRE:;
#CREDIT:;
#MUSIC:HARDER, BETTER, FASTER, STRONGER.ogg;
#BANNER:HARDER, BETTER, FASTER, STRONGER-bn.png;
#BACKGROUND:HARDER, BETTER, FASTER, STRONGER-bg.png;
#CDTITLE:./CDTITLES/LOVE HOUSE/PLATINUM.PNG;
#SAMPLESTART:23.325;
#SAMPLELENGTH:12.000;
#SELECTABLE:YES;
#OFFSET:-0.486;
#BPMS:0.000=123.472;
#STOPS:;
#BGCHANGES:;
#FGCHANGES:;

//--------------- dance-single - B. M'Rey ----------------
#NOTES:
     dance-single:
     B. M'Rey:
     Beginner:
     2:
     0,0,0,0,0:
0000
0000
0000
0000
,
0000
0000
0000
0000
,
0000
0000
0000
0000
,
0000
0000
0000
1000
,
0000
0100
0000
0010
,
0000
0001
0000
1001
,
0000
0000
0000
0000
,
0000
0000
0000
0000
,
0001
0000
0010
0000
,
0100
0000
1000
0000
,
0000
0000
0000
0000
,
0000
0000
0000
1000
,
1000
0100
0100
0001
,
0001
0010
0010
1001
,
0000
0000
0000
0000
,
0000
0000
0000
0100
,
0100
1000
1000
0010
,
0010
0100
0100
0001
,
0000
1000
0000
0010
,
0000
0100
0000
0002
,
0000
0000
1003
2000
,
0000
0000
3010
0010
,
0000
0100
0000
0010
,
0000
0100
0000
0001
,
0001
0001
0000
1000
,
1000
1000
0000
0010
,
0010
0100
0000
0100
,
0100
0010
0000
0001
,
0010
0001
0000
1000
,
0100
1000
0000
0010
,
0000
0010
0000
0001
,
0000
1000
0001
1000
,
0010
0000
0100
0001
,
0000
1000
0010
0200
,
0000
0000
0310
1000
,
0000
0100
0001
1001
,
0000
0000
0000
0010
,
0000
0000
0000
0001
,
0000
0000
0000
0010
,
0000
0000
0000
1000
,
0100
0010
0000
0001
,
0010
0100
0000
1000
,
0001
1000
0000
0010
,
0100
0002
0000
1003
,
0100
0000
1000
0010
,
0000
0010
0001
0000
,
0010
0001
0000
1000
,
0000
0000
0000
0010
,
0000
0100
0000
0100
,
0010
0001
0000
1000
,
0000
0010
0000
0002
,
0003
2000
3000
0020
,
0030
0100
0100
0020
,
0030
0001
0001
2000
,
3000
0100
0100
1000
,
0100
0010
0001
0000
;

//--------------- dance-single - B. M'Rey ----------------
#NOTES:
     dance-single:
     B. M'Rey:
     Easy:
     3:
     0,0,0,0,0:
0000
0000
0000
0000
,
0000
0000
0000
1000
,
0000
1000
0000
1000
,
0000
1000
0000
0001
,
0000
0100
0000
0010
,
0000
1000
0000
0001
,
1000
0001
1000
0001
,
1000
0001
1000
1001
,
0000
0101
0000
0110
,
0000
1001
0000
0010
,
0010
0010
0010
0100
,
0100
0100
0000
0001
,
0010
0001
1001
0010
,
0100
1000
1010
0100
,
0000
1000
0001
1000
,
0000
0000
0000
0000
0000
0000
0000
0000
0000
0000
0000
0000
0020
0000
0000
0000
0000
0000
0000
0000
0000
0000
0000
0030
0000
0000
0000
0000
0000
0000
0000
0000
0000
0000
0000
0000
0100
0000
0000
0000
0000
0000
0000
0000
0000
0000
0000
0000
,
0010
0001
1001
0001
,
0100
0010
1010
0001
,
0100
0001
0101
0010
,
1000
0010
1010
0100
,
0110
0010
0110
0001
,
0011
0001
0011
0001
,
1000
0001
1000
0010
,
0100
1000
0010
0100
,
0110
0001
0101
0001
,
1001
0010
0110
1000
,
1100
0100
0110
0001
,
0101
0000
2002
0000
0000
3003
1000
0000
,
0001
0100
0010
1000
,
0100
1001
0000
0010
,
0100
0001
0010
1000
,
0100
0001
1001
0010
,
0100
0001
0010
0001
,
1000
0100
0010
2000
,
0000
3002
0000
0013
,
0100
0010
0100
1001
,
0000
0000
0010
0101
,
0000
0000
0010
1010
,
0000
0000
0100
0110
,
0000
0000
0000
0001
,
1000
0010
0000
0100
,
1000
0010
0000
0001
,
0100
0010
0000
0001
,
1000
0000
2002
0000
0000
3003
0010
0000
,
0100
0001
1000
0100
,
1000
0010
0100
0001
,
0010
0001
0000
2002
,
0000
0000
3003
0010
,
0000
0100
0010
1000
,
0000
0001
0000
0100
,
0010
1000
0000
0001
,
0010
0001
0100
0010
,
1000
0100
1000
0010
,
0100
0001
0010
0001
,
1000
0010
0100
0001
,
1000
1001
1001
0000
;

//--------------- dance-single - B. M'Rey ----------------
#NOTES:
     dance-single:
     B. M'Rey:
     Medium:
     5:
     0,0,0,0,0:
0000
0000
0000
0000
,
0000
0000
0000
1000
,
0001
0001
1000
1000
,
0001
0000
0000
0000
0000
0000
0000
0000
0000
0000
0000
0000
0000
0000
0000
0000
0000
0000
0000
0000
0000
0000
0000
0000
0002
0000
0000
0000
0000
0000
0000
0000
0000
0000
0000
0000
0000
0000
0000
0000
0000
0000
0000
0000
0000
0000
0000
0000
0000
0000
0000
0000
0000
0000
0000
0000
0000
0000
0000
0000
0000
0000
0000
0000
0000
0000
0000
0000
0000
0000
0000
0003
0010
0000
0000
0000
0000
0000
0000
0000
0000
0000
0000
0000
0000
0000
0000
0000
0000
0000
0000
0000
0000
0000
0000
0000
,
0000
0100
0000
1000
,
0000
0001
0000
1001
,
1001
1001
0100
0110
,
0010
0101
1000
0010
,
1000
0000
0100
0000
,
0001
0000
1000
0001
,
1000
0001
1000
0001
,
1000
0000
1001
0000
1001
0000
0001
1000
,
0001
0000
1000
0001
1000
0000
0001
0100
,
0001
0000
0010
0100
0010
0000
1001
0000
,
1001
1001
0100
0110
,
0010
0000
0101
0000
0100
0000
0001
0010
,
0001
0000
1000
0100
1000
0000
0010
0100
,
0010
0000
1000
0100
1000
0000
1001
0000
,
0101
0110
1010
1001
,
0110
0000
0101
0000
1010
0000
0001
0001
,
0001
0000
1000
1000
1000
0000
0010
0000
,
0100
0000
0010
0000
0001
0000
1000
1000
,
1000
0000
0100
0100
0100
0000
0010
0000
,
1000
0000
0001
0001
0001
0000
0100
0000
,
0010
0000
1000
1000
1000
0000
0010
0000
,
0100
0000
0001
0001
0001
0000
1000
0000
,
0010
0000
0100
0010
0001
0000
1000
0000
,
0001
0000
1001
0000
1001
0000
0001
1000
,
0001
0000
0001
1000
0001
1000
0001
0000
,
1000
0000
0010
0100
0010
0000
1000
0100
,
1000
0100
0001
0010
0001
0000
0001
0010
,
0100
0000
1001
0000
1001
0000
0001
1000
,
0010
0000
0100
1000
0100
0000
0010
0100
,
0001
0000
0010
1000
0100
0000
0001
1000
,
0001
1000
0001
1000
0001
1000
0010
0000
,
0100
0000
0001
0010
1000
0000
1001
0000
,
0000
1001
0000
0000
0010
0000
0110
0000
,
0000
0110
0000
0000
0001
0000
0101
0000
,
0000
0101
0000
0000
0010
0000
1010
0000
,
0000
1010
0000
0000
1000
0100
1000
0100
,
1000
0100
0001
0000
0010
0000
0001
0010
,
0001
0000
0100
0000
0010
0000
1000
0100
,
0010
0000
0001
0000
0010
0000
0001
0010
,
0100
0000
0001
1000
0001
1000
0100
0000
,
0010
0000
1000
0100
0020
0000
0032
0000
,
0013
0000
0001
0010
0200
0000
2300
0000
,
3010
0000
0100
0010
0001
0000
1001
0000
,
0100
0000
0000
0001
1000
0000
1001
0000
,
0000
0000
0010
0100
0010
0000
0001
0000
,
0010
1000
0100
0010
,
0100
0001
1000
0000
0010
0000
0100
0000
,
1000
0000
0001
0000
0010
0000
1000
0001
,
1000
0000
0010
0000
0100
0000
0010
0100
,
0010
0000
1000
0000
0001
0000
0001
0010
,
0001
0000
1000
0100
1000
0000
0010
0000
,
0100
0000
0001
1000
0001
1000
0000
0000
;

//--------------- dance-single - B. M'Rey ----------------
#NOTES:
     dance-single:
     B. M'Rey:
     Hard:
     8:
     0,0,0,0,0:
0000
0000
0000
0000
,
0000
0000
0000
0110
,
0101
0101
1001
0110
,
0110
0000
0010
1000
0001
0000
0010
1000
,
0000
0000
0100
1000
0000
1000
0100
1000
,
0000
0100
0001
1000
0000
0100
0010
0000
,
1001
0000
0110
0000
0001
0100
0010
0000
,
1010
0000
0110
0000
0001
0100
0010
0000
,
0001
0010
0000
1000
0010
0100
0000
0100
,
0010
1000
0000
1000
0001
0100
1001
0000
,
0011
1001
0110
0110
,
1010
0000
0001
0010
0001
0100
0001
0100
,
0001
0010
0100
0010
0100
1000
0100
0010
,
0001
1000
0100
0010
0100
0010
0001
0000
,
0101
0000
1010
0000
0001
0100
0001
0000
,
0110
0000
1100
0000
0110
0000
0100
0010
,
0100
1000
0100
1000
1010
0000
0001
0010
,
0001
1000
0010
1000
0100
0010
0001
1000
,
0100
0010
0001
0100
0010
1000
0100
0010
,
0001
1000
0100
0010
0001
0000
0100
0000
,
1100
0000
0001
1000
0100
0000
1001
0000
,
0101
0000
0010
1000
0100
1000
0100
0000
,
0110
0000
0020
0000
0031
0000
0001
1000
,
0001
0000
1000
0010
0001
0000
1010
1000
,
0101
0100
0001
0100
0010
1000
0110
0010
,
0110
0100
0001
1000
0001
0010
0110
0010
,
1001
1000
0100
1000
0010
1000
0001
0100
,
0010
1000
0020
0000
0230
0000
0310
1000
,
0001
0000
0100
0000
0010
1000
0100
0001
0000
1000
0000
0010
0001
0000
1000
0000
,
0010
0000
1000
0000
0001
0100
0010
0000
0001
0000
0100
0000
0010
0100
0000
1000
,
0001
0000
0010
0000
0100
0000
0010
0000
0100
0000
0010
0001
0000
0100
0000
1000
,
0001
0100
0011
0010
1100
1000
0100
1000
,
0001
0100
0010
0100
0001
1000
0001
0010
,
0100
0000
0000
0010
0000
0000
0100
0000
0000
1000
0000
0000
0100
0000
0000
0010
0000
0000
0010
0000
0100
0000
0010
0000
,
0100
0000
0010
0000
1000
0000
0001
0000
1000
0000
0010
0000
1000
0000
0000
0100
0000
0000
0100
0000
0000
1000
0000
0000
,
0010
1000
0010
1000
0100
0010
0001
0000
,
0010
0000
1000
0000
0000
0000
0100
0000
0010
0100
0000
0000
0001
0000
0000
0000
,
0010
0000
0100
0000
0000
0000
1000
0000
0001
0100
0000
0000
0001
0000
0000
0000
,
0100
0000
1000
0000
0000
0000
0010
0000
0001
1000
0000
0000
0100
0000
0000
0000
,
0100
0000
0010
0000
0000
0000
0010
0000
0001
0000
1000
0001
1000
0000
0010
0000
,
0001
0000
0010
0000
0001
0000
0000
0010
0000
0000
0000
0200
0000
0000
0310
0000
,
0100
0000
1000
0000
0100
0000
0000
0010
0000
0000
0000
1000
0100
0000
0010
0000
,
0001
0000
1000
0000
0010
0000
0000
0010
0000
0000
1000
0001
0100
0000
0010
0000
,
0001
0010
0110
0110
0110
0110
0010
1000
,
0100
0000
0010
0000
0100
0001
0000
0001
0000
1000
0000
0010
0001
0000
0100
0000
,
0001
0000
0100
0000
0010
0100
0000
0010
0000
0100
0000
0010
0001
0000
0100
0000
,
0010
0000
1000
0100
0010
0000
0100
0000
0010
0000
0100
0000
0001
0000
0100
0000
,
0001
0000
0010
0000
0100
0010
0000
1000
0010
0000
1000
0000
0001
0000
1000
0000
,
0000
0100
0010
0100
0001
0100
0020
0000
,
0130
1000
0001
0010
0100
0010
0001
0100
,
0010
1000
0001
0100
0001
0000
0100
0010
,
0001
0100
0001
0010
0100
1000
0010
1000
,
0001
1000
0100
0010
0100
0010
0001
1000
,
0100
0010
0100
1000
0100
1000
0010
1000
,
0001
0100
0010
1000
0100
1000
0001
0100
,
0001
0100
0101
0101
0101
0101
0000
0000
;
