#VERSION:0.83;
#TITLE:HALLOWEEN (Speedy Mix);
#ARTIST:AQUA;
#GENRE:HAPPY HARDCORE;
#MUSIC:Halloween (Speedy Mix).ogg;
#BANNER:Halloween (Speedy Mix)-bn.png;
#BACKGROUND:Halloween (Speedy Mix)-bg.png;
#CDTITLE:./CDTITLES/DANCEMANIA HALLOWEEN SPEED.PNG;
#SAMPLESTART:40.694;
#SAMPLELENGTH:15;
#OFFSET:-0.019;
#BPMS:0=170,184=85,208=170;

//--------------- dance-single - B. M'Rey ----------------
#NOTEDATA:;
#STEPSTYPE:dance-single;
#DESCRIPTION:B. M'Rey;
#DIFFICULTY:Beginner;
#METER:4;
#RADARVALUES:0,0,0,0,0;
#NOTES:
0000
0000
0000
0000
,
0000
0000
0000
0000
,
0000
0000
0000
0000
,
1001
0000
0000
0000
,
1000
0000
0010
0000
,
0100
0000
0010
0000
,
1000
1000
0000
0000
,
0001
0001
0000
0000
,
0010
0000
0100
0000
,
0010
0000
0001
0000
,
1000
0000
0010
0000
,
0100
0000
0000
0000
,
0010
0000
0001
0000
,
1000
0000
0010
0000
,
0100
0100
0000
0000
,
0001
0000
1001
0000
,
0010
0000
0100
0000
,
1000
0000
0010
0000
,
0001
0001
0000
0000
,
1000
0000
0010
0000
,
1001
0000
0010
0000
,
0101
0000
0010
0000
,
1010
0000
0100
0000
,
0110
0000
0100
0000
,
0001
0001
1000
1000
,
0000
0010
0010
0100
,
0001
0000
0001
0000
,
1000
1000
0010
0010
,
0100
0000
0010
0000
,
1001
0000
0000
0000
,
1000
0000
0010
0000
,
0100
0000
0010
0000
,
0001
0000
1000
0000
,
1001
0000
1001
0000
,
0010
0000
0100
0000
,
0010
0000
1000
0000
,
0001
0000
0010
0000
,
0101
0000
1010
0000
,
0100
0100
0100
0000
,
0001
0000
1000
0000
,
0010
0010
0010
0000
,
1000
0000
0001
0000
,
0100
1000
1000
1000
,
0000
0001
0000
0100
,
0000
0001
0001
0001
,
0000
1000
0000
0010
,
0100
0000
0001
0000
,
0010
0000
0100
0000
,
1000
0000
0010
0000
,
0100
0000
0001
0000
,
1000
0000
0010
0000
,
0100
0000
0001
0000
,
1001
0000
0000
0000
,
1000
0000
0010
0000
,
0100
0000
0010
0000
,
0001
0000
1000
0000
,
1001
0000
1001
0000
,
0010
0000
0100
0000
,
0010
0000
1000
0000
,
0001
0000
0010
0000
,
0101
0000
1010
0000
,
0202
0000
0000
0303
,
0100
0100
0100
0000
,
0001
0000
1000
0000
,
0010
0010
0010
0000
,
1000
0000
0001
0000
,
0100
1000
1000
1000
,
0000
0001
0000
0100
,
0000
0001
0001
0001
,
0000
1000
0000
0010
,
0200
0000
0000
0000
,
0000
0000
0000
0000
,
0000
0000
0000
0300
0000
0000
0000
0000
;

//--------------- dance-single - B. M'Rey ----------------
#NOTEDATA:;
#STEPSTYPE:dance-single;
#DESCRIPTION:B. M'Rey;
#DIFFICULTY:Easy;
#METER:8;
#RADARVALUES:0,0,0,0,0;
#NOTES:
0000
0000
0000
0000
,
0000
0000
0000
0000
,
0000
0000
0000
0000
,
1001
0000
0000
0000
,
0010
0000
0100
0010
0000
0000
1000
0000
,
0001
0000
0010
1000
0000
0000
0100
0000
,
0010
0100
0001
0010
,
1000
0000
0000
0010
0000
0000
0000
0000
,
0100
0000
0010
0100
0000
0000
1000
0000
,
0001
0000
0001
1000
0000
0000
0100
0000
,
0010
0000
0100
0010
0000
1000
0010
0000
,
0001
0000
0000
1000
0000
0000
0000
0000
,
0010
0000
0100
0010
0000
0001
0000
1000
,
0010
0000
0010
0100
0000
0001
0000
0000
,
0010
1000
0100
0010
,
1001
1001
1001
0000
,
0010
0000
0100
0001
0000
0000
0010
0000
,
1000
0000
0010
1000
0000
0100
0000
0001
,
0010
0000
0100
0010
0000
1000
0001
0000
,
0001
0000
0000
0010
0000
0000
0100
0000
,
0001
0000
1000
0010
0100
0000
0010
0000
,
0000
0001
1000
0010
,
0000
0100
0000
0010
0100
0000
0001
0000
,
0000
0010
1000
0100
,
0000
0001
1000
1001
,
0000
0010
0100
0101
,
0010
0010
1000
1000
,
0010
0100
0001
0000
0010
0000
1001
0000
,
0000
0010
0100
0000
,
0001
0000
1000
0000
0010
0001
0100
0001
,
0200
0000
0000
0000
0300
0010
0001
0010
,
0000
0001
1000
0010
0000
0001
0100
0020
,
0000
0000
0030
0000
,
1001
0000
1001
0010
,
0200
0000
0000
0000
0300
1000
0010
1000
,
0000
0001
0100
0010
0000
0001
1000
0020
,
0000
0000
0130
0001
,
1001
0000
0101
0000
,
0010
1000
0100
0010
,
0000
0001
0010
0000
1000
0010
1000
0000
,
0000
0010
0100
0001
,
0010
1000
0100
1000
,
0010
0100
0010
0000
0001
0000
1000
0000
,
0000
0010
0100
0000
0000
0001
1000
0000
,
0000
0010
0100
0001
,
0010
1000
0001
0000
0010
0100
0001
0000
,
0001
1000
0010
0100
,
0010
0000
1000
0000
0001
1000
0001
0000
,
0010
0000
0100
0000
0010
0000
1000
0100
,
1000
0000
0001
0000
0010
0001
0100
0000
,
0010
1000
0001
0100
0010
0001
0010
1000
,
0100
0010
1000
0100
0010
1000
0010
0001
,
1001
0000
0000
0000
0000
0001
0010
0001
,
0020
0000
0000
0000
0030
0100
0001
0100
,
0000
0001
1000
0100
0000
0001
0010
0200
,
0000
0000
0300
0000
,
1001
0000
1001
0100
,
0020
0000
0000
0000
0030
1000
0100
1000
,
0000
0001
0010
0100
0000
0001
1000
0200
,
0000
0000
0310
0001
,
1001
0000
0011
0100
,
0010
0000
0000
1001
,
0100
1000
0010
0100
,
0000
0001
0100
0000
1000
0100
1000
0000
,
0000
0100
0010
0001
,
0100
1000
0010
1000
,
0100
0010
0100
0000
0001
0000
1000
0000
,
0000
0100
0010
0000
0000
0001
1000
0000
,
0000
0100
0010
0001
,
0100
1000
0001
0000
0100
0010
0001
0000
,
2002
0000
0000
0000
,
0000
0000
0000
0000
,
0000
0000
0000
3003
0000
0000
0000
0000
;

//--------------- dance-single - B. M'Rey ----------------
#NOTEDATA:;
#STEPSTYPE:dance-single;
#DESCRIPTION:B. M'Rey;
#DIFFICULTY:Medium;
#METER:11;
#RADARVALUES:0,0,0,0,0;
#NOTES:
0000
0000
0000
0000
,
0000
0000
0000
0000
,
0000
0000
0000
0000
,
0110
0000
0000
0000
,
0001
0000
0010
1000
0000
0010
0100
0010
,
0100
0001
0010
1000
0000
0010
0100
0000
,
1001
0110
0101
0110
,
1010
0000
0001
1000
0010
0100
0001
0000
,
0001
0010
0001
1000
0000
0010
0100
0000
,
0010
1000
0010
0100
0000
0001
0100
0000
,
0010
0000
1000
0100
0000
0010
0100
0000
,
0001
0000
0010
1000
0001
1000
0001
0000
,
0010
0100
0001
0100
0000
0010
1000
0000
,
0010
1000
0010
0100
0000
0001
1000
0000
,
1001
0110
0101
1010
,
1010
0000
0101
0000
1010
0101
0000
0000
,
0010
0100
0001
0100
0000
0010
1000
0000
,
0010
0100
0001
0100
0000
0010
1000
0000
,
0010
0000
0100
0001
0000
0010
1000
0000
,
1001
0000
0010
0100
0001
0000
0010
0000
,
1000
0100
1000
0010
0100
0000
0001
0000
,
0010
0001
0010
0001
0100
0000
0010
0000
,
1000
0100
1000
0010
0100
0000
0001
0000
,
0010
0100
0010
0000
1001
0000
0110
0000
,
0001
0010
0001
0000
1000
0100
1000
0000
,
0010
0100
0010
0000
0001
1000
0010
0000
,
1001
0110
0101
1010
,
0110
0001
1000
0010
0100
0000
1001
0000
,
0010
0100
0001
0100
0010
0000
1000
0000
,
1010
0000
0101
0000
0110
0000
0010
1000
,
0100
0000
0010
0000
0001
0010
0001
0010
,
0000
1000
0100
1000
0000
0010
0100
0010
,
0100
0000
0001
0000
0010
1000
0100
0000
,
1001
0000
1001
0010
,
0100
0000
0010
0000
0001
1000
0010
1000
,
0000
0010
0100
0001
0000
0010
0100
1000
,
0010
0000
0100
0000
0001
0010
0001
0000
,
1001
0010
0101
0010
,
0001
0010
0001
0010
0001
0000
1000
0000
,
0010
0100
0010
0100
0001
1000
0010
0000
,
0100
0000
0010
1000
0010
0000
0100
0000
,
0001
1000
0001
1000
0001
1000
0001
1000
,
0001
0000
0010
0000
0100
0001
0100
0000
,
0010
1000
0010
0100
0010
0100
0001
0000
,
0010
0000
1000
0010
1000
0000
0001
0000
,
0010
0000
1000
0000
0100
0010
1000
0000
,
0001
0000
0000
0000
1000
0000
0000
0010
0100
0000
0001
0000
0010
0000
0001
0010
,
0001
0000
0100
1000
0000
0000
0100
0010
0000
0000
0001
0000
1000
0000
0000
0000
,
0000
0010
0100
0000
0010
0000
0000
0001
1000
0000
0010
0000
0000
0000
0010
0000
,
0100
0000
0000
0000
0001
0010
0001
0000
0000
0000
1000
0000
0010
0000
0000
0000
,
0010
0000
0100
0010
0100
0001
0100
0000
0010
1000
0010
0100
0001
0000
1000
0000
,
0010
1000
0010
0100
0001
0000
0100
0000
0001
0010
0001
0000
0100
0000
0010
0000
,
1001
0000
0010
0100
0000
0001
1000
0010
,
0100
0000
0001
0000
0010
1000
0001
0100
,
0000
0010
0100
0001
0000
0010
1000
0100
,
0010
0000
1000
0000
0010
0100
0001
0000
,
1001
0000
0110
0000
,
0001
0000
1000
0000
0010
0100
0010
0100
,
0000
0001
0010
0001
0000
1000
0100
1000
,
0010
0000
0100
0000
0010
0001
0000
0000
,
1001
0010
0101
0010
,
1001
0000
0000
0110
,
0001
0010
0001
0010
0001
0000
1000
0000
,
0010
0100
0010
0100
0001
1000
0010
0000
,
0100
0000
0010
1000
0010
0000
0100
0000
,
0001
1000
0001
1000
0001
1000
0001
1000
,
0001
0000
0010
0000
0100
0001
0100
0000
,
0010
1000
0010
0100
0010
0100
0001
0000
,
0010
0000
1000
0010
1000
0000
0001
0000
,
0010
0000
1000
0000
0100
0010
1000
0000
,
2002
0000
0000
0000
,
0000
0000
0000
0000
,
0000
0000
0000
3003
0000
0000
0000
0000
;

//--------------- dance-single - B. M'Rey ----------------
#NOTEDATA:;
#STEPSTYPE:dance-single;
#DESCRIPTION:B. M'Rey;
#DIFFICULTY:Hard;
#METER:15;
#RADARVALUES:0,0,0,0,0;
#NOTES:
0000
0000
0000
0000
,
0000
0000
0000
0000
,
0000
0000
0000
0000
,
1001
0000
0000
0000
,
0100
0010
0001
0010
0001
1000
0001
0100
,
0010
0100
0001
0100
0001
0010
0001
1000
,
0110
1100
0110
1100
,
0101
0000
0000
0000
0001
0000
1000
0000
0100
1000
0100
1000
0100
0000
0010
0000
,
0100
1000
0001
0100
0001
0100
0001
0010
,
0001
1000
0001
1000
0001
1000
0010
0100
,
0001
1000
0001
1000
0001
0100
0010
0100
,
0001
0000
1000
0000
0100
0000
0010
0000
0100
0010
0100
0010
1000
0000
0100
0000
,
0001
1000
0100
1000
0001
1000
0010
0100
,
0001
0100
0010
1000
0100
1000
0100
0010
,
0011
0110
0110
1100
,
1100
0000
0110
0000
0010
0100
0000
0100
,
0010
1000
0010
1000
0001
0100
0001
0100
,
0010
0100
0010
0100
0010
0100
0001
1000
,
0001
0100
0001
1000
0001
0010
0100
0010
,
0001
0000
0100
0000
0010
0000
0100
0000
0010
1000
0010
1000
0100
0000
1000
0000
,
0010
0100
0010
0100
0001
0000
0010
0000
0100
0001
1000
0001
1000
0000
1000
0000
,
0001
1000
0010
1000
0010
1000
0100
1000
,
0010
0100
0010
0100
0001
0000
1000
0000
0100
1000
0100
1000
0100
0000
1000
0000
,
0001
0100
0001
0010
0100
0010
0001
1000
,
0010
0000
1000
0000
0100
0010
0000
0000
0001
0000
0010
0000
0001
1000
0000
0000
,
0001
1000
0001
0100
0001
1000
0001
1000
,
0001
1000
0001
1000
0001
1000
0001
1000
0001
0100
0001
0100
0010
0100
0010
0100
,
0010
1000
0100
1000
0100
0010
0001
0010
,
0100
1000
0100
1000
0001
0010
0100
1000
,
1100
0000
0000
0101
0000
0000
0110
0000
1010
0000
0000
0000
0000
0000
0000
0000
,
0001
0000
0100
0000
0001
0000
1000
0000
0001
0000
1000
0000
0010
0000
1000
0001
,
0100
0000
0010
0000
0100
0000
0010
1000
0001
0000
1000
0000
0010
0000
1000
0100
,
0010
1000
0010
1000
0001
0010
0100
1000
,
0001
0010
0000
1000
0001
0000
1000
0000
0010
1000
0000
1000
0001
0000
0100
0000
,
0010
0000
0100
0000
0010
0000
1000
0000
0010
0000
0100
0000
0001
0000
0100
0001
,
0010
0000
1000
0000
0100
0000
1000
0100
0010
0000
1000
0000
0100
0000
1000
0001
,
0100
0010
0001
0100
0010
0100
0001
0100
,
0010
1000
0000
1000
0100
0000
1000
0000
0010
0100
0000
0100
0010
0000
0100
0000
,
0010
1000
0010
1000
0001
0010
0001
0010
,
0100
0010
0001
0010
0100
0010
0001
0100
,
0010
0100
0010
0100
0001
0010
0100
0010
,
0001
0100
0001
1000
0001
1000
0001
0100
,
0001
0010
0001
0010
0100
0010
0100
1000
,
0010
0100
0010
0100
0001
0100
0001
1000
,
0001
0100
0001
0010
0100
0010
0001
1000
,
0010
1000
0001
1000
0010
1000
0100
0010
,
0001
0000
1000
0000
0010
0000
0100
0010
0100
0000
0001
0000
0100
0000
0010
0100
,
0010
0000
1000
0000
0100
0000
1000
0100
1000
0000
0001
0000
0100
0000
0001
0100
,
0001
0000
0010
0000
0100
0000
0010
0100
0010
0000
0001
0000
0010
0000
0001
0010
,
0001
0000
1000
0000
0100
0010
0100
0000
0010
0000
1000
0000
0100
0000
0010
0000
,
0001
0010
0001
0000
1000
0100
1000
0000
0010
0100
0010
0000
0001
0010
0001
0000
,
1000
0001
1000
0010
0100
0001
0100
0010
1000
0001
0100
0010
1000
0001
0100
0000
,
1001
0000
0010
0100
0000
0001
0010
1000
,
0001
0000
0100
0000
0001
0000
1000
0000
0001
0000
1000
0000
0010
0000
1000
0001
,
0100
0000
0010
0000
0100
0000
0010
1000
0001
0000
1000
0000
0010
0000
1000
0100
,
0010
1000
0010
1000
0001
0010
0100
1000
,
0001
0010
0000
1000
0001
0000
1000
0000
0010
1000
0000
1000
0001
0000
0100
0000
,
0010
0000
0100
0000
0010
0000
1000
0000
0010
0000
0100
0000
0001
0000
0100
0001
,
0010
0000
1000
0000
0100
0000
1000
0100
0010
0000
1000
0000
0100
0000
1000
0001
,
0100
0010
0001
0100
0010
0100
0001
0100
,
0010
1000
0000
1000
0100
0000
1000
0000
0010
0100
0000
0100
0010
0000
0100
0000
,
0010
0001
1000
0110
,
0010
0100
0010
0100
0010
1000
0100
1000
,
0001
0010
0100
1000
0001
0010
0100
0010
,
0001
1000
0001
0100
0001
0100
0010
0100
,
0010
0100
0001
1000
0010
0100
0001
1000
,
0010
1000
0001
0010
0100
1000
0100
0010
,
0100
0010
0001
0010
0001
1000
0100
0010
,
0001
0100
0001
0010
0001
0010
0100
1000
,
0010
0100
0001
1000
0001
0100
0001
0100
,
0202
0000
0000
0000
,
0000
0000
0000
0000
,
0000
0000
0000
0303
0000
0000
0000
0000
;
