#VERSION:0.83;
#TITLE:Frozen Ray (Cytex Edit);
#ARTIST:dj TAKA;
#GENRE:PROGRESSIVE TRANCE;
#MUSIC:Frozen Ray (Cytex Edit).ogg;
#BANNER:Frozen Ray (Cytex Edit)-bn.png;
#BACKGROUND:Frozen Ray (Cytex Edit)-BG.png;
#CDTITLE:./CDTITLES/DANCE DANCE REVOLUTION EXTREME 3.PNG;
#SAMPLESTART:43.117;
#SAMPLELENGTH:15;
#OFFSET:-0.040;
#BPMS:0=156;

//--------------- dance-single - B. M'Rey ----------------
#NOTEDATA:;
#STEPSTYPE:dance-single;
#DESCRIPTION:B. M'Rey;
#CREDIT:B. M'Rey;
#DIFFICULTY:Beginner;
#METER:3;
#RADARVALUES:0,0,0,0,0;
#NOTES:
0000
0000
0000
0000
,
0000
0000
0000
0000
,
0000
0000
0000
0000
,
0000
0000
0000
0000
,
0000
1000
0000
0000
,
0001
0010
0000
0000
,
0100
0010
0000
1000
,
0000
0001
0000
0100
,
0000
0010
0000
1000
,
0000
0100
0000
1000
,
0000
0010
0000
0100
,
0000
0001
0001
1000
,
1000
0010
0000
0100
,
0010
0000
1000
0001
,
0010
0000
0100
0000
,
0010
0000
1000
0000
,
0001
0010
1000
0000
,
0100
0010
0001
0000
,
1000
0000
0010
0000
,
0100
0000
0010
0000
,
0001
0010
0100
0000
,
1000
0100
0010
0000
,
0001
0000
1000
0000
,
0010
0000
0100
0000
,
0010
0000
1000
0000
,
0100
0000
1000
0000
,
0001
0000
0010
0000
,
0001
0000
1000
0000
,
0010
0010
0010
0000
,
0100
0100
0100
0000
,
0001
0001
0001
0000
,
1000
1000
1000
0000
,
0010
0010
0010
0000
,
0100
0100
0100
0000
,
0001
0000
1000
0000
,
0010
0000
0100
0000
,
0010
0000
1000
0000
,
0001
0000
0010
0000
,
0001
0000
0100
0000
,
0010
0000
1000
0000
,
0001
0000
1000
0000
,
0010
0000
0100
0000
,
1000
0000
0010
0000
,
0100
0000
1000
0000
,
0001
1000
0001
0000
,
0010
0100
0010
0000
,
1000
0000
0001
0000
,
0010
0000
0100
0000
,
0010
0000
0000
0000
,
1000
0000
0000
0000
,
0100
0000
0000
0000
,
0001
0000
0000
0000
,
0010
0000
0000
0000
,
0000
0100
0000
0000
0000
0000
0000
0000
,
0001
0000
0000
0000
,
1000
0000
0000
0000
,
0100
0000
1000
0000
,
0010
0000
0100
0000
,
0001
0000
0010
0000
,
0001
0000
1000
0000
,
0010
0000
0100
0000
,
0010
0000
1000
0000
,
0001
0000
0010
0000
,
0001
0000
1000
0000
,
0010
0000
0000
0000
,
0100
0000
0000
0000
,
1000
0000
0000
0000
,
0001
0000
0000
0000
,
0100
0000
0000
0000
,
0010
0000
0000
0000
,
1000
0000
0000
0000
,
0001
0000
0000
0000
,
1000
0020
0000
0000
,
0000
0000
0030
0000
;

//--------------- dance-single - B. M'Rey ----------------
#NOTEDATA:;
#STEPSTYPE:dance-single;
#DESCRIPTION:B. M'Rey;
#CREDIT:B. M'Rey;
#DIFFICULTY:Easy;
#METER:6;
#RADARVALUES:0,0,0,0,0;
#NOTES:
0000
0000
0000
0000
,
0000
0000
0000
0000
,
0000
0000
0000
0000
,
0000
0000
0000
0000
,
0001
0000
1000
0000
,
0010
0000
0100
0000
,
0010
0000
1000
0000
,
0010
0000
0100
0000
,
0001
0001
0000
0000
,
1000
1000
0000
0000
,
0010
0100
0000
0000
,
0010
1000
0000
0000
,
0010
0100
0000
0001
,
0010
0100
0000
1000
,
0010
0000
0100
0000
,
1001
0000
0000
0000
,
0100
0010
0001
0100
,
0001
1000
0001
0010
,
0100
0010
0001
0010
,
0001
1000
0001
0100
,
0010
1000
0010
1000
,
0100
0010
0001
0100
,
0010
1000
0010
0100
,
0001
0100
0001
0010
,
0100
1000
0001
0100
,
0001
0100
0010
0100
,
0001
0010
0100
1000
,
0010
1000
0001
0100
,
0010
1000
0001
1000
,
0001
1000
0100
0010
,
0001
0010
0100
1000
,
0001
0100
0010
0100
,
0001
0000
1000
0000
,
0010
0000
0100
0000
,
0001
0000
0010
0000
,
0001
0000
0100
0000
,
0010
0000
1000
0000
,
0100
0000
1000
0000
,
0010
0000
0100
0000
,
0001
0000
0010
0000
,
0001
0100
0010
1000
,
0010
0100
0001
0010
,
0100
0010
0001
0100
,
0001
1000
0010
0100
,
0010
0100
0001
0010
,
0100
0010
0100
1000
,
0001
0100
0010
0100
,
0010
0100
0001
0010
,
2000
0000
3200
0000
,
0310
0001
0010
1000
,
0200
0000
0000
0320
,
0000
0230
0000
0302
,
0000
0000
2003
0000
0000
3020
0000
0000
,
0130
0000
0002
0000
0000
2003
0000
0000
,
3100
0002
0000
0203
,
0000
0302
0000
1003
,
0010
0000
1000
0000
,
0010
0000
0100
0000
,
0001
0000
0010
0000
,
0001
0000
0100
0000
,
0010
0010
0000
0000
,
1000
1000
0000
0000
,
0001
0001
0000
0100
,
0010
0000
1000
0000
,
0001
0100
0001
1000
,
0100
1000
0010
0100
,
0001
1000
0010
1000
,
0100
1000
0100
0010
,
0100
0010
0001
1000
,
0010
1000
0001
1000
,
0100
0010
0001
0010
,
0001
0010
0100
1000
,
0100
2000
0000
0000
,
0000
0000
0000
0000
,
3000
0000
0000
0000
;

//--------------- dance-single - B. M'Rey ----------------
#NOTEDATA:;
#STEPSTYPE:dance-single;
#DESCRIPTION:B. M'Rey;
#CREDIT:B. M'Rey;
#DIFFICULTY:Medium;
#METER:9;
#RADARVALUES:0,0,0,0,0;
#NOTES:
0000
0000
0000
0000
,
0000
0000
0000
0000
,
0000
0000
0000
0000
,
0000
0000
0000
0000
,
0000
0010
0100
0001
,
0010
0100
1000
0010
,
0100
0001
0100
0010
,
1000
0100
1000
0001
,
1000
0100
0010
0001
,
0100
0001
0010
0100
,
1000
0100
0010
0100
,
1000
0001
0100
0010
,
0100
0010
0100
0001
,
1000
0100
1000
0010
,
1000
0100
0010
0100
,
1000
0000
0001
0000
,
1000
0000
0010
0000
0100
0000
0010
1000
,
0000
0100
0010
0000
1000
0000
0100
0000
,
1000
0010
0001
1000
0000
0010
0001
0000
,
0100
0010
0000
1000
0100
0000
0001
0000
,
0010
0001
0010
0000
1000
0000
0010
0100
,
1000
0001
0000
0100
0000
0010
0001
0000
,
0100
0000
0010
0100
1000
0000
0100
0001
,
1000
0000
0010
1000
0100
0000
0010
0001
,
1000
0000
0001
0010
0000
1000
0100
0100
,
1000
1000
0010
0010
0100
0100
0010
0010
,
1000
1000
0100
0000
1000
0000
0010
0100
,
0010
0100
0001
0000
1000
1000
0010
0010
,
0100
0000
0010
0010
1000
1000
0100
0100
,
0010
0010
0100
0100
1000
1000
0010
0010
,
0100
0000
0010
0000
0100
0100
0001
0000
,
0010
0010
0001
0000
0100
0100
0010
0000
,
0100
0100
0010
0000
1000
0000
0100
0001
,
1000
0000
0010
0000
0100
0000
0010
0100
,
1000
0000
0001
0000
0010
0000
0001
1000
,
0100
0000
0001
0000
0010
0000
0100
0001
,
1000
0000
0001
0000
0010
0000
0100
1000
,
0010
0000
0001
0000
0100
0000
0001
1000
,
0010
0000
0100
0000
1000
0000
0010
0001
,
0100
0000
0010
0000
1000
0000
0100
1000
,
0010
0000
0001
1000
0100
0000
0001
0010
,
1000
0000
0010
1000
0100
0000
0001
0010
,
0100
0000
0010
0100
1000
0000
0100
0001
,
0010
0000
0100
0010
1000
0000
0100
0001
,
1000
0000
0001
1000
0100
0000
0010
0100
,
1000
0000
0010
1000
0100
0000
0001
0100
,
0010
0000
0100
0001
0010
0000
0100
0000
,
1000
0010
0100
0010
,
1000
0100
0002
0000
0000
2003
0000
3100
,
0020
0032
0203
0320
,
1030
0100
0020
0000
0000
0000
0032
0000
,
0000
0203
0000
2300
,
0000
0000
3020
0000
0000
0230
0000
1300
,
0002
0000
0203
0000
0000
0320
0000
1030
,
0002
0203
0320
2030
,
0000
3002
0000
0000
,
0103
0010
0100
0010
,
0100
0001
0010
0001
,
1000
0100
1000
0001
,
0100
0010
1000
0001
,
0100
0010
0100
0010
,
1000
0001
0010
0001
,
0100
0001
0010
0100
,
0010
0100
1000
0010
,
0100
0000
0010
0000
1000
0001
0100
0000
,
0010
0000
0001
0100
1000
0000
0010
0000
,
1000
0001
0100
0000
0010
0000
0001
1000
,
0010
0000
0001
0000
0100
0001
0010
0000
,
1000
0000
0100
1000
0010
0000
0001
0010
,
0100
0000
0001
1000
0010
0000
0100
0001
,
1000
0000
0010
0000
1000
0010
0001
0000
,
0010
0000
0100
0000
1000
0001
0100
0000
,
0010
0100
1000
0010
,
0200
0000
0000
0000
,
0300
0000
0000
0000
;

//--------------- dance-single - B. M'Rey ----------------
#NOTEDATA:;
#STEPSTYPE:dance-single;
#DESCRIPTION:B. M'Rey;
#CREDIT:B. M'Rey;
#DIFFICULTY:Hard;
#METER:13;
#RADARVALUES:0,0,0,0,0;
#NOTES:
0000
0000
0000
0000
,
0000
0000
0000
0000
,
0000
0000
0000
0000
,
0000
0000
0000
0000
,
0000
1000
0001
0010
,
0001
0100
0010
1000
,
0100
1000
0001
0010
,
0001
0100
0010
1000
,
0100
0100
0010
0000
0001
0000
0010
0000
,
0001
0001
0010
0000
1000
0000
0100
0000
,
1000
1000
0100
0000
0001
0000
0010
0000
,
0010
0100
0010
0000
0001
0000
1000
0001
,
1000
0000
0010
0100
0010
0000
0001
0010
,
0001
0000
1000
0100
1000
0000
0010
0100
,
0010
0000
0001
0010
0001
0000
1000
0100
,
1000
0010
0100
0010
,
0001
1000
0010
1000
0100
1000
0001
0010
,
0001
0010
0001
1000
0100
1000
0001
0100
,
0010
1000
0100
0010
0001
1000
0100
1000
,
0100
0010
0100
0010
0001
0100
0010
1000
,
0100
0000
0100
0010
0100
0010
0001
0010
,
0001
0000
0001
0100
0010
1000
0100
0010
,
0100
0000
0100
1000
0001
1000
0001
0010
,
0100
0000
0010
0100
0010
1000
0100
0010
,
0001
0100
0001
0010
0001
1000
0100
0010
,
0001
0100
0010
1000
0001
0010
0100
0010
,
0001
0010
0001
1000
0001
1000
0010
1000
,
0010
0100
0001
1000
0010
0100
0001
1000
,
0010
0100
0001
0010
0001
0010
0001
1000
,
0010
1000
0010
0100
0010
0100
0001
1000
,
0100
1000
0010
1000
0010
0100
0010
1000
,
0001
0100
0010
1000
0001
1000
0001
0010
,
0001
0100
1000
0000
0010
0000
1000
0000
0001
0010
1000
0000
0100
0000
0010
0000
,
0100
0001
1000
0000
0100
0000
1000
0000
0001
0010
1000
0000
0010
0000
0100
0000
,
0001
0010
1000
0000
0001
0000
0010
0000
0001
1000
0100
0000
0010
0000
0100
0000
,
0001
0100
0010
0000
0100
0000
1000
0000
0001
0010
0100
0000
0010
0000
0100
1000
,
0010
0000
0100
0000
0001
1000
0010
0000
0100
0001
0010
0000
0100
0000
0010
0000
,
0001
0000
1000
0000
0100
0010
1000
0000
0001
0010
0100
0000
0001
0000
0010
0000
,
0100
0000
1000
0000
0010
0000
0100
0000
0010
1000
0100
0000
0001
0000
1000
0000
,
0010
0001
1000
0000
0001
0000
1000
0000
0010
0000
0100
0000
0010
0000
1000
0000
,
0010
1000
0100
0010
0100
0010
0100
1000
,
0010
1000
0001
0010
0001
0010
0100
1000
,
0001
0100
0010
0100
0010
0100
0001
1000
,
0001
1000
0010
1000
0100
0010
0100
1000
,
0100
1000
0010
0000
0001
0000
0010
0000
0001
0010
0100
0000
0001
0000
1000
0000
,
0100
1000
0010
0000
0001
0000
0010
0000
0001
0010
0100
0000
0010
0000
0100
0000
,
0010
1000
0100
0000
0001
0000
1000
0000
0010
0001
0100
0000
0010
0000
1000
0001
,
0100
0000
0010
0000
0001
0000
0100
1000
0001
0000
0100
0000
0010
0000
0100
0000
,
0001
0010
2000
0000
0000
3002
0000
0023
,
0230
2300
3020
0230
,
0302
0023
0230
0000
0000
0000
2300
0000
,
0000
3020
0000
0032
,
0000
0000
0203
0000
0000
0320
0000
0032
,
2000
0003
3020
0000
0230
0320
0000
0032
,
2003
3020
0230
0302
,
0000
2003
3020
0000
,
0031
0010
0100
0010
0001
0010
0001
0100
,
0001
0100
0010
1000
0010
0100
0001
0100
,
0010
1000
0010
0100
0001
0010
0100
0010
,
0001
0010
0100
1000
0100
0010
0001
0010
,
0001
1000
0001
0100
0010
1000
0100
1000
,
0100
0010
0001
0100
0001
1000
0100
0001
,
0010
1000
0100
0000
0100
1000
0010
0000
0001
0010
0001
0000
0001
1000
0100
0000
,
0100
0010
0001
0000
0010
1000
0100
0000
0010
0100
0001
0000
0010
1000
0100
0000
,
0001
0000
1000
0000
0010
0000
0100
0010
0000
0001
0010
0000
0100
0000
1000
0000
,
0100
0000
0001
0000
0010
0000
0100
1000
0000
0010
0000
0001
0100
0000
0010
0000
,
0001
1000
0001
0000
0100
0000
0100
0010
0000
1000
0100
0000
0010
0000
0001
0100
,
0000
0100
0000
0100
0010
0000
0100
0010
0000
0010
0000
1000
0010
0000
0100
0000
,
1000
0000
0100
0000
0001
0000
0001
0100
0000
0010
0000
0100
0010
0000
0100
0000
,
0001
0000
0010
0000
0001
0000
0100
0010
0000
0100
0000
1000
0010
0000
0100
0000
,
0010
0000
0001
0000
0100
0000
0010
1000
0000
0010
0000
0001
0100
0000
0010
0100
,
0000
0100
0010
0100
0010
1000
0100
0010
,
0001
0000
0001
0100
0010
1000
0100
0010
,
0002
0000
0000
0000
,
0003
0000
0000
0000
;
