#TITLE:Fly Away -mix del matador-;
#SUBTITLE:(naotyu- Remix);
#ARTIST:ChiyoTia remixed by naotyu;
#GENRE:HOUSE;
#MUSIC:Fly Away -mix del matador- (naotyu- Remix).ogg;
#BANNER:Fly Away -mix del matador- (naotyu- Remix)-bn.png;
#BACKGROUND:Fly Away -mix del matador- (naotyu- Remix)-BG.png;
#CDTITLE:./CDTITLES/DANCE DANCE REVOLUTION HOME VERSION.PNG;
#SAMPLESTART:45.005;
#SAMPLELENGTH:11.680;
#OFFSET:-0.031;
#BPMS:0.000=128.000;

//--------------- dance-single - B. M'Rey ----------------
#NOTES:
     dance-single:
     B. M'Rey:
     Beginner:
     2:
     0,0,0,0,0:
0000
0000
0000
0000
,
0000
0000
0000
0000
,
0000
0000
0000
0000
,
0000
0000
0000
0000
,
1000
0000
0000
0000
,
0010
0000
0000
0000
,
0100
0000
0000
0000
,
0010
0000
0000
0000
,
0001
0000
0001
0000
,
0100
0000
0100
0000
,
0010
0000
0010
0000
,
1000
0000
1000
0000
,
0010
0000
0100
0000
,
0010
0000
0001
0000
,
1000
0000
0010
0000
,
0100
0000
0000
0000
,
0010
0000
0001
0000
,
0010
0000
0100
0000
,
1000
0000
0010
0000
,
0100
0000
0010
0000
,
1001
0000
0000
0000
,
0010
0000
0000
0000
,
0100
0000
0000
0000
,
0002
0000
0003
0000
,
1000
0000
0010
0000
,
0100
0000
0010
0000
,
0001
0000
1000
0000
,
0010
0010
0100
0100
,
0010
0000
1000
0000
,
0001
0000
0010
0000
,
0100
0000
1000
0000
,
0001
0001
1000
1000
,
0010
0000
0100
0000
,
0010
0000
1000
0000
,
0001
0000
0100
0000
,
0001
0001
1000
1000
,
0010
0000
0100
0000
,
0010
0000
1000
0000
,
0010
0010
0100
0100
,
0001
0000
0010
0000
,
1000
0000
0001
0000
,
0010
0000
0100
0000
,
1000
0000
0000
0000
,
0001
0000
0000
0000
,
0100
0000
0010
0000
,
1000
0000
0100
0000
,
0001
0000
0000
0000
,
0100
0000
0000
0000
,
0010
0000
1000
0000
,
0100
0000
1000
0000
,
0010
0000
0100
0000
,
0001
0000
0010
0000
,
1001
0000
0010
0000
,
0100
0000
0010
0000
,
1000
0000
0100
0000
,
0010
0000
0001
0000
,
1001
0000
0000
0000
;

//--------------- dance-single - B. M'Rey ----------------
#NOTES:
     dance-single:
     B. M'Rey:
     Easy:
     3:
     0,0,0,0,0:
0000
0000
0000
0000
,
0000
0000
0000
0000
,
0000
0000
0000
0000
,
0000
0000
0000
0000
,
1000
0010
0000
0100
,
0001
0010
0000
0000
,
0100
0000
0100
0000
,
0010
0010
1000
1000
,
0001
0010
0001
0000
,
0100
0010
1000
0100
,
1000
0000
0010
0000
,
0100
0000
0001
0000
,
0010
0001
0010
0000
,
0100
1000
0100
0000
,
0010
0000
0100
0000
,
0010
0000
0000
0000
,
1000
0000
0001
0000
,
0010
0000
0100
0000
,
0010
0000
1000
0000
,
0001
0010
0001
0000
,
0110
0000
0011
0000
,
1100
0000
0110
0000
,
0001
0001
1000
1000
,
2002
0000
3003
0000
,
1000
1000
0001
0001
,
0100
0100
0010
0010
,
1000
0000
0010
0000
,
0101
0000
0101
0000
,
0010
0010
1000
1000
,
0100
0100
0001
0001
,
0010
0000
0100
0000
,
1010
0000
0101
0000
,
0010
0010
0100
0100
,
1000
1000
0001
0001
,
0100
0000
0010
0000
,
1000
0000
0001
0000
,
0100
0100
0010
0010
,
1000
1000
0001
0001
,
0100
0000
0010
0000
,
1000
0000
0001
0000
,
0100
0001
0010
0000
,
1000
0010
0100
0000
,
1001
0000
1001
0000
,
0110
0000
0011
0000
,
1000
0001
0100
0000
,
0010
1000
0100
0000
,
0011
0000
0110
0000
,
1010
0000
0110
0000
,
1000
0100
1000
0100
,
0000
0001
0010
0001
,
0000
0100
0010
0100
,
0000
1000
0010
1000
,
0000
0100
0010
0100
,
0000
0001
0010
0001
,
0000
0100
0010
0100
,
0000
1000
0010
1000
,
0000
1001
0000
0000
;

//--------------- dance-single - B. M'Rey ----------------
#NOTES:
     dance-single:
     B. M'Rey:
     Medium:
     5:
     0,0,0,0,0:
0000
0000
0000
0000
,
0000
0000
0000
0000
,
0000
0000
0000
0000
,
0000
0000
0000
0000
,
1000
0000
0001
1000
0000
0000
0010
0100
,
0000
0000
0001
0010
0000
1000
0000
0010
,
0000
0100
0000
0010
0000
1000
0000
0000
,
0010
0100
0010
0100
,
1001
0100
0010
0001
,
1000
0001
0100
0010
,
1000
0001
1000
0100
,
1000
0100
0010
0001
,
0010
0001
0100
0010
,
1000
0001
0100
0001
,
0100
0010
0100
0001
,
0010
0000
0000
0100
,
2000
0000
0001
0000
0001
0000
3001
0100
,
0010
0001
0010
0100
,
1000
0100
1000
0100
,
0010
0001
1000
0010
,
1001
0001
0110
0010
,
1010
0010
0101
0010
,
1100
0110
1001
0110
,
0220
0000
0330
0000
,
0010
0000
0100
0010
0000
0010
0100
0010
,
0000
0010
0001
0000
1010
0000
0100
0000
,
0010
0100
0010
0001
,
1000
0001
1000
0000
0100
0001
0000
0000
,
0010
0000
0100
1000
0100
0000
0001
0100
,
0000
0100
0010
0000
0101
0000
0001
0000
,
1000
0000
0001
0000
0100
0010
0001
0000
,
0110
0000
0110
0000
,
1000
0000
0100
0010
0100
0000
0001
1000
,
0000
1000
0100
0000
1010
0000
0010
0000
,
0100
0010
1000
0010
,
1000
0100
0000
0000
1000
0001
0000
0000
,
0100
0000
0010
0100
0010
0000
0001
0010
,
0000
0010
0100
0000
0011
0000
0001
0000
,
0010
0001
0100
0010
,
0101
0000
0011
0000
,
0010
0001
1000
0100
,
0010
0100
1000
0100
,
1000
0001
1000
0000
0010
0000
0001
0010
,
0001
0001
1000
0100
,
0110
0100
0010
0001
,
1000
0010
0100
0010
,
0100
0010
0100
0000
1000
0000
0001
0000
,
0010
0000
0001
1000
0001
0000
0010
0000
,
0110
0010
1000
0001
,
0010
0100
0010
0100
,
1000
0001
0100
0001
,
1000
0000
0001
0000
1000
0000
0100
0100
,
0110
0001
0100
0010
,
1000
0100
0010
0001
,
0010
0001
1000
0100
,
1000
0000
0010
0000
1000
0000
0001
0001
,
0010
1001
0000
0000
;

//--------------- dance-single - B. M'Rey ----------------
#NOTES:
     dance-single:
     B. M'Rey:
     Hard:
     8:
     0,0,0,0,0:
0000
0000
0000
0000
,
0000
0000
0000
0000
,
0000
0000
0000
0000
,
0000
0000
0000
0000
,
0100
0010
0001
0010
0000
0100
0010
1000
,
0000
1000
0010
0100
0000
0100
0000
0100
,
0010
1000
0000
1000
0000
1000
0100
0010
,
1000
0000
0001
0000
1000
0000
0001
0010
,
0100
0000
0001
0010
0001
0000
0001
1000
,
0010
1000
0001
0000
0100
0010
0100
0010
,
0002
0000
1003
0100
0001
0000
0100
1000
,
0000
1000
0001
0000
0100
0010
0001
0000
,
0001
1000
0001
0100
0010
0000
0010
1000
,
0001
0100
0001
0000
0001
1000
0010
1000
,
0002
0000
0103
0010
0100
0000
0010
1000
,
0000
0000
0010
0000
0001
0000
0100
0000
0010
0000
0100
0010
0100
0000
1000
0000
,
0020
0000
0001
0000
0100
0000
0031
0010
,
0000
1000
0001
0010
0100
0010
0001
0010
,
0100
1000
0001
0000
0001
0010
0001
0100
,
0010
1000
0010
0000
0100
1000
0100
0010
,
1100
0000
0010
0100
1001
0000
0001
1000
,
0110
0000
0010
0100
0011
0000
0001
0100
,
0001
0000
0100
0000
0010
0000
0100
0000
0010
0100
0010
0000
0001
0000
1000
0000
,
0100
0010
0100
0000
0001
0010
0001
0000
0101
0000
0000
0000
0000
0000
0000
0000
,
0100
0000
1000
0000
0001
0010
0000
0010
0001
0000
1000
0000
0001
0000
0100
0000
,
0010
0000
0100
0000
0001
0010
0000
0010
0100
0000
1000
0000
0001
0000
0010
0000
,
0001
0000
0010
0100
0010
1000
0001
0000
,
0001
0000
0010
0001
0000
0100
0010
0000
0100
0010
0000
0010
0100
0000
1000
0000
,
0100
0000
0010
0000
0001
0100
0000
0100
0010
0000
0100
0000
0010
0000
0100
0000
,
0001
0000
1000
0000
0100
0010
0000
0010
0001
0000
0010
0000
0100
0000
0010
0000
,
0001
0000
0001
0100
0010
0100
0010
0000
,
0001
1010
1010
0000
1010
1010
0000
0000
,
0020
0000
0000
0000
0130
1000
0000
0010
0001
0000
0100
0000
0001
0000
0010
0000
,
0001
0000
1000
0000
0010
1000
0000
1000
0010
0000
1000
0000
0100
0000
0010
0000
,
0001
0000
0001
0100
0010
1000
0100
0000
,
0001
0000
0100
0000
0010
0001
0000
0010
0001
0000
0010
0001
0000
0100
0010
0000
,
0010
0000
0100
0000
0001
0100
0000
0100
0001
0000
0010
0000
0001
0000
0010
0000
,
0100
0000
0010
0000
0100
1000
0000
1000
0001
0000
0010
0000
0100
0000
1000
0000
,
0100
0000
0100
1000
0001
0100
0001
0000
,
0001
0000
0010
0000
0220
0330
0000
0000
0100
0000
0220
0330
0000
0000
1000
0000
,
0001
0000
0100
0001
0000
0001
0100
0000
0010
0000
0100
0000
0001
0000
0010
0000
,
0100
0000
0010
0100
0000
0100
1000
0000
0100
0000
0010
0000
0011
0000
0000
0000
,
0100
0000
0100
0020
0000
0130
0001
0020
,
0000
0130
0100
0020
0001
0000
0001
0000
,
0130
0000
1000
0001
0000
0001
1000
0000
0010
0000
1000
0000
0100
0000
0010
0000
,
0001
0000
0100
0001
0000
0001
1000
0000
0100
0000
1000
0000
0100
0000
0010
0000
,
0100
0000
0001
0020
0000
1030
0010
2000
,
0000
3010
0100
2000
0010
0000
0010
0000
,
3001
0100
0001
0010
0100
0010
0001
1000
,
0001
0010
0100
0010
0001
1000
0001
0100
,
0010
0100
0001
1000
0100
1000
0001
0100
,
0010
0100
0001
1000
0100
0010
0100
1000
,
1001
1000
0010
0100
0001
0100
0010
1000
,
0010
1000
0001
0100
0001
0100
0001
1000
,
0100
0010
0100
0010
0100
1000
0010
0100
,
0010
1000
0001
0010
0001
1000
0001
1000
,
0010
0110
0000
0000
;
