#TITLE:Final Count Down;
#SUBTITLE:(MTO CRY BABY STYLE);
#ARTIST:dj TAKA feat. Jasmine;
#GENRE:METALLIC EURO;
#MUSIC:Final Count Down [MTO Cry Baby Style].ogg;
#BANNER:Final Count Down [MTO Cry Baby Style]-bn.png;
#BACKGROUND:Final Count Down [MTO Cry Baby Style]-BG.png;
#CDTITLE:./CDTITLES/beatmania IIDX.PNG;
#SAMPLESTART:46.766;
#SAMPLELENGTH:12;
#OFFSET:-0.021;
#BPMS:0=164.012;

//--------------- dance-single - B. M'Rey ----------------
#NOTES:
     dance-single:
     B. M'Rey:
     Beginner:
     1:
     0,0,0,0,0:
0000
0000
0000
0000
,
0000
0000
0000
0000
,
0000
0000
0000
0000
,
0000
0000
0000
0000
,
0000
0000
1000
0000
,
0000
0000
0010
0000
,
0000
0000
0100
0000
,
0000
0000
0001
0000
,
1000
0000
0001
0000
,
0100
0000
0010
0000
,
1000
0000
0100
0000
,
0000
0000
0010
0000
,
0000
0000
0001
0000
,
0000
0000
1000
0000
,
0000
0000
0100
0000
,
0000
0000
0010
0000
,
0000
0000
0000
0000
,
0001
0000
1000
0000
,
0000
0000
0000
0000
,
0100
0000
0010
0000
,
0000
0000
0000
0000
,
1000
0000
0010
0000
,
0100
0000
0000
0000
,
0001
0000
0010
0000
,
0000
0000
0000
0000
,
1000
0000
0100
0000
,
0010
0000
0000
0000
,
1000
0000
0001
0000
,
1000
0000
0001
0000
,
0000
0000
0100
0000
,
0000
0000
0010
0000
,
0000
0000
0000
0000
,
1001
0000
1001
0000
,
0000
0000
0100
0000
,
0000
0000
0010
0000
,
0000
0000
1000
0000
,
1001
0000
1001
0000
,
0000
0000
0010
0000
,
0000
0000
0100
0000
,
0000
0000
0001
0000
,
0101
0000
0101
0000
,
1010
0000
1010
0000
,
0101
0000
0110
0000
,
0000
0000
0000
0000
,
0000
0000
1000
0000
,
0000
0000
0001
0000
,
0000
0000
0100
0000
,
0000
0000
0100
0000
,
0000
0000
0100
0000
,
0000
0000
0100
0000
,
0000
0000
0010
0000
,
0000
0000
0001
0000
,
0000
0000
1000
0000
,
0000
0000
0010
0000
,
0000
0000
0100
0000
,
0000
0000
0010
0000
,
0000
0000
0100
0000
,
0000
0000
0010
0000
,
0000
0000
1000
0000
,
0000
0000
0001
0000
,
0000
0000
0010
0000
,
0000
0000
0100
0000
,
0000
0000
1000
0000
,
0000
0000
0001
0000
,
0000
0000
1000
0000
,
0000
0000
0001
0000
,
0000
0000
1000
0000
,
0000
0000
0010
0000
,
0000
0000
0100
0000
,
0000
0000
0010
0000
,
0000
0000
0001
0000
,
0000
0000
1000
0000
,
0000
0000
0010
0000
,
0000
0000
0100
0000
,
0000
0000
1001
1001
;

//--------------- dance-single - B. M'Rey ----------------
#NOTES:
     dance-single:
     B. M'Rey:
     Easy:
     4:
     0,0,0,0,0:
0000
0000
0000
0000
,
0000
0000
0000
0000
,
0000
0000
0000
0000
,
0000
0000
0000
0000
,
0000
0000
1000
0000
,
0010
0000
0100
0000
,
0001
0000
0010
0000
,
0100
0000
1000
0000
,
0010
0100
0001
0000
,
1000
0000
0010
0100
,
1000
0001
0100
0010
,
0100
0010
1000
0010
,
1000
0010
0100
0000
,
0001
0000
0010
0000
,
1000
0000
0100
0000
,
0010
0000
1001
0000
,
1001
0000
1001
0000
,
0010
1000
0010
1000
,
0010
0100
0001
1000
,
0100
1000
0100
0010
,
0001
0010
0100
1000
,
0100
0010
0100
1000
,
0001
0100
0010
0100
,
0010
1000
0001
1000
,
0001
0100
0001
1000
,
0100
1000
0100
0010
,
0001
0010
0001
0100
,
0001
1000
0200
0000
,
0320
0000
0230
0000
,
0301
0010
0100
0010
,
0001
0100
0001
0000
,
1000
0000
0010
0000
,
0100
0100
0010
0010
,
1000
0001
1000
0001
,
1000
0001
1000
0000
0010
0000
0100
0000
,
0010
0100
0001
1000
,
1001
0000
1001
0000
,
0010
0100
0010
1000
,
0010
1000
0010
0000
0100
0000
0001
0000
,
0100
0010
1000
0010
,
0110
0000
0110
0000
,
0001
0000
1000
0000
,
0010
0000
0100
0010
,
0100
0010
0200
0000
,
0000
0000
0310
0000
,
0001
0000
0000
0000
1000
0001
1000
0000
,
0001
1000
0001
0000
1000
0000
1000
0000
,
0010
0010
0100
0100
,
0001
0001
0010
0010
,
0001
0000
0001
0000
1000
0001
1000
0000
,
0001
1000
0001
0000
0010
0000
0100
0000
,
0010
1000
0010
1000
,
0010
1000
0100
1000
,
0100
1000
0001
1000
,
0001
1000
0001
0001
,
0010
0010
0100
0100
,
1000
1000
0010
0010
,
0100
0000
0100
0000
0001
1000
0001
0000
,
1000
0001
1000
0000
0010
0000
0100
0000
,
0010
1000
0001
1000
,
0010
0100
0001
1000
,
0010
0100
0001
1000
,
0010
0100
0110
0000
,
0000
0000
1001
0000
,
0000
0000
1010
0000
,
0000
0000
0110
0000
,
0000
0000
0101
0000
,
0010
0000
1000
0000
,
0010
1000
0100
0000
,
0010
0000
0100
0000
,
0001
1000
0010
0000
,
0100
0000
0010
0100
,
1000
0001
0100
0010
,
1000
0010
2002
0000
,
0000
0000
3003
0220
,
0000
0000
0000
0000
,
0000
0000
0000
0000
,
0330
0000
0000
0000
;

//--------------- dance-single - B. M'Rey ----------------
#NOTES:
     dance-single:
     B. M'Rey:
     Medium:
     7:
     0,0,0,0,0:
0000
0000
0000
0000
,
0000
0000
0000
0000
,
0000
0000
0000
0000
,
0000
0000
0000
0000
,
0000
0000
1001
0000
,
0100
0010
1000
0000
,
0010
1000
0010
0000
0100
0000
0000
0000
,
0001
0010
0101
0000
,
1010
0000
0100
0010
,
1000
0000
0010
0000
0100
0001
0010
0000
,
1000
0000
0100
0000
0001
1000
0001
0000
,
0100
0010
0100
0000
0001
1000
0001
0000
,
0100
0010
0100
0000
1001
0000
0000
0000
,
0101
0000
0110
0000
,
1000
1000
0100
0100
,
0010
0010
1001
0000
,
1001
0000
0000
0000
1000
0001
1000
0000
,
0001
0000
0100
0010
0100
0000
1000
0100
,
1000
0010
0100
0001
,
0010
0001
0010
0000
0100
1000
0000
0100
,
0010
0000
0100
0000
0010
0000
0001
1000
,
0001
0000
0100
0010
0100
0000
1000
0000
,
0100
0010
0001
0010
,
0010
0100
0010
0000
1000
0100
1000
0000
,
0001
0010
0100
0001
,
1000
0010
1000
0000
0100
0001
0100
0000
,
0010
0100
0010
0000
1000
0000
0100
0000
,
0001
0010
0001
0000
1000
0100
1000
0000
,
1001
1001
0101
0101
,
0010
1000
0010
0000
0100
0010
0100
0000
,
1000
0100
1000
0000
0001
0000
0010
0000
,
0100
1000
0100
0000
,
1001
0000
0000
0000
0010
0000
0100
0010
,
0100
1000
0100
0010
,
0001
0010
0100
0000
1000
0000
0100
0000
,
1000
0100
0010
0000
0001
0000
0010
0000
,
1001
1001
0110
0110
,
0001
0010
1000
0000
0100
0000
0010
0000
,
1000
0100
0010
0000
0001
0000
0010
0000
,
0001
0010
0100
0000
0010
0000
1000
0000
,
0110
0110
0101
0101
,
1010
1010
0110
0110
,
0101
0000
0101
0000
0001
1000
0001
1000
,
0001
1000
0001
1000
0010
0100
0010
0100
,
0010
0100
0010
0100
0001
0000
1000
0000
,
0010
0000
0100
0000
1000
0100
1000
0000
,
0001
0010
0001
0000
0010
0100
0001
0010
,
0001
0100
0010
0100
0001
0010
0001
0100
,
0010
1000
0100
1000
0010
0100
0001
1000
,
0010
0100
0001
0100
0010
1000
0001
0010
,
0100
0010
0001
1000
0001
0000
1000
0000
,
0010
0100
0001
0010
,
0100
1000
0001
0010
,
0100
1000
0001
0100
,
0010
0000
1000
0000
0100
0010
0001
0100
,
0010
1000
0001
0010
0100
1000
0010
0100
,
0001
0010
0100
1000
0001
0010
0100
1000
,
0001
0010
0100
1000
0010
0100
0001
1000
,
0010
0100
0001
0010
0100
0000
1000
0000
,
0100
1000
0100
0010
,
0001
0010
0001
0100
,
0001
0100
0010
0100
,
0010
0000
1000
0000
0001
0000
0000
1000
,
0001
0100
0010
0000
,
0010
1000
0100
0000
0010
0000
0000
0000
,
0001
0100
0010
0000
1000
0000
0000
0000
,
0010
1000
0010
0000
0100
0000
0000
0001
,
0010
0000
0100
0000
0010
0000
1000
0100
,
0010
1000
0100
0000
0001
0000
0010
0000
,
0001
0100
0010
0000
1000
0000
0100
0000
,
1000
0100
1000
0000
0010
0000
0100
0001
,
0010
0000
1000
0010
0100
0010
0100
0001
,
0010
0000
1000
0000
0001
1000
0001
0000
,
0100
0010
0100
0000
0001
1000
0001
1000
,
0001
0100
0010
0100
0010
0000
0220
0000
,
0000
0000
0000
0000
,
0000
0000
0000
0000
,
0330
0000
0000
0000
;

//--------------- dance-single - B. M'Rey ----------------
#NOTES:
     dance-single:
     B. M'Rey:
     Hard:
     9:
     0,0,0,0,0:
0000
0000
0000
0000
,
0000
0000
0000
0000
,
0000
0000
0000
0000
,
0000
0000
0000
0000
,
0000
0000
0000
0000
0000
0000
0000
0000
1000
0000
0000
0000
0001
0000
0001
1000
,
0001
0000
0000
0000
0100
0000
0010
0000
0110
0000
0000
0000
0001
0000
1000
0001
,
1000
0000
0010
0000
0100
0000
0001
0000
0101
0000
0000
0000
1000
0000
0001
0100
,
0001
0000
0000
0000
1001
0000
0000
0000
0101
0000
0000
0000
0010
0000
1000
0001
,
0100
0010
1000
0100
1001
0000
1001
0000
,
0101
0101
1010
1010
,
0110
0000
0101
0000
0010
1000
0010
1000
,
0010
0000
0100
0000
1000
0000
0100
0000
0001
1000
0001
1000
0001
1000
0001
1000
,
0001
1000
0001
1000
0001
1000
0001
0000
1001
0000
0000
0000
0100
0000
1000
0000
,
0001
0000
0010
0100
0001
0000
0100
0010
,
0001
0000
0001
0000
0100
0000
0100
0010
,
0001
0000
0001
0100
0110
0000
0000
0000
,
1010
0000
0000
0000
0011
0000
0001
0010
,
0001
0000
0000
0100
0000
0000
1000
0000
0010
0000
0000
0000
0010
0000
1000
0000
,
0001
0000
0010
0100
0010
0000
0001
0010
,
0001
0000
0000
0010
0000
0000
0100
0000
0020
0000
0000
0000
0000
0000
0130
0000
,
0001
1000
0100
0010
0100
0000
1001
0000
,
0001
0000
1000
0000
0001
0000
0000
0100
0000
0000
0010
0000
0100
0000
0000
0000
,
0100
1000
0000
0010
0100
0000
0100
0010
,
0001
0000
0010
0000
0001
0010
0100
1000
,
0010
1000
0100
1000
0110
0000
0010
0000
,
0001
0000
1000
0000
0010
0000
1000
0000
0010
0000
0000
0000
0001
0000
0000
0010
,
0000
0010
0001
0000
0010
0100
0001
0100
,
0001
1000
0001
0010
0200
0000
0010
0000
,
0301
1000
0100
1000
0002
0000
1000
0000
,
1003
0100
0010
0100
0010
0000
1000
0000
,
0001
1000
0001
0010
0100
1000
1000
0000
,
0001
0000
0000
0010
0000
0000
1010
0000
0000
0000
0000
0000
1000
0000
0001
0000
,
1001
0000
0000
0000
0101
0000
0000
0000
0001
0000
1000
0000
0001
0000
0100
0001
,
0100
0000
0100
0000
0010
0000
0000
0000
1010
0000
0000
0000
0010
0000
1000
0001
,
1000
0000
1000
0000
0001
0000
0100
0000
0001
0000
0000
0000
0010
0000
0100
0010
,
0100
0000
1010
0000
0100
0000
0100
0010
,
0110
0000
0000
0000
1001
0000
0000
0000
1010
0000
0000
0000
1010
0000
0010
0100
,
0010
0000
0000
0000
0011
0000
0000
0000
0001
0000
0000
0000
0100
0000
1000
0100
,
1000
0000
0100
0000
1000
0000
0100
0000
0001
0000
0000
0000
0001
0000
1000
0001
,
1000
0000
1100
0000
0010
0000
0010
1000
,
0001
1000
0001
1000
0110
0000
1010
0000
,
0100
1000
0100
1000
0011
0000
0101
0000
,
0001
0100
0010
1000
0010
1000
0001
1000
,
0001
0000
0100
0000
0001
0000
0100
0000
0001
1000
0001
1000
0001
1000
0001
1000
,
0001
1000
0001
1000
0001
1000
0001
1000
0001
0000
1000
0000
0001
0000
0000
0000
,
0001
0010
0100
0000
0001
0100
0001
1000
,
0001
1000
0001
1000
0001
0100
0010
0000
0100
1000
0010
0000
0001
0010
0000
0100
,
0001
0000
0100
0010
0000
1000
0100
0000
0001
0100
0010
0000
0001
0010
0000
0100
,
0001
0000
0010
1000
0000
0100
0001
0000
0100
0010
0001
0000
0010
0100
0000
0100
,
0010
0000
0100
0010
0000
0100
0010
0000
0100
0010
0001
0000
0010
0000
0001
0000
,
0100
1000
0010
0000
0100
0000
0100
0000
0010
0000
0100
0000
0001
0000
0010
0000
,
0100
1000
0001
1000
0010
0100
0001
0010
,
0100
1000
0010
0100
0010
1000
0001
1000
,
0001
1000
0100
1000
0001
0100
0010
0100
,
0001
0000
0010
0000
0001
0000
1000
0000
0100
0001
0010
0000
1000
0010
0000
0100
,
0010
0000
1000
0001
0000
0001
0010
0000
0010
0100
0010
0000
0100
0001
0000
0100
,
0010
0000
0100
0001
0000
0001
0010
0000
1000
0010
0100
0000
1000
0100
0000
0100
,
0010
0000
0100
0001
0000
0001
0100
0000
0100
0010
1000
0000
0001
0000
1000
0000
,
0100
0001
0100
0000
1000
0000
0100
0000
0001
0000
0100
0000
0001
0000
1000
0000
,
0100
1000
0001
1000
0001
1000
0100
1000
,
0100
0010
0100
0010
0100
1000
0100
0010
,
0001
0010
0001
1000
0001
0100
0001
1000
,
0001
0000
0010
0000
0100
0000
0010
0000
0100
0000
0000
0000
0000
0000
0001
1000
,
0001
0000
0000
0000
0100
0000
0000
0000
0110
0000
0000
0000
0000
0000
0001
0100
,
0001
0000
0010
0000
0100
0000
0000
0000
1001
0000
0000
0000
0000
0000
0010
1000
,
0010
0000
0000
0000
0100
0000
0000
0000
0101
0000
0000
0000
0000
0000
0001
1000
,
0001
0000
0010
0000
0100
0000
1000
0000
0010
0000
0000
0000
0001
0000
1000
0001
,
0100
0000
0000
0000
0110
0000
0000
0000
0001
0000
0000
0000
0100
0000
1000
0001
,
1000
0000
0010
0000
0100
0000
1000
0000
0010
0000
0000
0000
0010
0000
0100
0001
,
0100
0110
0001
0010
,
0100
0000
0001
0000
1010
0010
0001
0000
,
0010
0000
0100
0000
0001
0000
0010
1000
0100
0000
0010
0000
0001
0000
0100
0000
,
0001
0000
1010
0000
0010
0100
0010
1000
,
0001
0000
0100
0000
0010
0000
0100
0000
0001
1000
0001
1000
0001
1000
0001
1000
,
0001
1000
0001
1000
0001
1000
0001
1000
0001
0000
0000
0000
2002
0000
0000
0000
,
0000
0000
0000
0000
,
0000
0000
0000
0000
,
3003
0000
0000
0000
;
