#TITLE:Feel the Moment;
#ARTIST:Yuzo Koshiro feat. PAULA TERRY;
#GENRE:TRANCE;
#MUSIC:Feel the Moment.ogg;
#BANNER:Feel the Moment-BN.png;
#BACKGROUND:Feel the Moment-BG.png;
#CDTITLE:./CDTITLES/DANCE DANCE REVOLUTION/EXTREME 3.PNG;
#SAMPLESTART:47.114;
#SAMPLELENGTH:12;
#OFFSET:-0.115;
#BPMS:0.000=142.981,224.000=71.490;

//--------------- dance-single - B. M'Rey ----------------
#NOTES:
     dance-single:
     B. M'Rey:
     Beginner:
     1:
     0,0,0,0,0:
0000
0000
0000
0000
,
0000
0000
0000
0000
,
0000
0000
0000
0000
,
0000
0000
0000
0000
,
1000
0000
0000
0000
,
0001
0000
0000
0000
,
0100
0000
0000
0000
,
0010
0000
0000
0000
,
1000
0000
0000
0000
,
0001
0000
0000
0000
,
0010
0000
0000
0000
,
0100
0000
0000
0000
,
0010
0000
0000
0000
,
1000
0000
0000
0000
,
0100
0000
0000
0000
,
0001
0000
0000
0000
,
0010
0000
0000
0000
,
0100
0000
0000
0000
,
0001
0000
0000
0000
,
1000
0000
0000
0000
,
0010
0000
0000
0000
,
0100
0000
0000
0000
,
0001
0000
0000
0000
,
1000
0000
0000
0000
,
1001
0000
1001
0000
,
1001
0000
0000
0000
,
0000
0000
0000
0000
,
0000
0000
0000
0000
,
1000
0000
0001
0000
,
0010
0000
0100
0000
,
0001
0000
0100
0000
,
0010
0000
1000
0000
,
0010
0000
0100
0000
,
0001
0000
0010
0000
,
0001
0000
1000
0000
,
0010
0000
0100
0000
,
0010
0000
1000
0000
,
0001
0000
0010
0000
,
0001
0000
0100
0000
,
0010
0000
1000
0000
,
0100
0000
1000
0000
,
0001
0000
0010
0000
,
0001
0000
0100
0000
,
0010
0000
1000
0000
,
0010
0000
0100
0000
,
0010
0000
1000
0000
,
0001
0000
0010
0000
,
0100
0000
0010
0000
,
1000
0000
0010
0000
,
0100
0000
0001
0000
,
0010
0000
0001
0000
,
0100
0000
0010
0000
,
1001
0000
1001
0000
,
1001
0000
0000
0000
,
0010
0000
0000
0000
,
0100
0000
0000
0000
,
0001
0000
0000
0000
,
1000
0000
0000
0000
,
0010
0000
0000
0000
,
0100
0000
0000
0000
,
0001
0000
0000
0000
,
1000
0000
0000
0000
,
0020
0000
0000
0000
,
0030
0000
0000
0000
;

//--------------- dance-single - B. M'Rey ----------------
#NOTES:
     dance-single:
     B. M'Rey:
     Easy:
     3:
     0,0,0,0,0:
0000
0000
0000
0000
,
0000
0000
0000
0000
,
0000
0000
0000
0000
,
0000
0000
0000
0000
,
0010
0000
0000
0000
,
0100
0000
0000
0000
,
0001
0000
1000
0000
,
0010
0000
0000
0100
,
0100
0000
0000
0000
,
0010
0000
0001
0000
,
1000
0000
0010
0000
,
0010
0000
0000
0100
,
0001
0000
0000
0000
,
1000
0000
0010
0000
,
0100
0000
1000
0000
,
0001
0000
0000
0100
,
0010
0000
0000
0000
,
1000
0000
0010
0000
,
0100
0000
0001
0000
,
1000
0000
0000
0010
,
0100
0000
0000
0000
,
0001
0000
0010
0000
,
1000
0000
0000
0000
,
0010
0000
0100
0001
,
1001
0000
0000
0000
,
1001
0000
0000
0000
,
1001
0000
0000
0000
,
1001
0000
0000
0000
,
0001
1000
0001
0100
,
0001
0100
0010
0100
,
0010
1000
0010
1000
,
0001
1000
0001
0010
,
0001
0010
0100
0010
,
0100
1000
0100
1000
,
0001
1000
0001
0100
,
0001
0100
0010
0100
,
0010
1000
0010
1000
,
0001
1000
0001
0010
,
0001
0010
0100
0010
,
0001
1000
0001
1000
,
0001
0100
0010
0100
,
0010
0100
0001
1000
,
0001
1000
0001
0010
,
0100
0010
0100
1000
,
0100
1000
0001
0100
,
0001
0100
0010
0100
,
0010
1000
0001
0100
,
0001
0100
0001
1000
,
0100
0010
0100
1000
,
0100
0010
0001
0010
,
0001
0010
0100
1000
,
0100
0010
0100
0010
,
0001
0010
0001
1000
,
0001
1000
0100
1000
,
0100
0010
0100
1000
,
0001
1000
0001
1000
,
0010
0000
0001
0000
,
1000
0000
0010
0000
,
0100
0000
0001
0000
,
1000
0000
0010
0000
,
0100
0000
0010
0000
,
1000
0000
0001
0000
,
0220
0000
0000
0330
;

//--------------- dance-single - B. M'Rey ----------------
#NOTES:
     dance-single:
     B. M'Rey:
     Medium:
     6:
     0,0,0,0,0:
0000
0000
0000
0000
,
0000
0000
0000
0000
,
0000
0000
0000
0000
,
0000
0000
0000
0000
,
0020
1000
1000
1030
,
0100
0020
0001
0001
,
0031
0100
0020
0000
,
0230
0000
0310
1000
,
0100
1000
0001
0010
,
0100
1000
0010
1000
,
0001
0100
0020
0000
,
0032
0000
0013
1000
,
0001
0010
0001
0100
,
0010
1000
0001
1000
,
0010
0100
0020
0000
,
0032
0000
0013
1000
,
0100
1000
0001
0100
,
0010
1000
0010
0100
,
0001
0100
0020
0000
,
2030
0000
3100
1000
,
0020
0000
0031
0010
,
0100
1000
0010
0100
,
0001
1000
0010
0100
,
0001
0100
0001
1000
,
0001
1000
0001
0000
0001
1000
0001
0000
,
0001
1000
0001
0000
0001
1000
0001
0000
,
0001
0010
0100
0010
,
2002
0000
0000
3003
,
0010
1000
0010
0000
0001
1000
0100
0000
,
0100
0010
0100
0000
0001
1000
0010
0000
,
0001
1000
0100
0000
0100
0000
0001
0000
,
0010
0000
0100
0010
0001
0000
0001
0010
,
0100
0000
0100
1000
0001
1000
0010
0100
,
0001
0000
0100
1000
0100
1000
0100
0010
,
0001
0000
0100
0010
0001
0000
1000
0000
,
0100
0000
0010
0000
0100
0000
0001
1000
,
0100
0000
0001
0010
0001
0000
0010
1000
,
0001
0000
0001
0100
0010
0000
0100
0010
,
0001
0000
0100
1000
0001
0000
0100
0010
,
0100
0000
0001
0000
0001
1000
0100
0000
,
0010
0000
0100
1000
0001
0000
0001
1000
,
0010
0000
0010
1000
0001
0000
0100
1000
,
0010
0000
0010
1000
0001
0000
0001
0010
,
0100
0000
0001
1000
0001
0010
0001
1000
,
0010
0100
0010
0000
0100
1000
0001
0000
,
0100
1000
0001
0000
0100
0010
0001
0000
,
0100
0010
0001
0000
0001
0010
0100
0000
,
0100
0010
0100
0000
0001
0100
0010
1000
,
0001
0000
0001
1000
0001
0000
0010
0100
,
0001
0000
0010
0100
0010
0000
0010
1000
,
0001
0000
0010
1000
0001
0000
0100
1000
,
0001
0000
0001
0100
0010
0000
0001
0000
,
0001
0010
0100
0000
0010
0100
0001
0000
,
0001
0010
0001
0000
0100
0010
0100
0000
,
0001
1000
0001
0000
0001
1000
0100
0000
,
1000
0001
0010
0100
,
0001
0000
0000
0010
1000
0000
0000
0001
,
0010
0000
0000
0100
0010
0000
0000
1000
,
0000
0000
0000
0001
0010
0000
0000
0100
,
0010
0000
0000
0000
1000
0000
0000
0010
,
0100
0000
0000
0001
0010
0000
0100
0000
,
1000
0000
0000
0010
0100
0000
0001
0000
,
2000
0000
0000
3000
;

//--------------- dance-single - B. M'Rey ----------------
#NOTES:
     dance-single:
     B. M'Rey:
     Hard:
     9:
     0,0,0,0,0:
0000
0000
0000
0000
,
0000
0000
0000
0000
,
0000
0000
0000
0000
,
0000
0000
0000
0000
,
0010
1000
0001
1000
,
0100
1000
0001
0010
,
0001
0100
0001
0100
,
0010
1000
0001
0010
,
0001
1000
0010
0100
,
0010
1000
0001
1000
,
0100
1000
0001
0100
,
0010
1000
0100
1000
,
0001
0100
0001
0100
,
0001
1000
0010
0100
,
0010
0100
0001
0010
,
0100
1000
0001
0010
,
0100
0010
0100
1000
,
0001
0010
0001
0100
,
0010
1000
0100
1000
,
0001
1000
0100
0010
,
0001
0010
0100
0010
,
0100
1000
0010
0100
,
0010
0100
0001
0100
,
0010
1000
0100
0010
,
0001
0010
0100
0000
0010
0001
0100
0000
,
0001
0010
0100
0000
0001
1000
0010
0000
,
0100
1000
0010
1000
0010
1000
0001
0100
,
0020
0000
0000
0000
0000
0000
0000
0030
,
0001
0000
1000
0000
0010
1000
0000
1000
0100
0000
0010
0100
0000
0100
0010
0000
,
0100
0000
1000
0000
0010
0100
0000
0100
0010
0000
0100
0010
0000
0010
1000
0000
,
0100
0010
0001
1000
0001
0100
0010
0100
,
0010
0100
0001
1000
0010
1000
0001
0010
,
0001
0000
0010
0000
0100
0010
0000
0010
0001
0000
0100
0001
0000
0001
0100
0000
,
0001
0000
0010
0000
0100
1000
0000
1000
0100
0000
1000
0010
0000
0010
0100
0000
,
0010
0000
0100
0000
0001
0010
0000
0010
0100
0000
1000
0001
0000
0001
0010
0000
,
0001
0100
0010
1000
0010
1000
0100
0010
,
0100
0000
1000
0000
0100
0010
0000
0010
0001
0000
1000
0010
0000
0010
0100
0000
,
0010
0000
0100
0000
0001
1000
0000
1000
0001
0000
0100
0010
0000
0010
0100
0000
,
0010
1000
0000
1000
0010
0000
0100
0000
0001
0000
0010
0000
0100
0000
1000
0000
,
0100
0010
0001
0100
0010
0100
0010
0100
,
0001
0000
1000
0000
0001
1000
0000
1000
0010
0000
0100
0001
0000
0001
1000
0000
,
0001
1000
0000
1000
0010
0000
1000
0010
0000
0010
0100
0000
0001
0000
0100
0000
,
0010
1000
0000
1000
0010
0000
0100
0001
0000
0001
0100
0000
0001
1000
0000
1000
,
0010
0000
0100
0010
0000
0010
0100
0000
0010
0000
1000
0000
0001
0000
1000
0000
,
0010
0100
0000
0100
0001
0000
0100
0001
0000
0001
0100
0000
0010
1000
0000
1000
,
0010
0000
1000
0100
0000
0100
1000
0000
0001
0000
0100
0000
0001
0000
0010
0000
,
0001
1000
0100
1000
0001
1000
0010
0100
,
0001
0010
0001
0100
0010
0100
0010
1000
,
0010
1000
0000
1000
0100
0000
0010
0001
0000
0001
0100
0000
0010
0100
0000
0100
,
0010
0000
0100
0001
0000
0001
0010
0000
0001
0000
1000
0000
0001
0000
0010
0000
,
0100
0010
0001
0100
0001
0100
0001
1000
,
0010
0100
0001
0010
0100
1000
0100
1000
,
0001
0010
0001
0000
0010
0100
0001
0000
,
0100
1000
0010
0000
0100
0010
0001
1000
,
0001
0010
0001
0100
0010
0100
0001
0100
,
0002
2003
3020
0230
,
0301
0000
0000
0000
1000
0000
0010
0000
0001
0000
0000
0100
0000
0000
1000
0000
,
0002
0000
0000
0000
0103
0000
0010
0000
0010
0000
0000
0100
0000
0000
0020
0000
,
0000
0000
0030
0000
0000
0000
1000
0000
0010
0000
0000
0001
0000
0000
0100
0000
,
2000
0000
0000
0000
3000
0000
0010
0000
0100
0000
0000
1000
0000
0000
0100
0000
,
0020
0000
0000
0000
0030
0000
0001
0000
0010
0000
0000
0001
0000
0000
0010
0000
,
0100
0000
0000
0000
0000
0000
0100
0000
1000
0000
0000
0100
0000
0000
0020
0000
,
0200
0000
0000
0330
;
