#TITLE:Fascination vorteXX;
#SUBTITLE:;
#ARTIST:vorteXX;
#TITLETRANSLIT:;
#SUBTITLETRANSLIT:;
#ARTISTTRANSLIT:;
#GENRE:;
#CREDIT:;
#MUSIC:Fascination vorteXX.ogg;
#BANNER:Fascination vorteXX-bn.png;
#BACKGROUND:Fascination vorteXX-BG.png;
#CDTITLE:./CDTITLES/DANCE DANCE REVOLUTION/EXTREME 3.PNG;
#SAMPLESTART:21.662;
#SAMPLELENGTH:12.000;
#SELECTABLE:YES;
#OFFSET:-0.022;
#BPMS:0.000=200.000;
#STOPS:248.000=1.650;
#BGCHANGES:;
#FGCHANGES:;

//--------------- dance-single - B. M'Rey ----------------
#NOTES:
     dance-single:
     B. M'Rey:
     Beginner:
     4:
     0,0,0,0,0:
0000
0000
0000
0000
,
0000
0000
0000
0000
,
0000
0000
0000
0000
,
0000
0000
0000
0000
,
0000
0000
0000
0000
,
0000
0000
0000
0000
,
0000
0000
0000
0000
,
0000
0000
0000
0000
,
1000
0000
0000
0000
,
0110
0000
0000
0000
,
0100
0000
0000
0000
,
0101
0000
0000
0000
,
0010
0000
0000
0000
,
1010
0000
0000
0000
,
0100
0000
0000
0000
,
1001
0000
0000
1001
0000
0000
1001
0000
,
0002
0000
0000
0000
,
1000
0000
1000
0000
,
0013
0000
0100
0000
,
0010
0000
0100
0000
,
0010
0000
0001
0000
,
1000
0000
0001
0000
,
0010
0000
0001
0000
,
0100
0000
0010
0000
,
1000
0000
0100
0000
,
1000
0000
0010
0000
,
0001
0010
0001
0000
,
1000
0100
1000
0000
,
0010
0100
0010
0000
,
0001
0010
0001
0000
,
0001
0010
0001
0010
,
0001
0010
0100
1000
,
0100
0010
1000
0010
,
0200
0000
0000
0000
0002
0000
0000
0300
,
0013
0000
1000
0000
,
0001
0000
0100
0000
,
0010
0000
1000
0000
,
0001
0100
1000
0010
,
0100
0000
0001
0000
,
0010
0000
0001
0000
,
0100
0000
0010
1000
,
0100
0000
0001
0000
,
0010
0000
0100
0000
,
0001
0000
1000
0000
,
0010
0100
0001
0000
,
1000
0000
0010
0000
,
0100
0000
0001
0000
,
0010
1000
0100
0000
,
0001
0000
0010
0000
,
0001
0100
0010
0000
,
1000
0000
0100
0010
,
1000
0000
0001
0100
,
0010
0000
1000
0100
,
1000
0000
0000
0001
,
0100
0010
0001
0000
,
1000
0000
0000
0000
,
0010
0100
0001
1000
,
0000
0000
0001
0100
,
0010
0001
0000
0000
,
1000
0100
1000
0010
,
0000
0100
0001
1000
,
0100
0010
0000
0002
,
0000
0003
1000
0000
0000
0000
0000
0000
0000
0000
0010
0000
0000
0000
0000
0000
,
0000
0100
0000
0001
0000
0000
0000
0000
,
0000
1000
0000
0000
0000
0010
0000
0000
,
0000
0001
0000
0100
0000
0000
0000
0000
,
0000
0010
0000
0000
0000
1000
0000
0000
,
0000
0001
0000
0100
0000
0000
0000
0000
,
0000
0010
0000
0000
0000
1000
0000
0000
,
0000
0100
0000
0001
0000
0000
0000
0000
,
0000
1000
0000
0000
0000
0001
0000
0000
,
0000
0100
0000
0000
0000
0010
0000
0100
,
0000
0001
0000
0000
0000
1000
0000
0000
,
0000
0010
0000
0000
0000
1000
0000
0010
,
0000
1000
0000
0000
0000
0001
0000
0000
,
0000
0100
0000
0000
0000
0100
0000
0001
,
0000
0010
0000
0000
0000
1000
0000
0000
,
0000
0001
0000
0000
0000
0001
0000
0100
,
0000
0001
0000
0000
0000
0010
0000
0000
,
0000
1000
0000
0000
0000
0010
0000
1000
,
0000
0100
0000
0000
0000
0001
0000
0000
,
0000
0010
0000
0000
0000
0001
0000
0100
,
0000
0010
0000
0000
0000
1000
0000
0000
,
0000
0001
0000
0000
0000
0100
0000
0001
,
0000
0020
0000
0000
0000
0000
0000
0000
,
0000
0001
0000
0000
0000
0001
0000
0030
,
0000
0100
0000
0000
0000
0000
0000
0000
,
0000
1001
0000
0000
0000
0000
0000
0000
,
0000
0100
0000
0000
0000
0000
0000
0000
,
0000
0110
0000
0000
0000
0000
0000
0000
,
0000
0001
0000
0000
0000
0000
0000
0000
,
0000
0011
0000
0000
0000
0000
0000
0000
,
0000
1000
0000
0000
0000
0000
0000
0000
,
0000
1001
0000
0000
1001
0000
0000
1001
,
0000
0001
0000
0000
0000
0000
0000
0000
,
0000
0110
0000
0000
0000
0000
0000
0000
,
0000
1000
0000
0000
0000
0000
0000
0000
,
0000
1010
0000
0000
0000
0000
0000
0000
,
0000
0100
0000
0000
0000
0001
0000
0000
,
0000
1000
0000
0000
0000
0001
0000
0000
,
0000
1000
0000
0000
0000
0001
0000
0000
,
0000
1000
0000
0000
0000
0001
0000
0000
,
0000
1001
0000
0000
0000
1001
0000
0000
,
0000
1001
0000
0000
0000
0000
0000
0000
;

//--------------- dance-single - B. M'Rey ----------------
#NOTES:
     dance-single:
     B. M'Rey:
     Easy:
     6:
     0,0,0,0,0:
0000
0000
0000
0000
,
0000
0000
0000
0000
,
0000
0000
0000
0000
,
0000
0000
0000
0000
,
0000
0000
0000
0000
,
0000
0000
0000
0000
,
0000
0000
0000
0000
,
0000
0000
0000
0000
,
0010
0000
0000
0010
0000
0000
1000
0000
,
0000
1001
0000
0000
0000
0000
0002
0000
0000
0000
0000
0000
0000
0000
0000
0000
,
0013
0000
0000
1000
0000
0000
0100
0000
,
0000
0011
0000
0000
0000
0000
0200
0000
0000
0000
0000
0000
0000
0000
0000
0000
,
0310
0000
0000
0000
0000
1000
0000
0000
0000
0000
0010
0000
0000
0000
0000
0000
,
0200
0000
0000
0000
0020
0000
0000
0330
,
0100
0000
0000
0000
0000
0000
1000
0000
0000
0000
0000
0010
0000
0000
0000
0000
,
0100
0000
0000
0000
0000
0100
0000
0000
0000
0000
0100
0000
0000
0000
0000
0000
,
0002
0000
0000
0000
,
0010
0000
0100
0000
,
0013
0100
0001
1000
,
0001
0100
0010
0100
,
0010
0100
0001
0010
,
0100
0010
0100
0010
,
0001
0100
0010
1000
,
0100
0010
0001
1000
,
0001
0010
0001
0010
,
0100
0010
0001
0100
,
0001
0010
0001
1000
,
0010
0100
0001
0100
,
0010
0100
0010
1000
,
0001
1000
0010
0100
,
0001
0010
0100
0010
,
0001
0010
0001
1000
,
0001
0010
0100
0010
,
0100
1000
0200
0000
,
0301
0000
0000
0100
0000
0000
0010
0000
,
0001
0000
0000
1000
0000
0000
0001
0000
,
0100
0000
0000
0010
0000
0000
1000
0000
,
0100
1000
0010
1000
,
0010
0000
0000
0100
0000
0000
0100
0000
,
0010
0000
0000
1000
0000
0000
1000
0000
,
0001
0000
0000
1000
0000
0000
0010
0000
,
0100
0010
0001
0010
,
0001
0000
0000
0100
0000
0000
0010
0000
,
0100
0000
1000
0000
0001
0000
0000
0010
,
0000
0000
0010
0000
0100
0000
0000
0001
,
0000
0000
0100
0000
0000
0001
0000
0000
,
0010
0000
0000
0100
0000
0000
0100
0000
,
0010
0000
1000
0000
0001
0000
0000
0010
,
0000
1000
0100
1000
,
0001
1000
0100
0010
,
0100
0000
0000
1000
0000
0000
0100
0000
,
0001
0000
0100
0000
0001
0000
0000
0010
,
0000
0100
0010
1000
,
0010
0000
0000
0100
0000
0000
1000
0000
,
0001
0000
0010
0000
0001
0000
0000
1000
,
0000
1000
0001
0010
,
0001
0000
0000
0100
0000
0000
1000
0000
,
0010
0000
0100
0000
0010
0000
0000
0100
,
0000
1000
0001
0010
,
0001
0000
0000
0010
0000
0000
1000
0000
,
0100
0000
0010
0000
0001
0000
0000
1000
,
0000
1000
0001
1000
,
0001
0010
0000
0000
0000
0100
0000
0000
,
0000
1000
0000
0001
0000
0100
0000
0010
,
0000
0100
0000
0000
0000
0010
0000
0000
,
0000
0010
0000
0100
0000
1000
0000
0010
,
0000
0100
0000
0000
0000
0010
0000
0000
,
0000
0100
0000
0010
0000
1000
0000
0100
,
0000
0010
0000
0000
0000
1000
0000
0000
,
0000
1000
0000
0001
0000
0100
0000
0001
,
0000
0000
0000
0001
0000
0100
0000
0010
,
0000
1000
0000
0001
0000
0010
0000
0001
,
0000
0100
0000
0001
0000
0010
0000
0100
,
0000
1000
0000
0010
0000
1001
0000
0110
,
0000
0100
0000
0001
0000
0100
0000
0010
,
0000
1000
0000
0010
0000
0100
0000
0010
,
0000
0100
0000
0001
0000
0010
0000
0001
,
0000
1000
0000
0001
0000
1100
0000
0101
,
0000
1000
0000
0001
0000
0100
0000
0001
,
0000
1000
0000
0010
0000
0100
0000
0010
,
0000
0100
0000
0010
0000
1000
0000
0100
,
0000
0010
0000
0100
0000
0110
0000
0110
,
0000
1000
0000
0010
0000
1000
0000
0001
,
0000
0010
0000
0001
0000
0100
0000
0001
,
0000
0020
0000
0000
0000
0000
0000
0000
,
0000
0130
0000
0000
0000
1000
0000
0000
,
0000
0010
0000
0000
0010
0000
0000
1000
,
0000
0000
0000
1001
0000
0000
0000
0000
0002
0000
0000
0000
0000
0000
0000
0000
,
0000
0013
0000
0000
1000
0000
0000
0100
,
0000
0000
0000
0011
0000
0000
0000
0000
0200
0000
0000
0000
0000
0000
0000
0000
,
0000
0000
0310
0000
0000
0000
0000
1000
0000
0000
0000
0000
0010
0000
0000
0000
,
0000
0200
0000
0000
0000
0020
0000
0000
,
0330
0000
0100
0000
0000
0000
0000
0000
1000
0000
0000
0000
0000
0010
0000
0000
,
0000
0000
0100
0000
0000
0000
0000
0100
0000
0000
0000
0000
0100
0000
0000
0000
,
0000
0010
0000
0000
0010
0000
0000
0001
,
0000
0000
0000
1001
0000
0000
0000
0000
2000
0000
0000
0000
0000
0000
0000
0000
,
0000
3010
0000
0000
0001
0000
0000
0100
,
0000
0000
0000
1010
0000
0000
0000
0000
0200
0000
0000
0000
0000
0000
0000
0000
,
0000
0310
0000
0100
0000
0010
0000
0100
,
0000
0010
0000
1000
0000
0001
0000
0010
,
0000
0100
0000
1000
0000
0001
0000
0010
,
0000
0001
0000
0100
0000
0010
0000
1000
,
0000
0100
0000
0000
0000
0001
0000
0000
,
0000
0010
0000
0000
0000
0000
0000
0000
0000
0000
0000
0000
0000
0000
0000
0000
;

//--------------- dance-single - B. M'Rey ----------------
#NOTES:
     dance-single:
     B. M'Rey:
     Medium:
     8:
     0,0,0,0,0:
0000
0000
0000
0000
,
0000
0000
0000
0000
,
0000
0000
0000
0000
,
0000
0000
0000
0000
,
0000
0000
0000
0000
,
0000
0000
0000
0000
,
0000
0000
0000
0000
,
0000
0000
0000
0000
,
0100
0010
0001
0000
0001
0000
0100
0000
,
1001
0000
0200
0000
,
0310
0001
1000
0000
0001
0000
1000
0000
,
0002
0000
0013
0000
,
0010
1000
0001
0000
0001
0000
0010
0000
,
0002
0000
0013
0000
,
0001
1000
0100
0000
0001
0000
0010
0000
,
0101
0000
0000
0000
0000
1001
0000
0000
0000
0000
0110
0000
0000
0000
0000
0000
,
0200
0000
0000
0000
,
0310
0000
0011
0000
,
0010
0100
0010
0000
0010
1000
0001
0000
,
0100
1000
0100
0000
0001
0100
0010
0000
,
0010
1000
0001
0000
0001
0100
0001
0000
,
0100
0010
0100
0000
0001
0010
0100
0000
,
0100
0010
0001
0000
0001
1000
0001
0000
,
0100
0010
0001
0000
0001
1000
0001
0000
,
0100
0010
0100
0000
0001
1000
0100
0000
,
0010
0100
0001
0000
0010
1000
0001
0000
,
0010
1000
0001
0000
0100
1000
0100
0000
,
0001
0100
0001
0000
0100
1000
0010
0000
,
0001
0100
0001
0000
0010
1000
0001
0000
,
0010
0100
0001
0000
0001
0010
0001
0000
,
0010
1000
0100
0000
0001
0010
0100
0000
,
0100
1000
0100
1000
0010
0100
0001
1000
,
0001
0010
0001
0100
0010
1000
0100
1000
,
0010
1000
0001
0010
0200
0000
0000
0000
,
0310
0000
0000
0010
0000
0000
0100
0000
,
0001
0000
0100
0000
0001
0000
0000
0001
,
0000
0010
0100
1000
,
0010
1000
0001
0100
,
0001
0000
0000
0100
0000
0000
0100
0000
,
0010
0000
1000
0000
0010
0000
0000
0100
,
0000
1000
0100
1000
,
0100
0000
0000
0010
0000
0000
0010
0000
,
0001
0000
0000
0100
0000
0000
0100
0000
,
0001
0000
0010
0000
0100
0000
0000
0010
,
0000
0000
0010
0000
0001
0000
0000
0100
,
0000
1000
0010
0100
,
0010
0000
0000
0100
0000
0000
1000
0000
,
0100
0000
0010
0000
0100
0000
0000
1000
,
0000
1000
0100
0010
,
0001
0000
0000
1000
0000
0000
1000
0000
,
0001
0010
0100
1000
,
0000
1000
0001
0010
,
0001
0100
0000
1000
,
0001
0000
0000
1000
0000
0000
1000
0000
,
0100
0000
0010
0000
0100
0000
0000
0010
,
0000
0100
0001
1000
,
0100
0000
0000
0010
0000
0000
0010
0000
,
0000
0001
0100
0000
0001
0000
0000
0000
,
0100
0010
0100
1000
,
0001
0000
0000
0010
0000
0000
1000
0000
,
0010
0000
1000
0000
0001
0000
0000
0010
,
0000
0010
0100
0010
,
0001
0010
0000
0000
0001
0000
0000
0010
,
0000
0001
0000
0010
0000
0000
0100
0000
,
0000
0100
0000
0000
1000
0000
0000
1000
,
0000
0010
0000
0100
0000
0000
0010
0000
,
0000
0010
0000
0000
1000
0000
0000
0010
,
0000
0100
0000
0010
0000
0000
0100
0000
,
0000
0010
0000
0000
0100
0000
0000
1000
,
0000
0100
0000
1000
0000
0000
0010
0000
,
0000
0001
0100
0001
0000
0001
0010
0100
,
0000
0100
1000
0100
0000
0001
0000
0001
,
0000
0100
1000
0100
0000
0100
0010
0001
,
0000
0100
0010
0100
0000
0010
0000
0010
,
0000
0100
0010
0100
0000
0100
1000
0001
,
0000
0001
0010
0100
0000
0100
0000
0001
,
0000
0001
1000
0001
0000
0010
0100
0010
,
0000
0010
1000
0100
0000
0100
0000
0100
,
0000
0001
0100
0001
0000
0001
1000
0100
,
0000
0100
0010
0100
0000
0001
0000
0100
,
0000
0001
1000
0001
0000
0001
0010
0100
,
0000
0001
1000
0001
0000
0010
0000
0100
,
0000
0010
0100
0001
0000
0001
0010
0001
,
0000
0100
0010
0100
0000
0100
0000
0010
,
0000
0200
0000
0000
0000
0000
0000
0000
,
0000
1301
0000
0000
0000
0110
0000
0000
,
0000
0001
1000
0100
0000
0001
0000
1000
,
0000
0002
0000
0000
0000
0103
0000
0000
,
0000
0100
0010
1000
0000
0001
0000
0100
,
0000
0002
0000
0000
0000
1003
0000
0000
,
0000
0010
1000
0001
0000
0010
0000
1000
,
0000
0002
0000
0000
0000
0103
0000
0000
,
0000
0001
0100
0001
0000
0010
0000
0100
,
0000
0000
0110
0000
0000
0000
0000
0110
0000
0000
0000
0000
1001
0000
0000
0000
,
0000
0001
1000
0010
0000
0001
0000
1000
,
0000
0002
0000
0000
0000
0013
0000
0000
,
0000
0010
1000
0010
0000
0010
0000
0100
,
0000
0002
0000
0000
0000
1003
0000
0000
,
0000
0001
1000
0100
0000
0010
0000
0001
,
0010
0100
0000
1000
0000
0001
0010
1000
,
0000
0001
0000
1000
0001
0100
0000
0010
,
0000
1000
0100
0010
0000
0100
0000
0010
,
0000
1001
0000
0000
0000
0110
0000
0000
,
1001
0000
0000
0000
;

//--------------- dance-single - B. M'Rey ----------------
#NOTES:
     dance-single:
     B. M'Rey:
     Hard:
     10:
     0,0,0,0,0:
0000
0000
0000
0000
,
0000
0000
0000
0000
,
0000
0000
0000
0000
,
0000
0000
0000
0000
,
0000
0000
0000
0000
,
0000
0000
0000
0000
,
0000
0000
0000
0000
,
0000
0000
0000
0000
,
0001
0000
0000
0000
0000
0100
0000
0000
0000
0000
0000
1000
0000
0000
0000
0000
,
1001
0000
0000
0000
0000
0100
0000
0000
0010
0100
0010
0100
0010
0000
0000
0000
,
0010
0000
0000
0000
0000
0100
0000
0000
0000
0000
0001
0000
0000
0000
0000
0000
,
0101
0000
0000
0000
0000
0100
0000
0000
0001
0100
0001
0100
0001
0000
0000
0000
,
0010
0000
0000
0000
0000
0100
0000
0000
0000
0000
0000
1000
0000
0000
0000
0000
,
0110
0000
0000
0000
0000
0001
0000
0000
0010
0100
0010
0100
0010
0000
0000
0000
,
0001
0000
0000
0000
0000
1000
0000
0000
0000
0000
0000
0100
0000
0000
0000
0000
,
1001
0000
0000
0000
0000
0101
0000
0000
0000
0000
0000
0110
0000
0000
0000
0000
,
1001
0000
0000
0000
,
0101
0000
0101
0000
,
0001
1000
0001
1000
0001
0010
0100
0010
,
0100
1000
0100
0010
0001
0010
0001
0010
,
0100
1000
0100
0010
0001
0010
0100
0010
,
0100
1000
0100
1000
0001
1000
0100
0010
,
0100
0010
0100
1000
0001
0010
0001
0010
,
0001
0100
0010
1000
0010
1000
0010
0100
,
0001
0100
0001
0100
0010
1000
0010
1000
,
0010
0100
0001
0100
0001
0100
0010
1000
,
0010
1000
0010
0100
0001
0100
0001
0100
,
0010
1000
0010
1000
0010
0100
0001
0100
,
0001
0100
0010
1000
0010
1000
0010
0100
,
0001
1000
0010
1000
0010
1000
0100
0010
,
0101
1010
1001
0110
,
0011
1100
1010
0101
,
0010
1000
0010
1000
0001
1000
0001
0010
,
0001
1000
0001
1000
0001
0100
0010
0100
2000
0000
0000
0000
0000
0000
0000
0000
,
3001
0010
0000
0100
1000
0000
0010
0001
,
0000
0100
0001
0000
1000
0010
0000
0100
,
0001
0000
0010
1000
0000
0001
0100
0000
,
1000
0100
1001
0000
0011
0000
0101
0000
,
0110
0000
0000
0001
0100
0000
1000
0100
,
0000
1000
0100
0000
0001
0010
0000
0001
,
0100
0000
0001
1000
0010
0000
0100
0000
,
0001
0100
1000
0100
,
0010
0001
0000
1000
0010
0000
0100
0001
,
1001
0010
1000
0000
0100
0001
0000
0001
,
0010
0000
1000
0100
0001
0000
0100
0000
,
1000
0010
0000
0001
0100
0000
0010
1000
,
1001
0000
0100
0001
0010
0000
1000
0000
,
0100
0000
0010
1000
0001
0000
0010
1000
,
0001
0010
0000
1000
0100
0000
0010
0001
,
0000
0100
0010
0000
0001
1000
0000
0000
,
1001
0000
0100
0010
0001
0000
0101
0000
,
0100
0001
0010
0000
1010
0000
0001
0100
,
1000
0000
0110
0000
0100
0001
0010
0000
,
1010
0000
0100
0010
0001
0000
0100
0000
,
0110
0000
0001
0000
1010
0000
0100
0010
,
0001
0100
0101
0010
,
1000
0000
0001
0100
0010
0000
0001
0000
,
0010
0100
0001
0000
1000
0000
0010
0100
,
0010
0010
1000
0100
,
1000
0000
1000
0001
1000
0000
0010
0000
,
0001
0010
0001
0000
1001
0000
0100
0010
,
0100
0000
0100
0000
0001
0010
0100
0000
,
1001
1001
0000
0000
1010
0000
0000
0110
,
0000
0101
0000
1001
0000
0000
1001
0000
,
0000
0011
0000
0000
0101
0000
0000
0110
,
0000
1010
0000
1100
0000
0000
0101
0000
,
0000
0011
0000
0000
0011
0000
0000
0101
,
0000
1100
0000
1100
0000
0000
0110
0000
,
0000
1010
0000
0000
1100
0000
0000
0101
,
0000
0011
0000
0110
0000
0000
0101
0000
,
0000
0001
0100
0001
0100
0001
1000
0010
,
1000
0010
1000
0001
0100
0001
0100
0001
,
1000
0010
0100
0010
0100
0010
1000
0100
,
1000
0100
1000
0001
0010
0001
0010
0001
,
1000
0010
0100
0010
0100
0010
1000
0100
,
1000
0100
0010
0100
0010
0001
0010
0001
,
0100
0001
1000
0100
0010
0100
0010
0100
,
1000
0001
1000
0001
1000
0100
0010
0100
,
1000
0100
0010
0001
0010
0001
0010
0100
,
1000
0100
1000
0100
0010
0001
0010
0001
,
0010
0100
1000
0001
0100
0001
0100
0001
,
0010
0100
1000
0100
1000
0100
0010
0001
,
0010
0001
0010
0100
1000
0001
0010
0001
,
0010
0001
1000
0010
1000
0010
1000
0001
,
0010
0002
0000
0000
0000
0000
0000
0000
,
0000
0113
0000
0000
0000
1100
0000
0000
,
0000
0000
0001
0000
0000
0000
0000
0100
0000
0000
0000
0000
0000
1000
0000
0000
,
0000
0000
1001
0000
0000
0000
0000
0100
0000
0000
0010
0100
0010
0100
0010
0000
,
0000
0000
0010
0000
0000
0000
0000
0100
0000
0000
0000
0000
0001
0000
0000
0000
,
0000
0000
0101
0000
0000
0000
0000
0100
0000
0000
0001
0100
0001
0100
0001
0000
,
0000
0000
0010
0000
0000
0000
0000
0100
0000
0000
0000
0000
0000
1000
0000
0000
,
0000
0000
0110
0000
0000
0000
0000
0001
0000
0000
0010
0100
0010
0100
0010
0000
,
0000
0000
0001
0000
0000
0000
0000
1000
0000
0000
0000
0000
0000
0100
0000
0000
,
0000
0000
1001
0000
0000
0000
0000
0101
0000
0000
0000
0000
0000
0110
0000
0000
,
0000
0000
0001
0000
0000
0000
0000
0100
0000
0000
0000
0000
0000
1000
0000
0000
,
0000
0000
1001
0000
0000
0000
0000
0100
0000
0000
0010
0100
0010
0100
0010
0000
,
0000
0000
0010
0000
0000
0000
0000
0100
0000
0000
0000
0000
0001
0000
0000
0000
,
0000
0000
0101
0000
0000
0000
0000
0100
0000
0000
0001
0100
0001
0100
0001
0000
,
0000
0001
0010
1000
0000
0001
0000
1000
,
0100
0001
0000
0100
0000
0010
0001
0100
,
0000
0010
0000
0100
1000
0001
0000
1000
,
0000
0001
0010
1000
0000
0001
0000
0010
,
0000
1001
0000
0010
0000
0100
0000
0000
,
1001
0000
0000
0000
;

//--------------- dance-single - B. M'Rey ----------------
#NOTES:
     dance-single:
     B. M'Rey:
     Challenge:
     10:
     0,0,0,0,0:
0000
0000
0000
0000
,
0000
0000
0000
0000
,
0000
0000
0000
0000
,
0000
0000
0000
0000
,
0000
0000
0000
0000
,
0000
0000
0000
0000
,
0000
0000
0000
0000
,
0000
0000
0000
0000
,
1000
0001
1000
0001
0000
0000
0010
0100
0010
0100
0000
0000
,
1000
0000
0000
0000
0100
0000
0000
0000
1000
0000
0000
0000
0100
0000
0000
0000
0000
0000
0000
0000
0000
0000
0000
0000
0001
0000
0000
0010
0000
0000
0001
0000
0000
0010
0000
0000
0001
0000
0000
0000
0000
0000
0000
0000
0000
0000
0000
0000
,
0010
0100
0010
0100
0000
0000
0001
0010
0001
0010
0000
0000
,
0100
0000
0000
0000
0010
0000
0000
0000
0100
0000
0000
0000
0010
0000
0000
0000
0000
0000
0000
0000
0000
0000
0000
0000
1000
0000
0000
0100
0000
0000
1000
0000
0000
0100
0000
0000
1000
0000
0000
0000
0000
0000
0000
0000
0000
0000
0000
0000
,
0010
0100
0010
0100
0000
0000
0001
0010
0001
0010
0000
0000
,
0100
0000
0000
0000
0010
0000
0000
0000
0100
0000
0000
0000
0010
0000
0000
0000
0000
0000
0000
0000
0000
0000
0000
0000
1000
0000
0000
0100
0000
0000
1000
0000
0000
0100
0000
0000
1000
0000
0000
0000
0000
0000
0000
0000
0000
0000
0000
0000
,
0010
0100
0010
0100
0000
0000
0001
0010
0001
0010
0000
0000
,
1001
0000
0000
0000
0101
0000
0000
0000
0110
0000
0000
0000
,
2002
0000
0000
0000
,
0013
0000
3010
0000
,
0001
0000
1000
0000
0001
0000
0010
0000
0000
1000
0000
0000
0100
0000
0010
0000
0100
0000
0010
0000
0000
0001
0000
0000
,
0010
0000
0001
0000
0010
0000
0100
0000
0000
0010
0000
0000
1000
0000
0100
0000
1000
0000
0100
0000
0000
1000
0000
0000
,
0001
0000
0010
0000
0001
0000
0100
0000
0000
0010
0000
0000
0001
0000
0010
0000
1000
0000
0100
0000
0000
0010
0000
0000
,
0001
0000
1000
0000
0010
0000
0001
0000
0000
0010
0000
0000
0100
0000
0010
0000
0100
0000
0001
0000
0000
0010
0000
0000
,
0100
0000
0010
0000
0100
0000
1000
0000
0000
0100
0000
0000
0001
0000
1000
0000
0001
0000
0100
0000
0000
0010
0000
0000
,
0001
0000
0010
0000
0001
0000
1000
0000
0000
0100
0000
0000
0010
0000
0100
0000
0010
0000
0001
0000
0000
0100
0000
0000
,
0010
0000
1000
0000
0010
0000
1000
0000
0000
0001
0000
0000
0100
0000
1000
0000
0100
0000
0010
0000
0000
0100
0000
0000
,
0010
0000
0001
0000
0010
0000
0001
0000
0000
1000
0000
0000
0010
0000
0100
0000
0010
0000
1000
0000
0000
0100
0000
0000
,
0010
0000
0001
0000
0010
0000
0001
0000
0000
1000
0000
0000
0001
0000
1000
0000
0001
0000
0100
0000
0000
1000
0000
0000
,
0010
0000
0100
0000
0010
0000
0001
0000
0000
1000
0000
0000
0010
0000
0001
0000
0010
0000
0100
0000
0000
0001
0000
0000
,
1000
0000
0100
0000
1000
0000
0010
0000
0000
0100
0000
0000
0001
0000
0010
0000
0001
0000
1000
0000
0000
0001
0000
0000
,
0100
0000
0010
0000
0100
0000
1000
0000
0000
0100
0000
0000
0001
0000
0010
0000
0001
0000
0010
0000
0000
0001
0000
0000
,
1000
0000
0100
0000
1000
0000
0010
0000
0000
1000
0000
0000
0001
0000
0000
0100
0000
0000
0001
0000
0000
0100
0000
0000
,
0010
0100
0001
0010
0001
0010
0100
1000
,
0100
0010
0100
0010
0001
0010
0100
1000
0010
0100
0010
0100
,
0010
0001
0010
0001
0010
0001
0010
0001
0020
0000
0000
0000
0000
0000
0000
0000
,
0031
1000
0000
0100
0010
0000
0001
0010
,
0000
1000
0100
0000
0010
0100
0000
0010
,
0001
0000
0010
0100
0000
1000
0100
0000
,
0001
0010
0101
0000
0110
0000
1010
0000
,
0100
0001
0000
0010
0100
0000
1000
0100
,
0000
0001
0010
0000
0100
0010
0000
0001
,
0010
0000
1000
0100
1001
0000
0010
0100
,
0010
0000
0010
0001
0000
1000
0100
0000
,
0001
0010
0001
0000
0100
0010
0000
1000
,
0100
0000
0001
0010
0000
0001
0100
0000
,
0010
1000
0100
0000
0001
0010
0000
0100
,
1000
0000
0010
0100
0000
0001
0010
0000
,
1000
0100
1000
0000
0001
0000
0100
0010
,
0100
0000
0001
0000
0010
1000
0010
0000
,
0100
0000
0001
0010
0001
0000
0100
0000
,
0010
1000
0010
0000
0100
0000
0001
0010
,
0001
0000
0000
0000
0001
1000
0001
1000
0001
0000
0000
0000
0100
0000
0000
0000
,
0001
0010
0001
0010
0001
0000
0000
0000
0100
0000
0000
0000
0010
1000
0010
1000
,
0010
0000
0000
0000
0100
0000
0000
0000
0010
0100
0010
0100
0010
0000
0000
0000
,
0001
0000
0000
0000
0001
0010
0001
0010
0001
0000
0000
0000
0100
0000
0000
0000
,
1000
0000
0010
0000
0100
0001
0000
0010
,
1000
0000
0100
0010
0000
0001
0010
0000
,
0100
1000
0100
1000
0000
0000
0010
0000
0000
0001
0010
0001
,
0010
0000
0000
0100
0000
0000
0010
0100
0010
0100
0000
0000
,
0001
0000
0000
1000
0001
1000
0001
0000
0000
0100
0000
0000
,
0010
0001
0010
0001
0000
0000
0100
0000
0000
1000
0100
1000
,
0100
0000
0000
0010
0000
0000
0001
0010
0001
0010
0000
0000
,
0100
0000
0000
0001
0010
0001
0020
0000
0000
0000
0000
0000
,
0000
0030
0000
0000
0000
0000
0000
0000
0001
0000
0000
0000
0000
0000
0000
0000
1000
0000
0000
0000
0000
0000
0000
0000
0100
0000
0000
0000
0000
0000
0000
0000
0001
0000
0000
0000
0000
0000
0000
0000
0000
0000
0000
0000
0000
0000
0000
0000
0010
0000
0000
0000
0000
0000
0000
0000
0100
0000
0000
0000
0000
0000
0000
0000
,
0000
1001
0000
0101
0000
0110
0000
1001
,
0000
0010
1000
0100
0001
0000
0100
0010
,
0000
0101
0000
0110
0000
1001
0000
1010
,
0000
0100
0001
0100
1000
0000
0010
0001
,
0000
0110
0000
0101
0000
0110
0000
1010
,
0000
0100
0001
0010
1000
0000
0100
0001
,
0000
0101
0000
0110
0000
1001
0000
0110
,
0000
0000
0000
0001
0000
1000
0000
0001
0000
0010
0000
0000
1000
0000
0000
0100
0000
0010
0000
0100
0000
0010
0000
0000
,
0001
0000
0000
0010
0000
0001
0000
0010
0000
0100
0000
0000
0010
0000
0000
1000
0000
0100
0000
1000
0000
0100
0000
0000
,
1000
0000
0000
0001
0000
0010
0000
0001
0000
0100
0000
0000
0010
0000
0000
0001
0000
0010
0000
1000
0000
0100
0000
0000
,
0010
0000
0000
0001
0000
1000
0000
0010
0000
0001
0000
0000
0010
0000
0000
0100
0000
0010
0000
0100
0000
0001
0000
0000
,
0010
0000
0000
0100
0000
0010
0000
0100
0000
1000
0000
0000
0100
0000
0000
0001
0000
1000
0000
0001
0000
0100
0000
0000
,
0010
0000
0000
0001
0000
0010
0000
0001
0000
1000
0000
0000
0100
0000
0000
0010
0000
0100
0000
0010
0000
0001
0000
0000
,
0100
0000
0000
0010
0000
1000
0000
0010
0000
1000
0000
0000
0001
0000
0000
0100
0000
1000
0000
0100
0000
0010
0000
0000
,
0100
0000
0000
0010
0000
0001
0000
0010
0000
0001
0000
0000
1000
0000
0000
0010
0000
0100
0000
0010
0000
1000
0000
0000
,
0100
0000
0000
0010
0000
0001
0000
0010
0000
0001
0000
0000
1000
0000
0000
0001
0000
1000
0000
0001
0000
0100
0000
0000
,
1000
0000
0000
0010
0000
0100
0000
0010
0000
0001
0000
0000
1000
0000
0000
0010
0000
0001
0000
0010
0000
0100
0000
0000
,
0001
0000
0000
1000
0000
0100
0000
1000
0000
0010
0000
0000
0100
0000
0000
0001
0000
0010
0000
0001
0000
1000
0000
0000
,
0001
0000
0000
0100
0000
0010
0000
0100
0000
1000
0000
0000
0100
0000
0000
0001
0000
0010
0000
0001
0000
0010
0000
0000
,
0001
0000
0000
0001
0000
1000
0000
0001
0000
0010
0000
0000
1000
0000
0000
0100
0000
0010
0000
0100
0000
0010
0000
0000
,
0001
0000
0000
0010
0000
0001
0000
0010
0000
0100
0000
0000
0010
0000
0000
1000
0000
0100
0000
1000
0000
0000
0000
0000
,
0000
0002
0000
0000
0000
0000
0000
0000
,
0000
0100
0000
0000
0000
0100
0000
0000
,
0000
0000
0000
1003
0000
0001
0000
1000
0000
0001
0000
0000
0000
0000
0000
0010
0000
0100
0000
0010
0000
0100
0000
0000
,
0000
0000
0000
0000
0000
0000
1000
0000
0000
0000
0100
0000
0000
0000
1000
0000
0000
0000
0100
0000
0000
0000
0000
0000
0000
0000
0000
0000
0000
0000
0001
0000
0000
0010
0000
0000
0001
0000
0000
0010
0000
0000
0001
0000
0000
0000
0000
0000
,
0000
0000
0000
0010
0000
0100
0000
0010
0000
0100
0000
0000
0000
0000
0000
0001
0000
0010
0000
0001
0000
0010
0000
0000
,
0000
0000
0000
0000
0000
0000
0100
0000
0000
0000
0010
0000
0000
0000
0100
0000
0000
0000
0010
0000
0000
0000
0000
0000
0000
0000
0000
0000
0000
0000
1000
0000
0000
0100
0000
0000
1000
0000
0000
0100
0000
0000
1000
0000
0000
0000
0000
0000
,
0000
0000
0000
0010
0000
0100
0000
0010
0000
0100
0000
0000
0000
0000
0000
0001
0000
0010
0000
0001
0000
0010
0000
0000
,
0000
0000
0000
0000
0000
0000
0100
0000
0000
0000
0010
0000
0000
0000
0100
0000
0000
0000
0010
0000
0000
0000
0000
0000
0000
0000
0000
0000
0000
0000
1000
0000
0000
0100
0000
0000
1000
0000
0000
0100
0000
0000
1000
0000
0000
0000
0000
0000
,
0000
0000
0000
0010
0000
0100
0000
0010
0000
0100
0000
0000
0000
0000
0000
0001
0000
0010
0000
0001
0000
0010
0000
0000
,
0000
0000
0000
1001
0000
0000
0000
0000
0000
0000
0000
0101
0000
0000
0000
0000
0000
0000
0000
0110
0000
0000
0000
0000
,
0000
0000
0000
1000
0000
0001
0000
1000
0000
0001
0000
0000
0000
0000
0000
0100
0000
0010
0000
0100
0000
0010
0000
0000
,
0000
0000
0000
0000
0000
0000
1000
0000
0000
0000
0010
0000
0000
0000
1000
0000
0000
0000
0010
0000
0000
0000
0000
0000
0000
0000
0000
0000
0000
0000
0001
0000
0000
0100
0000
0000
0001
0000
0000
0100
0000
0000
0001
0000
0000
0000
0000
0000
,
0000
0000
0000
0100
0000
0010
0000
0100
0000
0010
0000
0000
0000
0000
0000
0001
0000
0100
0000
0001
0000
0100
0000
0000
,
0000
0000
0000
0000
0000
0000
0010
0000
0000
0000
0100
0000
0000
0000
0010
0000
0000
0000
0100
0000
0000
0000
0000
0000
0000
0000
0000
0000
0000
0000
1000
0000
0000
0010
0000
0000
1000
0000
0000
0010
0000
0000
1000
0000
0000
0000
0000
0000
,
0000
0000
0000
0001
0000
1000
0000
0001
0000
1000
0000
0000
0000
0000
0000
0100
0000
0000
0000
0000
0000
0010
0000
0001
,
0000
0010
0000
0001
0000
0000
0000
0000
0000
1001
0000
0000
0000
0000
0000
0100
0000
1000
0000
0100
0000
1000
0000
0000
,
0000
0000
0000
0010
0000
0000
0000
0000
0000
0001
0000
0010
0000
0001
0000
0010
0000
0000
0000
0000
0000
0100
0000
0000
,
0000
0000
0000
1000
0000
0100
0000
1000
0000
0100
0000
0000
0000
0000
0000
0010
0000
0000
0000
0000
0000
1000
0000
0100
,
0000
0000
0000
0002
0000
0000
0000
0000
0000
0000
0000
0000
0000
0000
0000
0000
0200
0000
0000
0000
0000
0000
0000
0000
,
0303
0000
0000
0000
;
