#VERSION:0.83;
#TITLE:Fairy Tale;
#ARTIST:Q-mex;
#GENRE:DREAM;
#CREDIT:B. M'Rey;
#MUSIC:Fairy Tale.ogg;
#BANNER:Fairy Tale.png;
#BACKGROUND:Fairy Tale-bg.png;
#CDTITLE:./CDTITLES/KEYBOARDMANIA.png;
#SAMPLESTART:15.583;
#SAMPLELENGTH:15;
#OFFSET:-0.374;
#BPMS:0=140.052;

//--------------- dance-single - B. M'Rey ----------------
#NOTEDATA:;
#STEPSTYPE:dance-single;
#DESCRIPTION:B. M'Rey;
#DIFFICULTY:Beginner;
#METER:1;
#RADARVALUES:0,0,0,0,0;
#CREDIT:B. M'Rey;
#NOTES:
0000
0000
0000
0000
,
0000
0001
0000
0000
,
0000
0000
0000
0000
,
0000
0010
0000
0000
,
0000
0000
0000
0000
,
0000
1000
0000
0000
,
0000
0000
0000
0000
,
0000
0100
0000
0000
,
0000
0000
0000
0000
,
0000
0001
0000
1000
,
0000
0000
0000
0000
,
0000
0010
0000
0100
,
0000
0000
0000
0000
,
0000
1000
0000
0001
,
0000
0000
0000
0000
,
0000
0100
0000
0010
,
0000
1000
0000
0000
,
0000
0001
0000
1000
,
0000
0000
0000
0000
,
0000
0010
0000
0100
,
0000
0000
0000
0000
,
0000
1000
0000
0010
,
0000
0000
0000
0000
,
0000
0001
0000
1000
,
0000
0000
0000
0000
,
0000
0010
0000
0000
,
0000
0000
0000
0000
,
0000
0100
0000
0000
,
0000
0000
0000
0000
,
0000
0001
0000
0000
,
0000
0000
0000
0000
,
0000
1000
0000
0000
,
0000
0000
0000
0000
,
0000
0010
0000
0100
,
0000
0000
0000
0000
,
0000
1000
0000
0001
,
0000
0100
0000
0000
,
0000
0010
0000
1000
,
0000
0100
0000
1000
,
0000
0001
0000
0010
,
0000
0001
0000
0000
,
0000
0100
0000
0010
,
0000
0000
0000
0000
,
0000
1000
0000
0001
,
0000
0000
0000
0000
,
0000
0010
0000
0100
,
0000
0001
0000
1000
,
0000
0010
0000
0100
,
0000
0001
0000
1000
,
0000
2002
0000
0000
,
0000
0000
0000
0000
,
3003
0000
0000
0000
;

//--------------- dance-single - B. M'Rey ----------------
#NOTEDATA:;
#STEPSTYPE:dance-single;
#DESCRIPTION:B. M'Rey;
#DIFFICULTY:Easy;
#METER:4;
#RADARVALUES:0,0,0,0,0;
#CREDIT:B. M'Rey;
#NOTES:
0000
0000
0000
0000
,
0000
1000
0000
0000
,
0000
0000
0000
0000
,
0000
0001
0000
0000
,
0000
0000
0000
0000
,
0000
1000
0000
0000
,
0000
0000
0000
0000
,
0000
0001
0000
0000
,
0000
0000
0000
0000
,
0001
1000
0000
1000
,
0010
0000
0010
0000
,
0001
1000
0000
1000
,
0010
0000
0010
0000
,
0001
1000
0000
1000
,
0010
0000
0010
0000
,
0001
1000
0000
1000
,
0000
0010
0000
0100
,
0001
1000
0000
1000
,
0100
0000
0001
0000
,
0001
0100
0000
0100
,
0001
0000
0001
0000
,
0010
0100
0000
0010
,
0001
0000
0100
0000
,
0100
1000
0000
0100
,
0010
0100
0001
0000
,
0001
2000
0000
0000
,
0000
0000
0000
0000
,
0000
3020
0000
0000
,
0000
0000
0000
0000
,
0000
0230
0000
0000
,
0000
0000
0000
0000
,
0000
0302
0000
0000
,
0000
0000
0000
0000
,
1003
0010
0000
1000
,
0100
0000
0010
0000
,
0001
0100
0000
0010
,
0100
0000
0100
0000
,
0001
1000
0000
0010
,
0100
0010
0001
1000
,
0001
1000
0010
0100
,
0010
0100
0000
0010
,
0001
1000
0000
1000
,
0010
0000
0001
0000
,
0001
0010
0000
0010
,
0100
0000
0010
0000
,
0010
0100
0000
0100
,
0000
1000
0000
1000
,
0000
0010
0000
0010
,
0000
1000
0001
0100
,
0010
2002
0000
0000
,
0000
0000
0000
0000
,
3003
0000
0000
0000
;

//--------------- dance-single - B. M'Rey ----------------
#NOTEDATA:;
#STEPSTYPE:dance-single;
#DESCRIPTION:B. M'Rey;
#DIFFICULTY:Medium;
#METER:7;
#RADARVALUES:0,0,0,0,0;
#CREDIT:B. M'Rey;
#NOTES:
0000
0000
0000
0000
,
0000
0000
0000
1000
0000
0001
0000
0100
,
0000
0010
0000
1000
0000
0000
0000
0000
,
0000
0000
0000
0001
0000
0010
0000
0100
,
0000
1000
0000
0010
0000
0100
0000
0001
,
0000
0000
0000
1000
0000
0100
0000
0010
,
0000
0001
0000
1000
0000
0010
0000
0100
,
0000
0000
0000
0001
0000
0010
0000
1000
,
0000
0010
0000
0100
0000
0001
0000
1000
,
0010
0001
0010
0000
1000
0000
1000
0000
,
0010
0000
0010
0000
1000
0000
1000
0010
,
0100
0010
0100
0000
0010
0000
0010
0000
,
1000
0000
1000
0000
0100
0000
0100
0001
,
0010
0100
1000
0000
1000
0001
0000
0001
,
1000
1000
0010
0010
,
1000
0100
1000
0000
0010
0000
0010
0000
,
1000
0000
1000
0000
0100
0000
0100
0001
,
1000
0100
1000
0000
0100
0010
0000
0001
,
0010
0000
0010
0000
1000
0000
1000
0010
,
0100
0001
0100
0000
0010
0100
0000
0100
,
1000
0000
1000
0000
0100
0000
0100
0010
,
1000
0001
1000
0000
0100
0000
0100
0000
,
1000
0000
1000
0000
0010
0000
0010
0001
,
1000
0001
1000
0000
0010
0000
0010
0000
,
0100
0100
1000
1000
,
0010
2000
0000
0000
,
0000
0000
0000
0000
,
0000
3020
0000
0000
,
0000
0000
0000
0000
,
0000
0032
0000
0000
,
0000
0000
0000
0000
,
0000
2003
0000
0000
,
0000
0000
0000
0000
0000
0000
0000
3001
,
0010
0001
1000
0001
,
1000
0010
0100
0010
,
1000
0001
1000
0000
1000
0000
0100
0000
,
0010
0100
0010
0001
,
1000
0001
1000
0000
1000
0000
0010
0000
,
0100
0000
0001
0000
0100
0001
0100
0000
,
1000
0000
0100
0000
1000
0100
1000
0000
,
0010
0000
0001
0000
0100
0000
0001
1000
,
0010
0001
0010
0000
1000
0000
1000
0000
,
0010
0000
0010
0000
1000
0000
1000
0010
,
0100
0010
0100
0000
0010
0000
0010
0000
,
1000
0000
1000
0000
0100
0000
0100
0001
,
0010
0100
1000
0000
1000
0001
0000
0001
,
1000
1000
0010
0010
,
1000
0100
1000
0000
0010
0000
0010
0000
,
1000
0000
1000
0000
0100
0000
0100
0001
,
1000
0100
2000
0000
0000
0000
0000
0000
,
0000
0000
0000
0000
,
3000
0000
0000
0000
;

//--------------- dance-single - B. M'Rey ----------------
#NOTEDATA:;
#STEPSTYPE:dance-single;
#DESCRIPTION:B. M'Rey;
#DIFFICULTY:Hard;
#METER:10;
#RADARVALUES:0,0,0,0,0;
#CREDIT:B. M'Rey;
#NOTES:
0000
0000
0000
0000
,
0000
0000
1000
0001
1000
0001
0000
0100
,
0000
0010
0000
1000
0000
0000
0000
0000
,
0000
0000
0001
0010
0001
0010
0000
0100
,
0000
1000
0000
0010
0000
0100
0000
0001
,
0000
0000
1000
0100
1000
0100
0000
0010
,
0000
0001
0000
1000
0000
0010
0000
0100
,
0000
0000
0001
0010
0001
0010
0000
1000
,
0000
0010
0000
0100
0000
0001
0000
0100
,
1000
0100
1000
0000
0100
0001
0000
0010
,
1000
0000
0100
0000
0001
0000
1000
0100
,
1000
0100
0010
0000
0100
0001
0000
0010
,
1000
0000
0001
0000
0010
0000
0001
0100
,
1000
0100
1000
0000
0010
0001
0000
0100
,
1000
1000
0100
0001
,
1000
0100
1000
0000
0010
0001
0000
0100
,
1000
0000
0001
0000
0010
0000
0001
0100
,
1000
0001
1010
0000
0100
0001
0000
0001
,
1000
0000
0100
0010
1001
0000
0100
0001
,
0100
0010
1000
0000
1000
0100
0000
0001
,
0011
0000
1000
0100
1100
0000
0010
0001
,
0010
0001
0100
0000
0100
0001
0000
0001
,
1000
0000
0010
0100
0011
0000
0100
0010
,
1000
0001
1000
0000
0010
0100
0000
0010
,
1000
0000
0100
0001
1001
0000
0100
0010
,
0100
0010
0001
0000
1000
0100
0000
0001
,
0000
0010
0000
0100
0000
0010
0000
0100
,
0000
1000
0010
0000
0100
0010
0000
0100
,
0000
0001
0000
0010
0000
0001
0000
0010
,
0000
0100
0000
1000
0100
1000
0000
0010
,
0000
0001
0000
0100
0000
0001
0100
0000
,
0001
0010
0000
1000
0010
0000
0010
1000
,
0000
0100
0001
0000
0100
0000
0001
1000
,
0010
1000
1100
0000
1100
0000
0001
0100
,
0001
0000
0100
1000
0100
0000
0001
0010
,
0001
0000
0110
0000
0001
0010
0000
0010
,
0100
0000
0001
1000
0010
0000
0001
0010
,
0001
0100
0010
0000
0010
0100
0000
1000
,
0001
0000
0110
0000
0100
0010
0000
0100
,
0001
0000
1010
0000
0001
1000
0000
0010
,
0100
1000
0100
0000
0010
0100
0000
0100
,
0001
0010
1001
0000
0001
1000
0000
0100
,
0010
0000
0001
0010
0001
0000
0100
1000
,
0100
1000
0011
0000
0100
0010
0000
1000
,
0010
0000
0010
0100
0001
0000
0001
0010
,
0100
0010
0100
0000
0010
1000
0000
0100
,
0001
0000
0011
0000
0100
0010
0000
1000
,
0001
0000
0100
0010
0100
0010
0001
0100
,
0010
0000
0100
0000
0010
0000
1000
0000
0001
0000
1000
0000
0001
1000
0001
1000
,
0010
0100
0010
0100
2002
0000
0000
0000
0000
0000
0000
0000
0000
0000
0000
0000
,
0000
0000
0000
0000
,
3003
0000
0000
0000
;
