#VERSION:0.83;
#TITLE:FLOWERS for ALBION;
#ARTIST:dj TAKA;
#GENRE:AMBIENT;
#MUSIC:FLOWERS for ALBION.ogg;
#BANNER:FLOWERS for ALBION.png;
#BACKGROUND:FLOWERS for ALBION-bg.png;
#CDTITLE:./CDTITLES/beatmania IIDX 4th style.png;
#SAMPLESTART:43.151;
#SAMPLELENGTH:15;
#OFFSET:2.101;
#BPMS:0=80,7=93,14.021=84,14.979=93,26=90,27=93,34=79,35=91,37=85,37.979=70,39=93,50=85,51=93,54=84,55=93,62=84,63=93;
#BGCHANGES:0.101=FLOWERS for ALBION.avi=1.000=1=0=0=StretchNoLoop==CrossFade==,;

//--------------- dance-single - B. M'Rey ----------------
#NOTEDATA:;
#STEPSTYPE:dance-single;
#DESCRIPTION:B. M'Rey;
#DIFFICULTY:Beginner;
#METER:1;
#RADARVALUES:0,0,0,0,0;
#NOTES:
0000
0000
0000
0000
,
0001
0000
0000
0000
,
0100
0000
0000
0000
,
0010
0000
0000
0000
,
0100
0000
0000
0000
,
0010
0000
0000
0000
,
0100
0000
0000
0000
,
0001
0000
0000
0000
,
0010
0000
0000
0000
,
0001
0000
0000
0000
,
1000
0000
0000
0000
,
0001
0000
0000
0000
,
0100
0000
0000
0000
,
0100
0000
0000
0000
,
0001
0000
0000
0000
,
0100
0000
0000
0000
,
0100
0000
0000
0000
,
0001
0000
0000
0000
,
0100
0000
0000
0000
,
0001
0000
0000
0000
,
0100
0000
0000
0000
,
0001
0000
0000
0000
,
1000
0000
0000
0000
,
0001
0000
0000
0000
,
0010
0000
0000
0000
,
0001
0000
0000
0000
,
0001
0000
0000
0000
,
0100
0000
0000
0000
,
0001
0000
0000
0000
,
1001
0000
0000
0000
,
0100
0000
0000
0000
,
0010
0000
0000
0000
,
0001
0000
0000
0000
,
1001
0000
1001
0000
,
0110
0000
0110
0000
,
1001
0000
0000
0000
;

//--------------- dance-single - B. M'Rey ----------------
#NOTEDATA:;
#STEPSTYPE:dance-single;
#DESCRIPTION:B. M'Rey;
#DIFFICULTY:Easy;
#METER:2;
#RADARVALUES:0,0,0,0,0;
#NOTES:
0000
0000
0000
0000
,
0002
0003
0200
0300
,
0020
0000
0031
1000
,
0002
0000
0000
0000
0000
0000
0003
0200
,
0000
0000
0000
0000
0000
0300
0010
0000
,
0100
0000
0100
0010
,
0001
0000
0000
1000
,
0100
0000
0100
1000
,
0010
0000
0100
0000
,
0000
0001
0000
0000
0100
0000
0010
0000
,
0001
0000
0000
1000
0000
0000
0010
0000
,
0001
0000
0010
1000
,
0001
0000
0100
0000
,
0001
0000
0100
1000
,
0010
0000
0001
0010
,
0100
0000
0001
0100
,
0001
0000
0100
0000
,
0001
0000
1000
0000
,
0010
0000
0100
0000
,
0010
0000
1000
0000
,
0001
0000
0100
0000
,
0010
0000
1000
0000
,
0100
0000
1000
0000
,
0010
0000
0100
0000
,
0001
0000
0010
0000
,
0001
0010
0001
0000
,
0100
0000
0010
0000
,
1000
0100
1000
0000
,
0010
0000
0100
0000
,
0010
0000
0000
0000
,
0001
0000
0000
0000
,
1000
0000
0000
0000
,
0100
0000
0000
0000
,
0110
0000
0000
1001
0000
0000
0000
0000
,
1001
0000
0000
0110
0000
0000
0000
0000
,
0110
0000
0000
0000
;

//--------------- dance-single - B. M'Rey ----------------
#NOTEDATA:;
#STEPSTYPE:dance-single;
#DESCRIPTION:B. M'Rey;
#DIFFICULTY:Medium;
#METER:6;
#RADARVALUES:0,0,0,0,0;
#NOTES:
0000
0000
0000
0000
,
0100
0010
0100
0010
,
0002
0000
0103
1000
,
0002
0000
0000
0000
0203
0000
0000
0320
,
0000
0000
0000
0000
0031
0000
0100
0100
,
0001
0000
0010
0000
0100
0000
0010
0010
,
0001
0000
1000
0000
0010
0000
1000
1000
,
0100
0010
0100
0010
,
0002
0000
2000
3003
,
0000
0100
0000
0000
0001
0000
1000
0000
,
0010
0000
0000
1000
0000
0010
0100
0000
,
0001
0010
0001
0000
0001
0000
1000
0000
,
0010
1000
0001
0100
,
0002
0000
1000
0000
0000
0103
1000
0100
,
0100
0000
0000
0000
1000
0000
0000
0000
0010
0000
0000
1000
0000
0000
0100
0000
,
0010
0000
0100
0000
0010
0000
0100
0010
,
0001
0000
1000
0000
0001
0010
0100
0000
,
1001
0000
0110
0000
0010
0000
0100
0010
,
0001
0000
1000
0000
0100
0000
1000
0100
,
0001
0000
0100
0000
0010
0000
1000
0100
,
0001
0100
0001
0100
,
0010
0000
1000
0000
0010
0000
0100
0010
,
0001
1000
0010
0100
,
0001
0010
0100
1000
,
0010
0100
0001
1000
,
0110
0000
1000
1000
0001
0001
1000
1000
,
0010
0100
0010
1000
,
0001
0001
0010
0010
0100
0100
0010
0010
,
0100
0000
0010
0010
0001
0000
0100
0000
,
0001
0000
0100
0010
0002
0000
1000
0000
,
0100
1003
0100
1000
,
0002
0010
1000
0100
,
0013
0100
0010
0100
,
0010
0010
0000
0000
0000
0000
0010
0010
0000
0000
0000
0000
0110
0000
0000
0000
,
0100
0100
0000
0000
0000
0000
0100
0100
0000
0000
0000
0000
1000
0000
0100
0020
,
0000
0000
0000
0000
,
0000
0000
0000
0000
,
0030
0000
0000
0000
;

//--------------- dance-single - B. M'Rey ----------------
#NOTEDATA:;
#STEPSTYPE:dance-single;
#DESCRIPTION:B. M'Rey;
#DIFFICULTY:Hard;
#METER:7;
#RADARVALUES:0,0,0,0,0;
#NOTES:
0000
0000
0000
0000
,
0001
0010
0100
1000
,
0001
0000
0000
0000
0010
0000
1000
0100
,
0010
0000
0100
0001
0010
0000
0000
0110
,
0000
0000
1000
0000
0000
0000
1000
0100
,
0010
0000
0100
0001
0000
0010
0100
0010
,
0001
0000
0010
0000
0001
0000
0010
1000
,
0001
0010
0100
0000
0010
0100
1000
0000
,
1001
0000
1000
0100
0001
0000
1000
0000
,
0000
0010
0000
0000
0001
0000
0010
0000
,
0100
0000
0010
0100
0000
0100
1000
0000
,
0001
1000
0100
0000
0001
0000
0100
1000
,
0010
0010
0100
1000
,
0010
0000
1000
0000
0001
0100
1000
0010
,
1000
0000
0000
0000
1000
0000
0000
0000
0001
0000
0000
1000
0000
0000
0100
0000
,
0010
0000
0100
0000
0001
0000
0001
1000
,
0100
0000
0010
0100
0010
0000
0001
0000
,
0010
0000
0100
0001
0010
1000
0100
0010
,
1001
0000
1010
0000
0101
0000
0001
0100
,
0010
0000
0000
0000
0100
0000
1000
0000
0100
0000
0000
0010
0000
0000
0100
0000
,
0001
0000
0000
0000
0100
0000
0010
0000
0001
0000
0000
0010
0000
0000
0100
0000
,
0001
0000
1000
0100
0010
0001
0100
0001
,
1000
1100
0110
1001
,
0110
0000
0010
0001
0010
0100
1000
0010
,
1001
0000
0010
0001
1001
0000
1000
0100
,
0010
0000
0001
1000
0001
1000
0001
0010
,
0100
0010
0100
0010
0001
1000
0001
1000
,
0100
1000
0100
0010
0100
0010
0001
0010
,
0001
0000
1000
0000
0001
0001
0000
0001
0000
0000
1000
0000
0010
0000
0100
0000
,
0100
0000
0001
1000
0010
0000
0001
0000
,
0100
0000
0100
0010
0001
0100
0010
0000
,
0010
0000
0010
0100
0001
0010
0001
0100
,
0001
0000
0100
0000
0001
0010
0100
0010
,
1001
1001
0000
0000
1000
0000
0110
0110
0000
0000
0001
0000
0010
0000
1000
0000
,
0110
0110
0000
0000
1000
0000
0011
0011
0000
0000
0100
0000
1000
0000
0010
0200
,
0000
0000
0000
0000
,
0000
0000
0000
0000
,
0300
0000
0000
0000
;
