#TITLE:Equalibrium;
#SUBTITLE:;
#ARTIST:Stealingvision;
#TITLETRANSLIT:;
#SUBTITLETRANSLIT:;
#ARTISTTRANSLIT:;
#GENRE:;
#CREDIT:;
#MUSIC:Equalibrium.ogg;
#BANNER:Equalibrium-bn.png;
#BACKGROUND:Equalibrium-bg.png;
#CDTITLE:./CDTITLES/DANCE DANCE REVOLUTION/EXTREME 3.PNG;
#SAMPLESTART:78.400;
#SAMPLELENGTH:12.000;
#SELECTABLE:YES;
#OFFSET:-0.020;
#BPMS:0.000=150.000
,132.000=75.000
,164.000=150.000
;
#STOPS:;
#BGCHANGES:;
#FGCHANGES:;

//--------------- dance-single - B. M'Rey ----------------
#NOTES:
     dance-single:
     B. M'Rey:
     Beginner:
     1:
     0,0,0,0,0:
0000
0000
0000
0000
,
0000
0000
0000
0000
,
0000
0000
0000
0000
,
0000
0000
0000
0000
,
0000
0000
0000
0000
,
0000
0000
0000
0000
,
0000
0000
0000
0000
,
0000
0000
0000
0000
,
0000
0000
0000
0000
,
1000
0000
0001
0000
,
0010
0000
0001
0000
,
0100
0000
0010
0000
,
1000
0000
0010
0000
,
0100
0010
0000
0000
,
0001
0100
0000
0000
,
1000
0010
0000
0000
,
0001
0100
0000
0000
,
0010
0000
0000
0000
,
1000
0000
0001
0000
,
0010
0000
0000
0000
,
0100
0000
0001
0000
,
1000
0000
0000
0000
,
0010
0000
0001
0000
,
0100
0000
0000
0000
,
0010
0000
0001
0000
,
0010
0000
1000
0000
,
0001
0000
0100
0100
,
0010
0000
1000
0000
,
0001
0000
0010
0010
,
0001
0100
0000
0000
,
0010
1000
0000
0000
,
0100
0001
0000
0000
,
0010
0100
0000
0000
,
1001
0000
0000
0000
,
0100
0000
0000
0000
,
0010
0000
0000
0000
,
0001
0000
0000
0000
,
1000
0000
0010
0000
,
0100
0000
0001
0000
,
0010
0000
0100
0000
,
0001
0000
1000
0000
,
0010
0000
0100
0000
,
0001
0000
1000
0000
,
0010
0000
0100
0000
,
0010
0000
1000
0000
,
0001
1000
0000
0000
,
0010
0100
0000
0000
,
0001
0100
0000
0000
,
0010
1000
0000
0000
,
0001
0000
0000
0000
,
0100
0000
0010
0000
,
1000
0000
0000
0000
,
0001
0000
0010
0000
,
0001
0000
0000
0000
,
0100
0000
0010
0000
,
1000
0000
0000
0000
,
0001
0000
0100
0000
,
0010
0000
0000
0000
;

//--------------- dance-single - B. M'Rey ----------------
#NOTES:
     dance-single:
     B. M'Rey:
     Easy:
     3:
     0,0,0,0,0:
0000
0000
0000
0000
,
0000
0000
0000
0000
,
0000
0000
0000
0000
,
0000
0000
0000
0000
,
0000
0000
0000
0000
,
0001
0000
0001
0100
,
0001
0000
0100
0010
,
0001
0000
0001
0010
,
0001
0000
0100
1000
,
0100
1000
0100
0010
,
0001
1000
0010
1000
,
0100
0010
0001
0100
,
0010
1000
0001
0010
,
0100
0000
0110
0000
0000
0110
0000
0000
,
0100
0000
0011
0000
0000
0011
0000
0000
,
0100
0000
1100
0000
0000
1100
0000
0000
,
0100
0000
0011
0000
0000
0011
0000
0000
,
0002
0000
0013
0000
,
0100
0000
0001
1000
,
0001
0000
0010
0000
,
1000
0000
0001
0100
,
0010
0000
0100
0000
,
1000
0000
0100
0010
,
0001
0000
0010
0000
,
0100
0000
0100
0010
,
0100
1000
0010
1000
,
0100
0010
0001
0100
,
0001
0100
0001
0010
,
0100
1000
0010
0100
,
0010
0000
0110
0000
0000
1100
0000
0000
,
0000
0000
0011
0000
0000
0101
0000
0000
,
0001
0000
0110
0000
0000
1100
0000
0000
,
0010
0000
1001
0000
0000
0101
0000
0000
,
0020
0000
0000
0000
,
0032
0000
0000
0000
,
2003
0000
0000
0000
,
3020
0000
0230
0000
,
0301
1000
0010
1000
,
0100
0010
0001
0100
,
0010
0100
0010
0100
,
0001
1000
0100
0010
,
0001
1000
0100
1000
,
0001
0010
0001
1000
,
0010
0100
0001
1000
,
0010
0100
0010
1000
,
0001
0100
0001
1000
,
0100
1000
0100
1000
,
0010
0100
0001
0010
,
0100
0010
0001
0010
,
0002
0000
0203
0000
,
0320
0000
0031
0010
,
0200
0000
0302
0000
,
2003
0000
3010
0100
,
0002
0000
0023
0000
,
0230
0000
0301
1000
,
0020
0000
0032
0000
,
0023
0000
0030
1000
,
0002
0000
0000
0000
,
0003
0000
0000
0000
;

//--------------- dance-single - B. M'Rey ----------------
#NOTES:
     dance-single:
     B. M'Rey:
     Medium:
     6:
     0,0,0,0,0:
0000
0000
0000
0000
,
0000
0000
0000
0000
,
0000
0000
0000
0000
,
0000
0000
0000
0000
,
0000
0000
0000
0000
,
0001
1000
0010
0100
,
0010
1000
0100
1000
,
0010
0100
0010
0001
,
0010
0001
0010
0100
,
0001
0010
0001
0000
1000
0000
0010
0000
,
0010
0100
0010
0000
1000
0000
0100
0000
,
0001
0010
0001
0000
1000
0000
0100
0000
,
0001
0010
0001
0000
1000
0000
0100
0000
,
0010
0000
0101
0000
0000
1010
0000
0000
,
0010
0000
0101
0000
0000
1010
0000
0000
,
0010
0000
0101
0000
0000
1010
0000
0000
,
0010
0000
0101
0000
0000
1010
0000
0000
,
0010
0100
0001
0010
,
0001
1000
0110
0110
,
1000
0100
0001
0010
,
0001
0100
0011
0011
,
0001
0010
0001
0000
1000
0100
1000
0000
,
0010
0100
0010
0000
0001
0000
1000
0000
,
0010
0100
0010
0000
0001
0010
0001
0000
,
1000
0100
1000
0000
0010
0000
0100
0000
,
0001
0010
0001
0000
1000
0100
1000
0000
,
0010
0100
0010
0000
1001
0000
1001
0000
,
0010
0100
0010
0000
0001
0010
0001
0000
,
1000
0100
1000
0000
0110
0000
0110
0000
,
0001
0010
0001
0000
1000
0100
0000
1000
,
0010
0100
0010
0000
0101
0000
0101
0000
,
0010
1000
0100
0000
0010
0100
0000
0010
,
0001
0010
1000
0000
1001
0000
1010
0000
,
0020
0000
0000
0000
,
0230
0000
0000
0000
,
0302
0000
0000
0000
,
2003
0000
3020
0000
,
0130
0010
1000
0100
1000
0100
0010
0001
,
0010
0001
0100
0010
0100
1000
0100
1000
,
0010
0100
0001
0010
,
0001
0000
1000
0000
0010
0100
0010
1000
,
0001
1000
0001
0000
0010
0000
0100
0000
,
0001
0010
0001
0000
1000
0000
0100
0000
,
0010
1000
0010
0000
0100
0000
0010
0000
,
0001
0010
0001
0000
1000
0000
0100
0000
,
0010
0100
0001
0000
0010
1000
0000
0100
,
0001
1000
0010
0000
1000
0001
0000
0010
,
0100
0001
1000
0000
0001
1000
0000
0010
,
0100
0001
1000
0000
0001
1000
0000
0010
,
0100
0001
0010
0001
,
1000
0100
1001
1001
,
0010
0100
0001
0010
,
0100
0001
0101
0101
,
0010
1000
0100
1000
,
0010
0100
1010
1010
,
0010
0100
0001
0010
,
1000
0001
0110
0110
;

//--------------- dance-single - B. M'Rey ----------------
#NOTES:
     dance-single:
     B. M'Rey:
     Hard:
     9:
     0,0,0,0,0:
0000
0000
0000
0000
,
0000
0000
0000
0000
,
0000
0000
0000
0000
,
0000
0000
0000
0000
,
0000
0000
0000
0000
,
0001
1000
0100
1000
,
0100
0010
0001
0010
,
0100
0010
0001
0100
,
0010
1000
0001
1000
,
0001
1000
0001
0100
0010
1000
0100
1000
,
0010
0100
0010
1000
0001
0010
0001
1000
,
0010
0100
0010
0100
0001
0010
0001
1000
,
0010
0100
0010
0100
0001
1000
0010
1000
,
0100
0010
0011
0000
0001
0110
0000
1000
,
0010
0100
0110
0000
0010
1100
0000
1000
,
0001
1000
0011
0000
0100
0110
0000
0010
,
0001
1000
1100
0000
0100
1001
0000
0100
,
0020
2030
3002
2003
,
3200
2300
3200
0320
,
0032
0203
0302
2003
,
3020
0230
0302
0203
,
0310
0100
0000
0010
0001
0000
0001
1000
,
0000
1000
0001
0000
0010
0100
0010
0100
,
0010
1000
0000
0010
0001
0000
0100
1000
,
0000
0010
0001
0000
0010
0100
0000
0010
,
0100
0010
0001
1000
0001
1000
0010
0100
,
0001
1000
0001
0010
0001
0100
0010
1000
,
0001
1000
0001
0100
0001
1000
0010
1000
,
0010
0100
0001
0010
0100
0010
0001
0010
,
0100
1000
0101
0000
0001
1010
0000
1000
,
0100
1000
0101
0000
0010
1001
0000
0010
,
0001
1000
1100
0000
0010
1001
0000
0010
,
0001
0010
1100
0000
0100
1001
0000
1000
,
0020
0000
0000
0000
,
0230
0000
0000
0000
,
0302
0000
0000
0000
,
0203
0000
0302
0000
,
0013
0100
0010
0000
0010
0000
1000
0000
0001
0100
0001
0000
0010
0000
1000
0000
,
0010
1000
0100
0000
0100
0000
1000
0000
0010
0100
0010
0000
0010
0000
0100
0000
,
0010
0100
1000
0000
0100
0000
0010
0000
0001
0010
0100
0000
0010
0000
0100
0000
,
0010
1000
0100
0000
0001
0000
0010
0000
0100
0001
0010
0000
0100
0000
0010
0000
,
0001
0000
0100
0000
0010
0100
0000
0000
0001
0000
0100
0001
0000
0100
1000
0000
,
0100
1000
0100
1000
0100
0010
0000
0000
0001
0000
0010
0100
0000
0100
1000
0000
,
0010
1000
0010
1000
0010
0001
0000
0000
0010
0000
0100
0001
0000
0001
0100
0000
,
0010
0100
0010
0100
0010
1000
0000
0000
0100
0000
1000
0001
0000
0001
0100
0000
,
0010
1000
1100
0000
0100
0011
0000
1000
,
0001
1000
1100
0000
0100
0110
0000
1000
,
0010
1000
0110
0000
0001
0011
0000
1000
,
0100
1000
0011
0000
0100
0110
0000
0000
,
0100
1000
0010
1000
0001
0010
0100
1000
,
0100
1000
0001
1000
0001
0000
0010
0000
,
0100
0010
0100
1000
0001
0100
0010
0100
,
0001
0010
0100
1000
0010
0000
0100
0000
,
0001
0010
0001
0100
0001
0100
0010
1000
,
0001
1000
0010
1000
0010
0000
1000
0000
,
0001
0100
0010
1000
0010
1000
0001
0100
,
0010
0100
0001
0100
0001
0000
0010
0000
,
2002
0000
0000
0000
,
3003
0000
0000
0000
;
