#TITLE:Empathy;
#SUBTITLE:;
#ARTIST:TaQ;
#TITLETRANSLIT:;
#SUBTITLETRANSLIT:;
#ARTISTTRANSLIT:;
#GENRE:;
#CREDIT:;
#MUSIC:Empathy.ogg;
#BANNER:Empathy-bn.png;
#BACKGROUND:Empathy-BG.png;
#CDTITLE:./CDTITLES/beatmania IIDX.PNG;
#SAMPLESTART:39.890;
#SAMPLELENGTH:15.000;
#SELECTABLE:YES;
#OFFSET:-0.450;
#BPMS:0.000=170.000
,96.000=85.000
,128.000=170.000
,224.000=85.000
;
#STOPS:;
#BGCHANGES:;
#FGCHANGES:;

//--------------- dance-single - B. M'Rey ----------------
#NOTES:
     dance-single:
     B. M'Rey:
     Beginner:
     2:
     0,0,0,0,0:
0000
0000
0000
0000
,
0000
0000
0000
0000
,
0000
0000
0000
0000
,
0000
0000
0000
0000
,
0001
0000
0000
0000
,
0010
0000
0000
0000
,
1000
0000
0000
0000
,
0100
0000
0000
0000
,
0001
0000
0001
0000
,
1000
0000
1000
0000
,
0010
0000
0010
0000
,
0100
0000
0100
0000
,
0001
0000
0000
0000
,
0010
0000
0000
0000
,
1000
0000
1000
0000
,
0010
0000
0010
0000
,
0100
0000
0000
0000
,
0001
0000
0000
0000
,
0010
0000
0010
0000
,
0001
0000
0001
0000
,
1000
0000
0000
0000
,
0100
0000
0000
0000
,
1000
0000
1000
0000
,
0010
0000
0010
0000
,
0001
0000
0000
0000
,
0100
0000
0000
0000
,
1000
0000
0000
0000
,
0010
0000
0000
0000
,
0001
0000
0010
0000
,
1000
0000
0100
0000
,
1000
0000
0010
0000
,
0001
0000
0100
0000
,
0100
0010
0100
0000
,
0100
1000
0010
0000
,
0001
0000
0010
0000
,
0001
0000
0010
0000
,
0001
0100
0010
0000
,
0001
1000
0100
0000
,
0100
0000
0001
0000
,
0010
0000
1000
0000
,
0010
0100
0001
0000
,
0100
1000
0100
0000
,
0010
0000
0001
0000
,
0100
0000
0001
0000
,
0100
0010
0001
0000
,
0001
1000
0100
0000
,
0100
0000
0001
0000
,
0010
0000
1000
0000
,
0010
0100
0001
1000
,
0010
1000
0001
1000
,
0100
0010
0100
1000
,
0001
1000
0010
1000
,
0100
0010
0100
0010
,
0100
1000
0010
1000
,
0001
0100
0001
0100
,
0010
0100
0010
1000
,
0020
0000
0000
0000
,
0032
0000
0000
0000
,
2003
0000
0000
0000
,
0200
0000
0000
0000
,
0000
0000
0000
0000
,
3300
0000
0000
0000
;

//--------------- dance-single - B. M'Rey ----------------
#NOTES:
     dance-single:
     B. M'Rey:
     Easy:
     6:
     0,0,0,0,0:
0000
0000
0000
0000
,
0000
0000
0000
0000
,
0000
0000
0000
0000
,
0000
0000
0000
0000
,
1000
0000
0001
0000
,
0001
0000
0000
1000
0000
0000
0000
0000
,
1000
0000
0000
0000
0010
0000
0000
0001
,
0000
0000
0000
0000
0000
0100
0000
1000
,
0100
0000
1000
0000
0100
0001
1000
0000
,
0010
0000
0100
0000
0001
0010
1000
0000
,
0001
0000
0010
0000
0100
0001
1000
0000
,
0001
1000
0010
0100
,
0010
0000
1000
0000
0010
0001
0100
0000
,
0001
0000
0010
0000
0001
1000
0100
0000
,
0001
0000
0010
0000
0100
1000
0010
0000
,
0001
0000
0010
0000
0001
1000
0100
0000
,
0001
0000
0010
0000
0100
0001
1000
0000
,
0010
0000
0100
0000
0010
1000
0100
0000
,
0001
0000
0010
0000
0001
1000
0100
0000
,
0001
0000
0010
0000
0100
0001
1000
0000
,
0001
0000
0010
0000
0100
1000
0010
0000
,
0001
0000
0010
0000
0001
0010
1000
0000
,
0100
0000
0010
0000
0100
0001
1000
0000
,
0100
0000
1000
0000
0001
1000
0010
0000
,
2000
0000
0000
0000
,
3020
0032
2003
3020
,
2030
0000
3002
0000
,
2003
3020
0032
0000
,
1003
1001
0001
1001
,
0010
0000
0110
0000
0010
0010
0110
0000
,
1000
1100
0001
0011
,
1000
0000
0000
0000
1010
0000
0000
0000
0001
0000
0010
0000
0101
0000
0000
0010
,
0100
0000
1000
0000
0001
0010
0100
0000
,
0001
0000
1000
0000
0100
0001
1000
0000
,
0010
0100
0010
1000
,
0100
0010
0100
0010
,
0100
0000
1000
0000
0001
1000
0100
0000
,
0010
0000
1000
0000
0010
0001
0100
0000
,
0010
0100
0001
1000
,
0010
1000
0010
1000
,
0100
0000
0010
0000
0001
0010
1000
0000
,
0010
0000
0100
0000
0001
1000
0010
0000
,
0001
1000
0010
0100
,
0010
1000
0010
1000
,
0001
0000
1000
0000
0010
0001
0100
0000
,
0001
0000
1000
0000
0100
0010
1000
0000
,
0001
1000
0010
0100
,
0001
0010
0001
1000
,
1000
0000
0100
0000
0000
0010
0001
0000
,
1000
0000
0100
0000
0000
0100
1000
0000
,
0001
0000
0100
0000
0000
0100
0010
0000
,
0001
1000
0100
0010
,
0001
0000
0010
0000
0000
0100
1000
0000
,
0001
0000
0010
0000
0000
0100
0010
0000
,
0001
0000
0100
0000
0000
0001
1000
0000
,
0001
0000
0010
0000
0000
0010
0100
0000
,
2000
3100
0002
0103
,
2000
3100
0002
0103
,
0020
1030
0200
0310
,
2000
0000
0000
0000
,
0000
0000
0000
0000
,
3000
0000
0000
0000
;

//--------------- dance-single - B. M'Rey ----------------
#NOTES:
     dance-single:
     B. M'Rey:
     Medium:
     8:
     0,0,0,0,0:
0000
0000
0000
0000
,
0000
0000
0000
0000
,
0000
0000
0000
0000
,
0000
0000
0000
0000
,
1000
1000
0001
0001
,
1000
1000
0001
0001
,
0010
0010
0100
0100
,
0010
0010
0100
0100
,
1000
0000
0001
0100
0000
0010
1000
0000
,
0001
0000
0010
0001
0000
1000
0010
0000
,
0100
0000
0001
1000
0000
0100
0010
0000
,
0001
0000
1000
0001
0000
0100
0010
0000
,
0000
1000
0001
0010
0000
0100
1000
0001
,
0010
0000
0001
1000
0000
0010
0100
0000
,
1001
1001
0110
0110
,
2002
0000
0000
0000
0000
0000
0000
3003
,
1000
0000
0001
1000
0000
0010
0100
0001
,
1000
0100
0010
0000
1001
0000
0110
0000
,
1000
0000
0001
0010
0000
0100
1000
0001
,
0010
0100
1000
0000
1100
0000
0011
0000
,
1000
0000
0001
0100
0000
0010
1000
0001
,
0010
0000
0100
1000
0000
0001
0010
0100
,
1000
1000
0001
0001
,
1000
0000
0010
0000
0100
0001
1000
0010
,
0200
0000
0000
0000
,
0302
0000
0000
0000
,
2003
0000
0000
0000
,
3002
0000
0000
0000
,
2003
3001
0002
1003
,
1000
0000
0001
0000
1000
0001
0010
0100
,
1000
0000
0001
1000
0010
0000
0001
0000
,
1000
0100
0010
0000
0001
0100
0010
0001
,
0100
0010
1000
0100
0001
0010
0100
1000
,
0010
0100
0001
0010
0100
1000
0001
0100
,
0010
0100
1000
0001
0010
0100
0001
0010
,
0100
0001
0100
1000
0001
0100
1000
0001
,
0010
1000
0001
0010
1000
0000
1000
0100
,
0010
0100
0010
0001
0010
0100
1000
0100
,
2000
3100
0002
0103
,
0020
0000
0130
0000
1000
0100
0010
0001
,
2000
0010
3001
0000
0200
0010
0310
0000
,
0001
0010
0100
1000
0001
0100
0010
0100
,
0001
1000
0100
0010
0100
0010
0100
1000
,
0100
0010
0100
0001
0100
0010
1000
0100
,
1000
0100
1000
0010
0100
0010
0001
1000
,
0001
0100
0010
1000
0100
0010
0001
0010
,
0100
0001
1000
0010
0100
1000
0001
0010
,
1000
0001
1000
0001
0100
0010
0100
0010
,
0100
0000
1000
0001
0000
0010
0100
0000
,
1001
0000
0100
0010
0000
1000
0001
0000
,
0110
0000
1000
0001
0000
0100
0010
0000
,
1000
1000
0001
0001
,
0001
0001
0000
0000
1000
1000
0000
0000
,
0001
0001
0000
0000
1000
1000
0000
0000
,
1000
1000
0000
1000
1000
0001
0001
0000
,
1000
1000
0000
0000
1000
0100
0010
0001
,
1000
0001
1000
0000
0001
1000
0001
0000
,
0010
0100
0010
0000
0100
0001
1000
0000
,
0001
0100
1000
0000
0010
0001
0010
0000
,
2000
0002
0000
0000
,
0000
0000
0000
0000
,
3003
0000
0000
0000
;

//--------------- dance-single - B. M'Rey ----------------
#NOTES:
     dance-single:
     B. M'Rey:
     Hard:
     9:
     0,0,0,0,0:
0000
0000
0000
0000
,
0000
0000
0000
0000
,
0000
0000
0000
0000
,
0000
0000
0000
0000
,
1000
0100
0010
0000
0000
1000
1001
0000
,
0001
0100
0010
0000
0000
0010
1001
0000
,
1000
0100
0010
0000
0000
0100
1001
0000
,
0001
0100
1000
0000
0000
0001
1001
0010
,
1000
0100
0001
0100
0001
0100
0010
1000
,
1000
0010
0100
0001
0010
0100
0010
1000
,
0010
1000
0010
1000
0001
0100
0001
0100
,
0010
0100
0010
0100
1000
0001
1000
0001
,
0010
1000
0010
0001
0010
1000
0010
0001
,
0100
1000
0100
0001
0100
1000
0100
0001
,
0001
0100
0001
1000
0001
0010
0001
0100
,
1000
0001
0100
0001
2002
0000
0000
3003
,
1000
0000
0100
1000
0100
0000
1000
0000
0100
0000
0010
0000
0001
0000
0010
0000
,
0001
0100
0010
1000
0001
0100
1000
0100
,
0001
0010
1000
0001
0100
1000
0001
0010
,
1000
0001
0100
1000
0001
0010
1000
0001
,
0100
1000
0001
0010
1000
0010
0100
0001
,
1001
0100
0010
0001
1001
0100
0010
1000
,
1001
0100
0010
0001
0100
0010
1000
0100
,
2000
3100
0020
0031
0002
0103
0020
1030
,
0002
0000
0000
0000
,
0203
0000
0000
0000
,
0320
0000
0000
0000
,
2030
0000
0000
0000
0000
0000
0000
0001
,
3002
0000
0013
0000
0010
0100
0020
0000
,
2030
0000
3200
0000
0301
0010
0001
0000
,
0020
0130
2000
3100
,
0010
0100
0010
0000
0001
0010
0001
0000
,
0100
0000
1000
0001
0100
0000
1000
0000
0100
0001
0010
0001
0010
0000
0010
0000
,
0001
0000
0010
1000
0100
0000
1000
0000
0010
0001
0010
0001
0010
0000
1000
0000
,
0001
0010
0001
0000
0100
0000
0010
0000
0001
1000
0001
0000
0001
0000
0100
0000
,
0001
0100
0001
0000
0010
0000
1000
0000
0001
0010
0001
0000
0100
0000
0010
0000
,
0100
0000
0010
1000
0001
0000
1000
0000
0100
0001
1000
0001
1000
0000
1000
0000
,
0001
0000
0100
0010
0001
0000
0100
0000
0001
0100
1000
0100
1000
0000
1000
0000
,
0001
1000
0001
0000
0100
0000
0001
0000
0010
1000
0010
0000
0010
0000
1000
0000
,
0010
1000
0001
0000
0001
0000
0100
0000
0001
0010
0001
0000
0010
0000
0100
0000
,
0010
0000
1000
0001
0010
0000
0100
0000
0010
0100
0010
0100
0001
0000
0010
0000
,
0100
0000
1000
0010
0001
0000
1000
0000
0100
1000
0100
1000
0010
0000
1000
0000
,
0100
0010
0100
0010
0100
0000
0010
0000
0001
1000
0001
1000
0001
0000
0100
0000
,
0010
1000
0010
1000
0010
0000
1000
0000
0001
0000
0010
0000
0100
0000
1000
0000
,
0001
0000
0001
0010
0001
0000
0100
0000
0001
1000
0001
1000
0010
0000
0100
0000
,
0001
0000
0100
0010
0100
0000
0100
0000
0010
1000
0010
1000
0010
0000
0100
0000
,
0001
0100
0001
0100
0010
0000
1000
0000
0010
0100
0010
0100
0001
0000
0100
0000
,
0010
0100
0001
0010
0100
0000
1000
0000
0100
0000
1000
0000
0010
0000
1000
0000
,
1000
0100
1000
0000
0100
0000
0010
0001
0010
0000
0100
0000
1000
0000
0010
0001
,
0010
0100
1000
0100
0010
0001
0010
1000
,
1000
0100
0010
0001
0010
0100
0001
1000
,
0100
1000
0001
0100
1000
0001
0100
1001
,
1000
0100
1000
0000
0100
0000
0010
0001
0010
0000
0100
0000
1000
0000
0010
0001
,
0010
0100
1000
0100
0010
0001
0010
1000
,
1000
0100
0010
0001
0010
0100
0001
1000
,
0100
1000
0001
0100
1000
0001
0100
1001
,
0001
0000
0001
0000
0010
0000
0001
0100
0001
0010
0001
0000
0010
0000
0010
1000
,
0001
0000
0010
0000
0001
0000
0001
0010
0100
0010
0100
0000
0001
0000
0010
0000
,
0100
0000
0010
0000
0001
0000
0001
0010
0100
1000
0100
0000
0100
0000
0001
0000
,
0020
0200
0000
0000
,
0000
0000
0000
0000
,
0330
0000
0000
0000
;
