#VERSION:0.83;
#TITLE:EVERYTIME WE TOUCH (DELACTION MIX);
#ARTIST:CASCADA;
#GENRE:TRANCE;
#MUSIC:EVERYTIME WE TOUCH (DELACTION MIX).ogg;
#BANNER:EVERYTIME WE TOUCH (DELACTION MIX)-bn.png;
#BACKGROUND:EVERYTIME WE TOUCH (DELACTION MIX)-bg.png;
#CDTITLE:./CDTITLES/TRANCE PARADISE KABATORA (COVER TRANCE).PNG;
#SAMPLESTART:59.39;
#SAMPLELENGTH:15;
#OFFSET:-0.439;
#BPMS:0=143;

//--------------- dance-single - B. M'Rey ----------------
#NOTEDATA:;
#STEPSTYPE:dance-single;
#DESCRIPTION:B. M'Rey;
#DIFFICULTY:Beginner;
#METER:2;
#RADARVALUES:0,0,0,0,0;
#NOTES:
0000
0000
0000
0000
,
0000
0000
0000
0000
,
0000
0000
0000
1000
,
0000
0000
0000
0001
,
0000
0000
0000
0100
,
0000
0000
0000
0010
,
0000
0000
0000
1000
,
0000
0001
0000
0100
,
0000
0000
0000
0010
,
0000
0100
0000
0001
,
0000
0000
0000
1000
,
0000
0010
0000
1000
,
0000
0000
0000
0100
,
0000
0010
0000
1000
,
0000
0000
0000
0001
,
0000
0100
0000
0010
,
0000
0000
0000
0001
,
0000
0000
0000
1000
,
0000
0000
0000
1001
,
0000
0000
0000
0010
,
0000
0000
0100
0001
,
0000
0000
0010
1000
,
0000
0000
0000
0010
,
0000
0000
0000
0100
,
0000
0000
0001
0010
,
0000
0000
1000
0000
,
0000
0000
0000
0001
,
0000
0000
0100
0010
,
0000
0000
1000
0001
,
0000
0000
0010
0100
,
0000
0000
0001
1000
,
0000
0000
0000
0010
,
0000
0000
0100
0001
,
0000
0000
1000
0000
,
0001
0000
0000
1001
,
0000
0000
0000
1000
,
0000
0010
0000
0100
,
0000
0001
0001
0001
,
0000
0010
0000
0100
,
0000
1000
0001
1000
,
0000
0010
0000
0100
,
0000
0001
0000
1000
,
0000
0000
0000
0001
,
0000
0000
0000
0100
,
0000
0000
0000
0010
,
0000
0000
0000
1000
,
0000
0000
0000
0001
,
0000
0000
0000
0010
,
0000
0000
0000
0100
,
0000
0000
0000
0010
,
0000
0000
0000
1000
,
0000
0000
0000
0001
,
0000
0000
0000
0100
,
0000
0000
0000
0010
,
0000
0000
0000
1000
,
0000
0000
0000
0001
,
0000
0000
0000
0100
,
0000
0000
0000
0010
,
0000
0000
0000
1000
,
0000
0000
0000
0001
,
0000
1000
0000
0010
,
0000
0100
0100
0100
,
0000
0010
0000
1000
,
0000
0001
0001
0010
,
0000
0100
0000
0010
,
0000
1000
0000
1001
,
0000
0000
0000
0000
,
0000
0000
0000
1001
;

//--------------- dance-single - B. M'Rey ----------------
#NOTEDATA:;
#STEPSTYPE:dance-single;
#DESCRIPTION:B. M'Rey;
#DIFFICULTY:Easy;
#METER:5;
#RADARVALUES:0,0,0,0,0;
#NOTES:
0000
0000
0000
0000
,
0000
0000
0000
0000
,
0000
0010
0100
0010
,
0100
0010
1000
0100
,
0010
0000
1000
0000
,
1000
0001
1000
0001
,
0000
0001
0000
0010
,
0100
0001
0010
0001
,
0010
0001
1000
0010
,
0000
0001
0000
1000
,
0000
0010
0000
1000
,
1000
0010
0100
0001
,
1000
0000
0100
0000
,
1000
0100
1000
0001
,
0000
0010
0000
0001
,
0000
0010
0000
0100
,
0000
1000
0000
0010
,
0000
0100
0000
1000
,
0000
0001
0000
1010
,
0000
0000
0000
0010
,
0100
0010
1000
0010
,
0000
0001
1000
0010
,
0000
0100
0010
0100
,
0000
0001
1000
0001
,
0100
0001
1000
0100
,
0000
0100
0010
0000
,
1000
0010
0100
0001
,
0100
0001
0010
0001
,
0000
0010
1000
0001
,
0000
0001
0100
0001
,
0000
0010
1000
0100
,
0000
0010
0100
0001
,
0000
0001
0010
0100
,
0000
0100
0010
0000
,
0200
0000
0000
0310
,
0000
0100
1000
0100
,
0000
0100
1000
0001
,
0000
0100
0010
0001
,
0100
0000
1000
0000
,
0100
0010
0100
0001
,
0010
0001
0000
0001
,
1000
0010
0000
0100
,
0000
1000
0000
0001
,
0000
0010
0000
0001
,
0100
0001
1000
0100
,
0000
1000
0000
0001
,
0010
0001
1000
0010
,
0000
0010
0000
0001
,
0000
0100
0000
1000
,
0000
0100
0000
0100
,
1000
0010
0000
0010
,
0100
0001
0000
0001
,
1000
0001
1000
0100
,
0000
0001
0000
0100
,
0000
0001
0010
0100
,
0000
0001
0000
1000
,
0000
0001
0000
0010
,
0000
0001
0100
0001
,
0000
0100
0000
0010
,
0000
0100
1000
0001
,
0000
0001
0100
0001
,
0000
0100
0010
0100
,
0000
0001
1000
0001
,
0000
0001
1000
0010
,
1000
0010
0000
0001
,
1000
0010
0000
0001
,
0000
1000
0000
0200
,
0000
0010
0010
0301
;

//--------------- dance-single - B. M'Rey ----------------
#NOTEDATA:;
#STEPSTYPE:dance-single;
#DESCRIPTION:B. M'Rey;
#DIFFICULTY:Medium;
#METER:9;
#RADARVALUES:0,0,0,0,0;
#NOTES:
0000
0000
0000
0000
,
0000
0000
0000
0000
,
0000
0000
0100
0000
0100
0000
0010
0100
,
0000
1000
0000
0000
0001
0000
0100
0000
0010
0000
0000
0000
0001
0000
0100
0000
,
0000
0001
0000
0000
0100
0000
0000
1000
0000
0000
0100
0000
0000
0000
0010
0000
,
0000
0010
0001
0010
0001
1000
0010
1000
,
0000
0010
0000
0000
0001
0000
0000
0100
0000
0000
1000
0000
0010
0000
0100
0000
,
0010
0000
0100
0010
0001
0000
0001
1000
,
0100
0000
1000
0000
0000
1000
0000
0000
0010
0000
0100
0000
0001
0000
0000
0001
,
0000
0000
1000
0000
0010
0000
0000
0100
0000
0000
0100
0000
0010
0000
0100
0000
,
0000
0001
0000
0000
0010
0000
0000
0100
0000
0000
0001
0000
0000
0000
0100
0000
,
0000
1000
0000
0000
0001
0000
1000
0000
0100
0000
0000
0000
0100
0000
0010
0000
,
0000
0100
0000
0000
0001
0000
0000
1000
0000
0000
0010
0000
0000
0000
1000
0000
,
0000
1000
0010
0100
0010
0100
0001
0100
,
0000
1000
0000
0000
0001
0000
0000
0100
0000
0000
1000
0000
0010
0000
0100
0000
,
0010
0000
0010
0100
0001
0000
0001
0010
,
0100
0000
1000
0000
0000
0010
0000
0000
1000
0000
0000
0000
0100
0000
0000
0000
,
0010
0000
0001
0000
1000
0000
0001
0010
,
0000
1000
0000
0000
0010
0000
0000
0100
0000
0000
1000
0000
0202
0000
0000
0000
,
0000
0000
0000
0000
0000
0303
0010
0000
,
0001
1000
0000
0010
0100
0000
0001
0000
,
0010
0100
0000
0010
0100
0000
1000
0000
,
0100
0010
0000
1000
0010
0000
0010
0000
,
0001
0100
0010
0000
0100
0000
1000
0000
,
0010
0100
0000
0100
0001
0000
0010
0000
,
0100
0010
0000
0100
0010
0000
0001
1000
,
0001
0000
0001
1000
0010
0000
0001
1000
,
0100
0000
0001
0100
0010
0000
0100
0000
,
0001
0010
0000
1000
0100
0000
0100
0000
,
0010
0100
0000
0010
0001
0000
0001
0000
,
0100
1000
0000
1000
0100
0000
0010
0100
,
0001
0100
0010
0100
0010
0000
0100
0000
,
0001
0010
0000
0010
0001
0000
0010
0000
,
0100
0010
0000
0010
0100
0000
0010
0100
,
0002
0010
0010
0013
,
0000
0001
0010
0100
0001
0100
0001
0000
,
0001
1000
0010
0000
0010
0100
0000
0100
,
0000
1000
0010
1000
0010
1000
0100
0000
,
0001
0100
0000
1000
0001
0100
0000
0010
,
0100
0000
0100
1000
0001
0100
0010
0000
,
0001
0000
0010
0000
0100
1000
0010
1000
,
0001
0100
0000
0010
0100
0000
0001
0000
,
0100
1000
0000
0010
0000
2000
0000
0000
,
0000
3001
0100
0000
0100
0000
0001
0100
,
0000
0010
0000
0000
0001
0000
0010
0000
0100
0000
0000
0000
0001
0000
1000
0000
,
0000
0001
0000
0000
0010
0000
0000
0100
0000
0000
1000
0000
0000
0000
0100
0000
,
0000
1000
0010
1000
0001
0100
0010
1000
,
0000
0010
0000
0000
0100
0000
0000
0010
0000
0000
1000
0000
0010
0000
1000
0000
,
0100
0000
0100
1000
0010
0000
0100
1000
,
0010
0000
0100
0000
0000
1000
0000
0000
0001
0000
0100
0000
0010
0000
0000
0100
,
0000
0000
0001
0000
0010
0000
0000
1000
0000
0000
0001
0000
0100
0000
1000
0000
,
0000
0001
0000
0000
0100
0000
0000
0010
0000
0000
0100
0000
0001
0000
0000
0100
,
0000
1000
0001
0100
0010
0000
0010
0100
,
0000
0010
0000
0000
0100
0000
0000
1000
0000
0000
0010
0000
0000
0000
0100
0000
,
0000
0100
0010
0100
0010
0100
0001
1000
,
0000
0100
0000
0000
0001
0000
0000
0100
0000
0000
1000
0000
0010
0000
1000
0000
,
0100
0000
0001
0100
0010
0000
0010
0100
,
0001
1000
0000
0001
0000
1000
0010
0100
,
0000
0100
0000
0000
0001
0000
1000
0000
0000
0010
0000
0000
0001
0000
0010
0000
,
0100
0010
0100
1000
0001
1000
0100
0000
,
0001
0010
0001
0000
0010
0100
0000
0100
,
0000
1000
0100
0010
0001
0100
0001
0000
,
0001
0100
0000
1000
0001
1000
0100
0000
,
0100
0000
0001
0100
0010
0100
0010
0000
,
0001
0000
0100
0000
0001
0010
0100
0010
,
0100
0010
0000
1000
0010
0000
0001
0000
,
0100
1000
0000
0100
0000
0010
0000
0100
,
0010
0000
0001
1000
0100
0000
0220
0000
,
0000
0000
0000
0000
,
0330
0000
0000
0000
;

//--------------- dance-single - B. M'Rey ----------------
#NOTEDATA:;
#STEPSTYPE:dance-single;
#DESCRIPTION:B. M'Rey;
#DIFFICULTY:Hard;
#METER:14;
#RADARVALUES:0,0,0,0,0;
#NOTES:
0000
0000
0000
0000
,
0000
0000
0000
0000
,
0000
0000
1000
0000
0010
0000
1000
1000
,
0010
0001
0000
0100
0010
0000
0100
0001
0000
0001
1000
0000
1000
0000
0100
0000
,
1000
0001
0000
1000
0010
0000
0100
0010
0000
0010
0100
0000
0010
0000
0100
0000
,
0001
0010
0000
0001
0010
0000
0010
0001
0000
0010
1000
0000
1000
0000
0100
0000
,
1000
0010
0000
0100
1000
0000
0010
0100
0000
0001
0010
0000
1000
0100
0010
0100
,
0000
0100
1000
0000
1000
0001
1000
0010
0000
0010
0100
0000
1000
0000
0001
0000
,
1000
0000
0100
0000
0100
0010
0000
0000
0001
0000
0010
0100
0010
0000
0100
0010
,
0000
0001
1000
0000
1000
0100
0000
0001
0100
0000
0100
0010
1000
0010
0001
0000
,
1000
0001
0000
0010
0100
0000
1000
0001
0000
0001
0010
0000
0010
0000
0001
0000
,
1000
0001
0000
0001
0010
0000
0010
0100
0000
0001
0100
0000
0100
0000
0010
0000
,
0010
0100
0000
0010
0100
0000
1000
0010
0000
0100
1000
0000
0010
0000
1000
0000
,
1000
0010
0000
0100
0010
0000
0010
0100
0000
0001
0010
0000
0010
0000
0100
0000
,
0100
0001
0000
0001
0010
0000
0010
0100
0000
0100
0010
0000
1000
0100
1000
0100
,
0000
0001
0010
0000
0010
0001
1000
0010
0000
0010
1000
0000
0010
0000
0001
0000
,
0100
0000
1000
0000
0000
0010
0000
0000
0100
0000
1000
0001
0100
0000
0001
0000
,
0000
0100
0000
0000
0010
0000
0000
0001
0000
0000
1000
0000
0100
0000
0001
0100
,
0000
1000
0100
0000
1000
0010
0000
0001
0100
0000
1000
0001
2000
0000
0000
0000
,
0000
0000
0000
0000
3010
0000
1000
0010
,
1000
0010
1000
0001
0100
0001
0100
0001
,
0010
0100
0010
0100
0010
0001
0100
0010
,
0100
0010
0100
0001
1000
0001
0100
0001
,
0010
0100
1000
0100
1000
0100
0010
0001
,
0010
0100
0010
0100
1000
0100
1000
0001
,
1000
0001
0010
0001
0010
0100
0010
0100
,
1000
0100
1000
0001
1000
0001
0100
0001
,
0100
0010
0100
0010
1000
0001
1000
0001
,
1000
0010
0100
0010
0100
0010
1000
0001
,
1000
0010
1000
0010
0100
0010
0100
0001
,
0100
0001
1000
0100
1000
0100
1000
0010
,
0100
0010
1000
0010
1000
0100
1000
0100
,
0010
0100
0010
0001
0010
0001
1000
0001
,
1000
0100
1000
0100
0010
0001
0010
0001
,
0010
0100
1000
0100
1000
0010
1001
0000
,
0000
0000
0000
0000
0000
0000
1000
0001
,
0100
0001
0100
0001
0010
0100
0010
0100
,
0010
0001
1000
0001
1000
0001
0100
0010
,
0100
0010
1000
0010
0100
0001
1000
0001
,
0010
0000
0001
0000
0010
0000
0100
0000
0010
0000
0100
0001
1000
0000
0100
0000
,
1000
0010
1000
0001
0100
0001
0100
0001
,
1000
0010
1000
0010
1000
0001
0100
0000
,
1000
0100
0000
0100
0000
0010
0100
0000
,
1000
0000
1000
0001
1000
0000
0010
0000
0001
0000
1000
0000
0001
0000
0001
0000
,
0010
1000
0000
0100
0010
0000
0100
1000
0000
1000
0001
0000
0001
0000
0100
0000
,
0001
1000
0000
0001
0010
0000
0100
0010
0000
0010
0100
0000
0010
0000
0100
0000
,
1000
0010
0000
1000
0010
0000
0010
1000
0000
0010
0001
0000
0001
0000
0100
0000
,
0001
0010
0000
0100
0001
0000
0010
0100
0000
1000
0010
0000
0001
0100
0010
0100
,
0000
0100
0001
0000
0001
1000
0001
0010
0000
0010
0100
0000
0001
0000
1000
0000
,
0001
0000
0100
0000
0100
0010
0000
0000
1000
0000
0010
0100
0010
0000
0100
0010
,
0000
1000
0001
0000
0001
0100
0000
1000
0100
0000
0100
0010
0001
0010
1000
0000
,
0001
1000
0000
0010
0100
0000
0001
1000
0000
1000
0010
0000
0010
0000
1000
0000
,
0001
1000
0000
1000
0010
0000
0010
0100
0000
1000
0100
0000
0100
0000
0010
0000
,
0010
0100
0000
0010
0100
0000
0001
0010
0000
0100
0001
0000
0010
0000
0001
0000
,
0001
0010
0000
0100
0010
0000
0010
0100
0000
1000
0010
0000
0010
0000
0100
0000
,
0100
1000
0000
1000
0010
0000
0010
0100
0000
0100
0010
0000
0001
0100
0001
0100
,
0000
1000
0010
0000
0010
1000
0001
0010
0000
0010
0001
0000
0010
0000
1000
0000
,
0100
0000
0001
0000
0000
0010
0000
0000
0100
0000
0001
1000
0100
0000
1000
0000
,
0000
0100
0000
0000
0010
0000
0000
1000
0000
0000
0001
0000
0100
0000
1000
0000
,
0000
0001
0000
0000
0001
0000
0010
0000
0100
0000
1000
0000
0100
0000
0001
0000
,
0010
0001
0010
0001
1000
0010
1000
0010
,
1000
0100
0010
0001
1000
0100
1000
0010
,
1000
0010
0100
0010
0100
0001
0100
0001
,
1000
0000
0001
0000
1000
0000
0100
0000
0010
0000
0100
0010
0100
0000
0100
0000
,
1000
0001
0010
0001
1000
0001
1000
0010
,
1000
0010
0100
0010
0100
0001
0100
0000
,
1000
0001
0000
0100
0000
0100
0010
0100
,
0010
0000
0001
0000
0010
0001
0010
0001
0010
0001
0010
0001
0020
0000
0000
0000
,
0030
0000
0000
0000
;
