#VERSION:0.83;
#TITLE:ETERNAL FLAME (Definitive Mix);
#ARTIST:ROCHELLE;
#GENRE:EURODANCE;
#MUSIC:ETERNAL FLAME (Definitive Mix).ogg;
#BANNER:ETERNAL FLAME (Definitive Mix).png;
#BACKGROUND:ETERNAL FLAME (Definitive Mix)-bg.png;
#CDTITLE:./CDTITLES/DANCEMANIA 22 (ENERGY OVERLOAD).PNG;
#SAMPLESTART:45.455;
#SAMPLELENGTH:15;
#OFFSET:1.760;
#BPMS:0=132;

//--------------- dance-single - B. M'Rey ----------------
#NOTEDATA:;
#STEPSTYPE:dance-single;
#DESCRIPTION:B. M'Rey;
#DIFFICULTY:Beginner;
#METER:2;
#RADARVALUES:0,0,0,0,0;
#NOTES:
0000
0000
0000
0000
,
0000
0000
0000
0000
,
0000
0000
0000
0000
,
0000
0001
0000
0100
,
0000
0010
0000
1000
,
1000
0000
0010
0000
,
0100
0000
0001
0010
,
0001
0000
0010
0000
,
0100
0000
0010
0000
,
1000
0000
0001
1000
,
0010
0000
0100
0000
,
0001
0000
0010
0000
,
1000
0000
0001
1000
,
0010
0000
0100
0000
,
0001
0000
1000
0000
,
0010
0000
0100
0010
,
0001
0000
0000
0000
,
1000
0000
0010
0000
,
0100
0000
0001
0000
,
1000
0000
0010
0000
,
0100
0000
0010
0000
,
1000
0000
0001
0000
,
0010
0000
0100
0000
,
0010
0000
1000
0000
,
0001
0000
0010
0000
,
0001
0000
0000
0000
,
1000
0000
0010
0000
,
0100
0000
0010
0000
,
1000
0000
0001
0000
,
0010
0000
0001
1000
,
0010
0000
0100
0000
,
0010
0000
1000
0001
,
0010
0000
0100
0000
,
1000
0000
1001
0000
,
0010
0000
0101
0000
,
0010
0000
1000
0000
,
0010
0000
0100
0000
,
0001
0000
0010
0000
,
0001
0000
1000
0000
,
0010
0000
0100
0000
,
0010
0000
1000
0001
,
0010
0000
0100
0000
,
0001
0000
1000
0000
,
0010
0000
0100
0000
,
0001
0000
1000
0000
,
0010
0000
0100
0000
,
0010
0001
1000
0000
,
0010
0000
0100
0000
,
0001
0000
1000
0000
,
0010
0000
0100
0000
,
0001
0000
1000
0000
,
0010
0000
0100
0000
,
1001
0000
0000
0000
;

//--------------- dance-single - B. M'Rey ----------------
#NOTEDATA:;
#STEPSTYPE:dance-single;
#DESCRIPTION:B. M'Rey;
#DIFFICULTY:Easy;
#METER:6;
#RADARVALUES:0,0,0,0,0;
#NOTES:
0000
0000
0000
0000
,
0000
0000
0000
0000
,
0000
0000
0000
0000
,
0000
1000
0001
0010
,
0000
1000
0000
0000
0010
0000
1000
0000
,
0101
1000
0100
1100
,
0000
0000
1000
0100
,
2002
3003
0100
0000
,
1000
0010
0002
1003
,
0010
0001
2000
3010
,
0001
1000
1100
0000
,
1000
0000
0001
0000
0101
0000
1000
0100
,
0000
1000
0010
0100
,
0001
0000
1000
0100
,
1000
0000
0001
0000
0002
0000
0100
0003
,
0000
0001
0100
0010
,
2000
0000
3100
1000
,
0100
0000
0010
0000
0001
1000
0000
0000
,
0010
0000
0001
0000
1000
0010
0000
0000
,
1001
0000
1000
0100
1000
0000
0000
0000
,
0010
0001
1000
0010
,
0110
0000
0000
0100
0001
0000
0000
0001
,
0010
0010
0100
0100
,
1000
0001
1000
0001
,
0100
0000
0010
0000
,
1001
0000
0000
0000
,
1000
1000
1000
1000
,
0001
0001
0001
1001
,
0000
0010
0010
0010
,
0100
0100
0100
0110
,
0000
1000
0001
0010
,
1001
0000
0010
0100
,
0110
0000
1001
0000
,
1000
0000
0010
0000
,
0001
0000
1000
0000
,
0010
1000
0010
1000
,
0010
1000
0010
1000
,
0001
0100
0001
0100
,
0001
0100
0001
0100
,
0010
0001
0010
0001
,
0010
0001
0010
0001
,
1000
0100
1000
0100
,
0020
0000
0000
0030
,
0001
1000
0001
0000
,
1001
0100
1000
0100
,
0001
0100
1000
0100
,
0001
0101
1000
1100
,
0001
0011
1000
1010
,
0001
0010
1000
0010
,
0001
0010
1000
0010
,
0001
0101
1000
1100
,
0001
0011
1000
1010
,
1100
0000
0000
0000
;

//--------------- dance-single - B. M'Rey ----------------
#NOTEDATA:;
#STEPSTYPE:dance-single;
#DESCRIPTION:B. M'Rey;
#DIFFICULTY:Medium;
#METER:9;
#RADARVALUES:0,0,0,0,0;
#NOTES:
0000
0000
0000
0000
,
0000
0000
0000
0000
,
0000
0000
0000
0000
,
0000
0000
0001
1000
0001
1000
0001
0010
,
0000
0100
0000
0000
0001
1000
0001
1000
,
0100
0000
0100
0010
0100
0000
0001
0100
,
0000
0010
0001
0000
0010
0100
0010
0100
,
0002
0000
0103
0000
,
0100
0000
0001
0000
0001
0010
0000
0000
,
0001
0000
0010
0000
0001
0100
0000
0100
,
0010
0000
0001
1000
0001
0000
0001
0000
,
0100
1000
0010
0200
0000
0300
0010
2000
,
0000
3000
0001
1000
0010
0100
0010
0100
,
0000
1000
0000
1000
0100
0000
0001
0010
,
0001
0000
0010
0100
0010
0000
0010
1000
,
0000
1000
0100
0000
0100
0010
0001
0010
,
0001
0100
0010
1000
,
0010
0000
0100
0000
0100
0010
0000
0010
,
0001
0000
0100
0000
0100
1000
0000
1000
,
0100
0000
0001
0100
0001
0000
0001
0000
,
0010
1000
0010
1000
0001
0000
0001
0100
,
0001
0000
0000
0100
0001
0010
0000
0010
,
0100
0000
0001
0100
0010
0000
0001
0100
,
0001
0000
0100
0010
0001
0010
0100
1000
,
0200
0000
0302
0000
,
0013
0000
1000
0000
,
0001
0000
0100
0010
0001
0000
0001
0000
,
0100
1000
0001
1000
0000
1000
0100
0010
,
0000
0010
0100
0000
0001
0010
0001
0010
,
0000
1000
0000
0000
0010
0100
0010
1000
,
0001
0000
0001
1000
0100
0000
0100
0020
,
0000
0000
1030
0000
0001
1000
0100
0010
,
0002
0000
2003
0000
,
3010
0000
0101
0000
0010
1000
0000
0000
,
1001
0000
1001
0000
0001
0100
0000
1000
,
0010
0000
0001
0100
0001
0000
0001
0000
,
0010
1000
0001
1000
0000
0010
0001
1000
,
0000
0000
0001
1000
0001
0010
0001
0010
,
0000
0100
0000
0000
0010
0100
0010
0100
,
0001
0000
0001
0010
0100
0000
0100
0010
,
0000
1000
0010
0000
0010
0100
0010
1000
,
0200
0000
0320
0000
,
0031
1000
0001
0000
0001
0010
0100
0000
,
1100
0000
1100
0000
0001
0020
0000
0000
,
0031
0000
0010
1000
0010
0000
0010
1000
,
0001
0000
0001
1000
0001
0000
0100
1000
,
0100
0000
0100
1000
0010
0000
0010
1000
,
0001
0000
0001
0100
0001
0000
0100
0010
,
0100
0000
0001
1000
0001
0000
0001
0100
,
0010
0000
0010
1000
0010
0000
0001
0010
,
0100
0000
0100
0010
0001
0000
0001
1000
,
0100
0000
0010
0100
0010
0000
0010
1000
,
0001
0000
0000
0000
;

//--------------- dance-single - B. M'Rey ----------------
#NOTEDATA:;
#STEPSTYPE:dance-single;
#DESCRIPTION:B. M'Rey;
#DIFFICULTY:Hard;
#METER:12;
#RADARVALUES:0,0,0,0,0;
#NOTES:
0000
0000
0000
0000
,
0000
0000
0000
0000
,
0000
0000
0000
0000
,
0000
0000
0001
0100
0001
0100
0001
0010
,
0000
0000
1000
0000
0000
0000
0010
0000
0001
0000
1000
0000
0001
0000
1000
0010
,
0000
0100
0010
1000
0001
0100
0001
0100
,
0001
0000
0100
0000
0100
1000
0100
1000
,
0002
0023
0230
2300
,
3001
1000
0001
1000
0010
0100
0000
0000
,
0010
1000
0001
0100
0001
1000
0000
0100
,
0000
0100
0010
1000
0100
0000
0100
0010
,
0100
1000
0001
1000
0000
0010
0001
0010
,
0000
0010
0100
1000
0100
1000
0001
1000
,
0000
0010
0000
0010
0100
0010
0100
1000
,
0001
0000
0010
1000
0010
0000
0001
0200
,
0000
0300
0010
0000
0010
1000
0010
0100
,
0001
0000
0001
0100
0010
0000
0100
0000
,
0010
1000
0100
0010
0001
0010
0000
0010
,
0100
1000
0010
1000
0010
1000
0000
0010
,
0000
0010
0001
0010
0100
0000
1000
0000
,
0010
0100
0010
0100
0001
0000
0001
0010
,
0001
0000
0010
0100
0001
0000
0001
0010
,
0001
0010
0100
0010
0100
0000
0100
0010
,
0001
0000
0001
1000
0001
1000
0010
1000
,
0010
0000
0010
0100
0001
0000
0001
0010
,
0002
0203
0320
2030
,
3001
0010
0001
0010
0001
1000
0100
1000
,
0100
1000
0001
0100
0001
0100
0001
0010
,
0100
0010
0100
0010
0001
0100
0001
0010
,
0100
1000
0100
0010
0100
0010
0001
0100
,
0001
0010
0001
1000
0100
1000
0100
1000
,
0001
0010
0001
0010
0001
1000
0100
1000
,
2000
3001
0020
0031
,
0010
0100
0010
0100
0010
1000
0000
1000
,
0100
1000
0010
0100
0010
0100
0000
1000
,
0200
0000
1300
0010
0001
1000
0001
1000
,
0001
0100
0010
0100
0010
0100
0001
1000
,
0010
1000
0010
1000
0001
0010
0001
0010
,
0001
0100
0010
0100
0010
0100
0001
1000
,
0010
1000
0100
1000
0010
0100
0001
0100
,
0001
1000
0100
1000
0010
1000
0100
0010
,
0200
0000
1300
0010
0002
0000
0103
0000
,
0100
1000
0100
0010
0001
0010
0001
0010
,
0100
1000
0100
0010
0100
0010
0001
0100
,
0001
0000
0010
0000
0100
0000
1000
0100
1000
0000
1000
0000
0001
0000
0010
0001
,
0100
0000
1000
0000
0100
0000
1000
0010
0100
0000
0010
0000
0001
0000
0010
1000
,
0001
0000
0100
0000
0001
0000
0100
0001
0010
0000
0100
0000
1010
0000
0000
0000
,
1010
0000
0100
1000
0100
0010
0100
0010
,
0011
0000
0011
0000
0001
0100
0010
0100
,
1010
0000
1010
0000
0001
0100
0001
0100
,
1001
0000
1010
0000
0010
0100
0010
1000
,
0101
0000
0011
0000
0001
1000
0100
1000
,
0110
0000
0000
0000
;
