#TITLE:ESTA VEZ;
#SUBTITLE:;
#ARTIST:SARA VALENZUELA;
#TITLETRANSLIT:;
#SUBTITLETRANSLIT:;
#ARTISTTRANSLIT:;
#GENRE:;
#CREDIT:;
#MUSIC:Esta vez.ogg;
#BANNER:Esta vez.png;
#BACKGROUND:Esta vez-bg.png;
#CDTITLE:./CDTITLES/LICENSED MUSIC.PNG;
#SAMPLESTART:45.324;
#SAMPLELENGTH:12.000;
#SELECTABLE:YES;
#OFFSET:-0.161;
#BPMS:0.000=126.961;
#STOPS:;
#BGCHANGES:;
#FGCHANGES:;

//--------------- dance-single - B. M'Rey ----------------
#NOTES:
     dance-single:
     B. M'Rey:
     Beginner:
     1:
     0,0,0,0,0:
0000
0000
0000
0000
,
0000
0000
0000
0000
,
0000
0000
0000
0000
,
0000
0000
0000
0000
,
1000
0000
0000
0000
,
0010
0000
0000
0000
,
0100
0000
0000
0000
,
0001
0000
0000
0000
,
1000
0000
0000
0000
,
0010
0000
0000
0000
,
0100
0000
0000
0000
,
1000
0000
0000
0000
,
0001
0000
0001
0000
,
1000
0000
1000
0000
,
0010
0000
0010
0000
,
0100
0000
0100
0000
,
0001
1000
0001
0000
,
0010
0100
0010
0000
,
1000
0000
0001
0000
,
0100
0000
0000
0000
,
0010
1000
0001
0000
,
0100
0010
1000
0000
,
0010
0100
0001
0000
,
1000
0000
0001
0000
,
1000
0010
0100
0000
,
0010
0100
0001
0000
,
1000
0000
0001
0000
,
0100
0000
0010
0000
,
1001
0000
0000
0000
,
0100
0000
0000
0000
,
0010
0000
0000
0000
,
0001
0000
0000
0000
,
1010
0000
0000
0000
,
0100
0000
0000
0000
,
0010
0000
0000
0000
,
1000
0000
0000
0000
,
0001
0000
0000
0000
,
0100
0000
0000
0000
,
0010
0000
0000
0000
,
1000
0000
0000
0000
,
0100
0000
1000
0000
,
0100
0000
0001
0000
,
0010
0000
0001
0000
,
0100
0000
0010
0000
,
0100
0000
1000
0000
,
0010
0000
0100
0000
,
0010
0000
0001
0000
,
1000
0000
0001
0000
,
1001
0000
0000
0000
,
0010
0000
0000
0000
,
0100
0000
0000
0000
,
0001
0000
0000
0000
,
1000
0000
0000
0000
,
0010
0000
0000
0000
,
0100
0000
0000
0000
,
2000
0000
0000
0000
,
3000
0000
0000
0000
;

//--------------- dance-single - B. M'Rey ----------------
#NOTES:
     dance-single:
     B. M'Rey:
     Easy:
     2:
     0,0,0,0,0:
0000
0000
0000
0000
,
0000
0000
0000
0000
,
0000
0000
0000
0000
,
0000
0000
0000
0000
,
0001
0010
0001
0010
,
0001
0200
0000
0300
,
0010
0100
0001
1000
,
0002
0000
1003
0100
,
0010
0200
0000
0001
,
0000
1000
0300
0010
,
0001
0010
0100
0010
,
0100
1000
0000
1000
,
0010
1000
0000
0100
,
0000
0010
0000
0100
,
0001
1000
0100
1000
,
0010
0000
0001
0010
,
0001
0100
0000
1000
,
0000
0010
0000
1000
,
0100
0010
0100
0010
,
0100
0000
0001
0000
,
0001
0100
0001
0010
,
0100
0010
0100
0000
,
0001
1000
0002
0000
,
0000
0000
0003
0100
,
0010
1000
0010
1000
,
0001
1000
0001
0000
,
0001
0000
0010
0000
0200
0000
0000
0320
,
0000
0000
0000
0000
,
0031
0000
0010
0000
,
0001
0000
0010
0000
,
0100
0000
1000
0000
,
0001
0000
0100
0000
,
0010
0100
0010
0000
,
0001
1000
0002
0000
,
0000
0000
0000
2003
0000
0000
0000
0000
,
0000
3000
0001
0000
0000
0000
1000
0000
,
0010
0000
0001
0000
,
0100
0000
0001
1000
,
0100
0000
0010
0000
,
0100
0000
0001
0010
,
0001
0000
0100
0000
,
0010
1000
0010
2000
,
0000
0000
0000
3002
0000
0000
0000
0000
,
0000
0103
0010
0000
,
1000
0000
0001
1000
,
0001
0010
0001
0020
,
0000
0000
0000
0230
0000
0000
0000
0000
,
0301
1000
0010
1000
,
0010
0000
0010
0000
,
0001
0000
0010
1000
,
0010
0000
0010
0000
,
0001
0000
0001
0100
,
0010
0000
1000
0000
,
0010
0000
0001
0000
,
1000
0000
0001
0000
,
0200
0000
0000
0000
,
0300
0000
0000
0000
;

//--------------- dance-single - B. M'Rey ----------------
#NOTES:
     dance-single:
     B. M'Rey:
     Medium:
     5:
     0,0,0,0,0:
0000
0000
0000
0000
,
0000
0000
0000
0000
,
0000
0000
0000
0000
,
0000
0000
0000
0000
,
0010
0000
0001
0000
0001
0010
0001
0100
,
0010
0000
0100
0000
0001
0010
0100
1000
,
0100
0000
0001
0000
0100
0000
0010
0100
,
0010
0000
0010
1000
0001
0100
0010
1000
,
0010
0000
0002
0000
0010
0000
0100
1000
,
1003
0000
0001
0000
0010
0000
0010
1000
,
0100
1000
0000
0010
0000
0001
0000
0010
,
0001
0100
1000
0000
0100
0000
0001
0010
,
0100
0000
0001
0000
0001
1000
0100
0000
,
0001
0000
0010
0000
0100
1000
0100
1000
,
0100
0001
0000
1000
0000
0010
0000
2000
,
0000
0001
0000
0010
3001
0000
0001
0010
,
0001
0000
0010
0000
0001
0100
0001
0010
,
0001
0000
0010
0000
0010
1000
0010
0100
,
0001
0001
0000
1000
0000
0100
0000
1000
,
0000
0001
0000
1000
0000
0010
0000
0001
,
0100
0010
0001
0000
0010
0100
0001
0000
,
0001
1000
0000
0100
0000
0001
0000
1000
,
0001
0000
0010
0100
0000
1000
0010
0000
,
0001
1000
0001
0000
0100
1000
0000
0010
,
0001
0010
0001
0000
0100
1000
0100
0000
,
0100
0010
0001
0100
0000
0010
0000
1000
,
0100
1000
0001
0020
0000
0100
0000
0230
,
0010
0000
0001
0000
0001
0000
0010
0300
,
0001
0010
0001
0010
,
0001
1000
0100
1000
,
0010
1000
0010
0100
,
0010
0100
0001
0100
,
0001
0000
0001
0200
0010
0000
0310
0000
,
0010
1000
0000
0010
0000
0200
0000
0010
,
0001
0000
0010
0301
0000
1000
0100
0000
,
0001
0000
0100
1000
0000
1000
0010
0000
,
0001
0000
0100
0010
0000
0100
0010
0000
,
0100
0000
0010
0100
0000
0100
0001
0000
,
1000
0000
0010
0100
0000
0100
0001
0000
,
1000
0000
0001
0100
0010
0100
0010
0100
,
0001
0000
0001
1000
0000
0100
0010
0000
,
0001
1000
0000
0010
0000
2000
0010
0000
,
0010
0000
0001
3200
0000
0010
0001
0000
,
0010
0000
0010
0301
0000
0100
0010
0100
,
0001
0000
0001
1000
0000
1000
0010
0000
,
0100
0010
0000
0100
0000
2000
0010
0000
,
0010
0000
0010
3200
0000
0010
0001
0000
,
0301
0000
0100
1000
0001
1000
0001
0100
,
0001
0000
0010
1000
0000
1000
0001
0000
,
0100
0000
0100
1000
0100
0010
0001
1000
,
0100
0000
0100
1000
0000
0100
0010
0000
,
0010
1000
0000
0010
0100
0010
0100
0010
,
0001
0000
0001
0100
0000
1000
0010
0000
,
0001
0100
0000
0010
0001
0000
0010
1000
,
0000
1000
0100
0000
0100
0010
0000
1000
,
0002
0000
0000
0000
,
0003
0000
0000
0000
;

//--------------- dance-single - B. M'Rey ----------------
#NOTES:
     dance-single:
     B. M'Rey:
     Hard:
     7:
     0,0,0,0,0:
0000
0000
0000
0000
,
0000
0000
0000
0000
,
0000
0000
0000
0000
,
0000
0000
0000
0000
,
0001
1000
0001
0010
0001
0010
0100
1000
,
0010
1000
0010
0100
0010
0100
0001
0100
,
0001
1000
0001
1000
0010
0100
0010
0100
,
0010
1000
0100
1000
0010
0100
0010
0100
,
0020
0000
0032
0000
0100
0000
0100
1000
,
0203
0000
0001
0000
0310
1000
0010
1000
,
0001
0010
0001
0010
0001
1000
0010
1000
,
0100
1000
0100
0010
0100
1000
0010
0100
,
0001
0000
0001
0010
0001
0100
0001
0010
,
0100
0000
0010
0000
0001
1000
0100
0010
,
0001
0010
0100
0001
,
1000
0010
0001
0000
0010
0100
0001
0100
,
0010
1000
0010
1000
0010
0100
0001
0010
,
0100
0000
0100
0000
0001
1000
0001
1000
,
0100
0000
0001
0000
0100
1000
0100
0010
,
0001
0000
1000
0000
0001
0000
0010
0100
,
0010
1000
0100
0010
0100
1000
0001
0010
,
0100
1000
0001
1000
0001
1000
0010
0100
,
0010
1000
0010
0100
0001
1000
0100
1000
,
0100
1000
0001
0100
0001
0010
0100
0010
,
0100
1000
0100
0010
0001
1000
0100
1000
,
0001
1000
0100
0010
0001
0100
0010
1000
,
0010
0100
0001
0010
0002
0100
0100
0013
,
0200
0010
0010
0001
0001
0010
0010
0001
,
0301
0000
0100
1000
0000
1000
0010
1000
,
0100
0000
0001
1000
0000
0100
0001
0100
,
0010
0000
0100
0010
0000
1000
0100
0010
,
0001
0100
0010
1000
0001
0010
0001
1000
,
0010
0000
0010
1000
0000
1000
0100
0010
,
0100
0000
0100
1000
0000
0100
0010
1000
,
0001
0000
0100
1000
0000
0010
0001
0100
,
0001
0000
0100
0010
0000
0010
0001
1000
,
0001
0000
0010
0100
0000
1000
0010
1000
,
0001
0000
0100
0010
0000
0010
0100
1000
,
0010
0000
0010
0100
0000
1000
0001
0100
,
0001
0000
0001
0100
0000
1000
0100
1000
,
0010
0000
0001
0100
0001
0010
0001
0010
,
0100
1000
0010
0100
0001
0100
0001
0010
,
0100
1000
0001
0010
0100
0010
0100
0010
,
0001
0100
0010
1000
0001
1000
0100
0010
,
0100
0010
0100
1000
0001
0010
0001
0100
,
0001
0100
0010
1000
0010
1000
0001
0100
,
0001
0100
0010
1000
0010
0100
0001
0100
,
0010
0100
0010
1000
0001
1000
0100
1000
,
0110
0000
0100
0010
0000
0100
0010
0100
,
1001
0000
0010
0100
0000
0010
0100
0010
,
0110
0000
0001
1000
0000
0100
0001
0010
,
0001
0010
0100
1000
0000
0100
0000
0010
,
0100
0010
0001
1000
0010
1000
0010
0100
,
0010
0100
0001
0100
0010
1000
0001
1000
,
0100
1000
0001
0100
0001
0010
0001
1000
,
0200
0000
0010
0010
0000
0010
0001
0000
,
0300
0000
0000
0000
;
