#VERSION:0.83;
#TITLE:ERASER ENGINE;
#ARTIST:L.E.D.LIGHT vs. GUHROOVY;
#GENRE:HARDCORE;
#MUSIC:Eraser Engine.ogg;
#BANNER:Eraser Engine-bn.png;
#BACKGROUND:Eraser Engine-bg.png;
#CDTITLE:./CDTITLES/GUITARFREAKS & drummania.PNG;
#SAMPLESTART:4;
#SAMPLELENGTH:15;
#OFFSET:-0.319;
#BPMS:0.000=177;

//--------------- dance-single - B. M'Rey ----------------
#NOTEDATA:;
#STEPSTYPE:dance-single;
#DESCRIPTION:B. M'Rey;
#DIFFICULTY:Beginner;
#METER:6;
#RADARVALUES:0,0,0,0,0;
#NOTES:
0000
0000
0000
0000
,
0000
0000
0000
0000
,
0000
0000
0000
0000
,
0001
0000
1000
0010
,
0100
0000
0010
1000
,
1001
0000
0010
0100
,
0001
0000
1000
0010
,
0101
0000
0101
0000
,
1010
0000
1010
0000
,
0110
0000
0110
0000
,
0101
0000
0101
0000
,
0010
1000
0100
0000
,
0010
0100
0001
0000
,
1001
0000
0010
0100
,
0010
0000
0000
0000
,
1000
0000
0001
0000
,
0100
0010
1000
0000
,
0010
0000
0100
0000
,
1000
0000
0010
0000
,
0100
0010
0001
0000
,
1000
0010
0100
0000
,
1000
0000
0010
0000
,
0001
0000
0010
0100
,
0101
0000
1010
0000
,
0101
0000
1010
0000
,
0110
0000
1001
0000
,
0110
0000
1001
0000
,
0020
0000
0000
0030
,
0100
0000
0100
0000
,
1002
0000
0000
0003
,
0010
0000
0010
0000
,
0001
0000
1000
0000
,
0010
0100
1000
0000
,
0010
0000
0100
0000
,
0001
0010
1000
0000
,
0010
0000
0100
0000
,
1001
0000
1001
0000
,
0010
0000
0100
0000
,
0001
0000
1000
0011
,
1100
0000
0001
0000
,
1000
0000
0010
0110
,
0110
0000
0001
0000
,
2002
0000
0000
0000
,
0000
0000
0000
3003
,
0010
0000
0100
0000
,
0001
0000
1000
0000
,
0001
1000
0001
0000
,
0010
0000
0100
0010
,
1020
0000
0000
0030
,
0100
0000
0000
0000
,
0001
0000
0000
0000
,
0010
0000
0100
0100
,
0100
0000
1000
0000
,
0010
0000
0100
0001
,
1001
0000
0010
0000
,
0100
0000
0001
1000
,
1001
0000
0010
0000
,
0100
0000
0010
0100
,
1001
0000
0010
0000
,
0100
0000
0001
0010
,
0001
0000
1000
0010
,
0100
0000
1000
0000
,
1010
0000
0001
0000
,
0100
0000
0010
0001
,
2002
0000
0000
0000
,
0000
0000
0000
0000
,
0000
0000
0000
3003
;

//--------------- dance-single - B. M'Rey ----------------
#NOTEDATA:;
#STEPSTYPE:dance-single;
#DESCRIPTION:B. M'Rey;
#DIFFICULTY:Easy;
#METER:10;
#RADARVALUES:0,0,0,0,0;
#NOTES:
0000
0000
0000
0000
,
0100
1000
0100
0010
,
0200
0000
0000
0000
0002
0000
0000
0303
,
0001
1000
0100
0010
,
0100
0010
0100
1000
,
0001
1000
0100
1000
,
0100
0010
0100
0010
,
0001
0011
0000
0110
,
0000
1010
0000
1010
,
0000
0101
0000
1001
,
0000
1001
0000
0110
,
0010
0100
0010
0100
,
0001
0010
0001
0010
,
0001
1000
0010
1000
,
0020
0000
0000
0000
,
0031
1000
0100
0010
,
0100
0010
0100
1000
,
0001
1000
0100
1000
,
0200
0000
0310
0010
,
0001
0010
0001
0100
,
0001
0100
0020
0130
,
0010
2000
3010
1000
,
0100
1000
0100
0010
,
0100
0011
0000
0011
,
0000
1010
0000
1010
,
0000
0110
0000
0101
,
0000
1001
0000
1001
,
0022
0000
0000
0033
,
0001
0010
0001
1000
,
2002
0000
0000
3003
,
0001
0100
0010
1000
,
0001
0100
0001
0100
,
0001
1000
0100
1000
,
0100
1000
0010
0100
,
0010
0100
0010
2000
,
3001
1000
0100
1000
,
0100
0000
0100
0011
,
0011
0010
0001
1000
,
0001
0000
0010
0110
,
0110
0100
0010
1000
,
0200
0300
0002
0113
,
0110
0020
0130
1000
,
0200
0000
0000
0000
,
0000
0000
0000
0000
,
0301
0010
0100
1000
,
0001
0010
0100
0010
,
0100
0010
0001
0100
,
0001
1000
0001
0100
,
0110
0000
0220
0000
0000
0000
0000
0330
,
0001
0010
0100
1000
,
0001
0100
0001
0100
,
0001
0010
0100
0010
,
0100
0001
0010
0000
0001
0000
1000
0000
,
0001
1000
0010
0000
0001
0000
0110
0000
,
0110
0001
0010
0000
0100
0000
1000
0000
,
0100
0010
1000
0000
1001
0000
1001
0000
,
0022
0000
0000
0000
0000
0000
0000
0033
,
0100
0010
0100
1000
,
2002
0000
3003
1000
,
0010
0100
0010
0100
,
0010
0100
1000
0000
0001
0000
1000
0000
,
0001
0010
1000
0000
0100
0000
0110
0000
,
0110
0000
0010
0001
0100
0000
1000
0000
,
0001
0000
1000
0100
0010
0000
1000
0000
,
0220
0000
0000
0000
,
0000
0000
0000
0000
,
0000
0000
0000
0330
;

//--------------- dance-single - B. M'Rey ----------------
#NOTEDATA:;
#STEPSTYPE:dance-single;
#DESCRIPTION:B. M'Rey;
#DIFFICULTY:Medium;
#METER:13;
#RADARVALUES:0,0,0,0,0;
#NOTES:
0000
0000
0000
0000
,
0001
1000
0001
1000
,
0001
0010
0200
0000
,
0301
1000
0001
0010
0001
0010
0100
0010
,
0100
1000
0100
1000
0010
1000
0010
0100
,
0010
0100
0001
0100
0001
1000
0001
1000
,
0010
1000
0100
0010
0100
0010
0100
1000
,
0100
1010
0010
0110
,
0010
0110
0010
1001
,
0001
0101
0001
0011
,
0001
1001
0100
1100
,
0001
1000
0010
1000
0010
1000
0001
0100
,
0001
0100
0001
1000
0010
1000
0010
0100
,
0010
1000
0100
1000
0100
1000
0010
0100
,
2002
0000
0000
0000
0000
0000
0000
3003
,
0001
1000
0001
1000
0010
1000
0010
0100
,
0010
0100
0001
1000
0001
1000
0001
0100
,
0010
0100
0010
0100
0001
1000
0001
1000
,
0001
0000
0010
0000
0010
0100
0001
1000
,
0001
1000
0010
1000
0010
0100
0010
0100
,
0001
0100
0001
1000
0100
0010
0100
0010
,
0100
1000
0001
0010
0001
0010
0001
0100
,
0010
1000
0010
1000
0010
0100
0001
1000
,
0001
1000
0001
0100
0010
0100
0010
1000
,
0001
0100
0001
0100
0001
1000
0100
1000
,
0010
1000
0010
0100
0010
0100
0001
0100
,
0001
0010
0001
0010
0100
0010
0100
1000
,
2002
0000
0000
3003
,
0010
0010
1000
1000
0010
0010
0100
0100
,
0220
0000
0000
0330
,
0001
0001
1000
1000
0100
0100
2000
0000
,
3010
1000
0010
1000
0010
0100
0001
0100
,
0010
0100
0010
1000
0010
1000
0100
1000
,
0100
0010
0100
0010
0001
0010
0001
1000
,
0100
0010
0100
0010
0100
1000
0001
0000
,
0100
1000
0010
1000
0100
1000
0010
0100
,
0010
0100
0010
0100
,
0010
0100
0001
0010
0001
0100
0010
1000
,
0010
0100
0010
1000
,
0001
0010
0100
1000
0010
1000
0010
0100
,
0001
1000
0010
0100
,
0001
0100
0010
1000
0100
1000
0010
0100
,
0002
0000
0000
0000
,
0000
0000
0000
0000
,
0103
0010
0100
1000
0100
1000
0010
0100
,
0001
0010
0100
0010
0100
1000
0010
1000
,
0001
1000
0001
0010
0100
0010
0001
0100
,
0001
0010
0100
0010
0001
1000
0100
0010
,
0002
0000
0000
1003
,
0010
1000
0001
0100
,
0001
0100
0001
1000
,
0010
1000
0010
1000
,
0010
0100
0010
1000
0001
0010
0100
1000
,
0010
1000
0001
1000
0001
0010
0100
1000
,
0010
1000
0100
1000
0010
0100
0001
1000
,
0001
0010
0001
0100
0010
1000
0010
1000
,
0010
2000
0000
3000
,
0010
0010
0100
0000
0001
0001
0100
0000
,
0001
0100
0010
1000
,
0010
0010
1000
0000
0100
0100
1000
0000
,
0010
1000
0100
0010
0001
0010
0100
0000
,
0001
0100
0010
0101
,
0011
0000
0001
0100
0010
0100
0010
0100
,
0001
0100
1000
0110
,
0220
0000
0000
0000
,
0000
0000
0000
0000
,
0000
0000
0330
0000
;

//--------------- dance-single - B. M'Rey ----------------
#NOTEDATA:;
#STEPSTYPE:dance-single;
#DESCRIPTION:B. M'Rey;
#DIFFICULTY:Hard;
#METER:16;
#RADARVALUES:0,0,0,0,0;
#NOTES:
0000
0000
0000
0000
,
0010
0100
0010
0100
,
0001
0000
1000
0000
0001
0000
1000
0000
0001
0100
0001
0100
0001
0010
0100
0010
,
0001
0000
0001
1000
0001
0000
0010
0000
0010
0100
0001
1000
0001
0000
0010
0000
,
0100
0000
0100
0010
0001
0000
1000
0000
0001
0100
0010
0100
0010
0000
0001
0000
,
1001
0000
0100
0010
1000
0000
0001
0000
0010
1000
0010
1000
0010
0000
0100
0000
,
0010
0000
0001
0100
0001
0000
0010
0000
0100
0010
0001
1000
0001
0000
0100
0000
,
0010
1001
0001
1001
,
0001
0110
0100
0110
,
0100
0011
0001
0110
,
0010
0110
0010
0110
,
0001
0000
1000
0001
1000
0000
0100
0000
0100
0010
0001
1000
0001
0000
1000
0000
,
0100
0000
0010
0100
0001
0000
1000
0000
0001
0010
0100
0010
0001
0000
1000
0000
,
0001
0000
0010
0100
0010
0000
0001
0000
1000
0001
1000
0010
0100
0000
0010
0000
,
0200
0000
0000
0000
,
0301
0000
1000
0000
0001
0000
1000
0010
0001
1000
0100
0000
0010
0000
0100
0000
,
0010
0000
0100
0000
0001
0000
0010
0000
0001
1000
0010
0100
0001
0000
0100
0000
,
0010
0000
0100
0000
0010
0000
0100
0000
0001
0010
1000
0100
0010
0000
1000
0000
,
0010
1000
0001
0010
0001
0010
0001
0100
,
0010
0000
0100
0000
0010
0000
0100
0000
0001
0010
1000
0100
0001
0000
1000
0000
,
0001
0000
0100
0000
0010
0000
0100
0000
0001
0010
0100
1000
0001
0000
1000
0000
,
0001
0000
1000
0000
0010
0000
1000
0000
0010
0001
0100
1000
0010
0000
0100
0000
,
0001
0000
0100
0000
0001
0000
1000
0000
0100
0001
1000
0010
0100
0000
1000
0000
,
0010
0000
0100
0000
0010
0100
0010
0100
0010
0000
1000
0000
0001
0100
0001
0100
,
0001
0000
1000
0000
0100
1000
0100
1000
0100
0000
1000
0000
0001
0100
0001
0100
,
0001
0000
0010
0000
0001
0010
0001
0010
0100
0000
0010
0000
0100
1000
0100
1000
,
0100
0000
1000
0000
0001
1000
0001
1000
0001
0000
0010
0000
0100
0010
0100
0010
,
0200
0000
0000
0000
,
0301
0001
1000
0000
0010
0010
1000
0000
,
0020
0000
0000
0000
,
0031
0001
0010
0000
0100
0100
0010
0000
,
0001
0000
0001
1000
0001
0000
0010
0000
0010
0100
0001
1000
0001
0000
0010
0000
,
0100
0000
0100
0010
0001
0000
1000
0000
0001
0100
0010
0100
0010
0000
0001
0000
,
1001
0000
0100
0010
1000
0000
0001
0000
0010
1000
0010
1000
0010
0000
0100
0000
,
0010
0000
0001
0100
0001
0000
0010
0000
0100
0010
0001
1000
0001
0000
0100
0000
,
0010
0010
0100
0100
0010
0010
0100
0100
,
0001
0001
0100
0100
0010
0010
1010
0000
,
0010
0100
0100
0010
0010
1000
1000
0100
,
0100
0010
0100
0011
,
0011
0010
0010
0001
0001
0100
0100
0001
,
0001
0000
0001
0010
1000
0000
0100
0001
0010
0000
0000
0000
1001
0000
0000
0000
,
1001
0000
1000
1000
0100
0100
0010
0010
,
0200
0000
0000
0000
,
0000
0000
0000
0000
,
0301
0000
0100
0000
0001
0100
0010
0000
0010
0000
1000
0000
0100
0010
0100
0000
,
0100
0000
0001
0000
0100
0010
0100
0000
0001
0000
1000
0000
0010
1000
0010
0000
,
0100
0000
0001
0000
0100
1000
0001
0000
0010
0000
1000
0000
0010
0100
0001
0000
,
1000
0000
0010
0000
0100
0010
0100
0000
0100
0000
0001
0000
0100
0010
0100
0000
,
1000
0100
0001
1000
,
0001
0010
0100
0010
,
0100
0010
0001
0100
,
0010
0000
0000
0000
1000
0000
0000
0000
0100
1000
0100
1000
0100
1000
0100
1000
,
0100
0000
0001
0000
1000
0001
1000
0001
0100
0000
0001
0000
0010
0000
1000
0000
,
0100
0000
0001
0000
0010
0001
0010
0001
0100
0000
0010
0000
1010
0000
0100
0000
,
1010
0000
0100
0000
1000
0010
0001
1000
0010
0000
0100
0000
1000
0000
0001
0000
,
0100
0000
1000
0000
0010
0001
0010
0001
0100
0000
1000
0000
1010
0000
0001
0000
,
0110
1000
0010
0100
,
0010
0010
1000
1000
0010
0010
0100
0100
,
0001
1000
0100
0010
,
0001
0000
0001
0000
0010
0000
0010
0000
0001
0000
0001
0000
1000
0001
1000
0001
,
1000
0000
0100
0000
1000
0010
1000
0010
1000
0000
0001
0000
1000
0000
0001
0000
,
0010
0000
1000
0010
0100
0010
0100
0000
0010
0000
0001
0000
0100
0000
1000
0000
,
0001
0010
0100
1000
0001
0010
1000
0001
,
0100
0000
0010
0000
1000
0000
0001
0000
0100
0010
0100
0010
0100
0010
0100
0010
,
0200
0000
0000
0000
,
0000
0000
0000
0000
,
0000
0000
0000
0300
;

//--------------- dance-single - B. M'Rey ----------------
#NOTEDATA:;
#STEPSTYPE:dance-single;
#DESCRIPTION:B. M'Rey;
#DIFFICULTY:Challenge;
#METER:18;
#RADARVALUES:0,0,0,0,0;
#NOTES:
0000
0000
0000
0000
,
1000
1000
0001
0001
,
1000
0000
0000
0001
0000
0000
1000
0000
0000
0001
0000
0000
1000
0000
0000
0001
0000
0000
1000
0000
0000
0001
0000
0000
1000
0000
0001
0000
1000
0000
0001
0000
1000
0000
0001
0000
1000
0000
0001
0000
1000
0000
0001
0000
1000
0000
0001
0000
,
0001
0000
0001
0010
0100
0000
0100
1000
0010
1000
0001
0100
0001
0000
0001
0000
,
0100
0000
0001
0100
0010
0000
0001
0000
0001
0100
0001
1000
0010
0000
0100
0000
,
0110
0000
0100
1000
0010
0000
0001
0000
0001
0100
0010
1000
0010
0000
0100
0000
,
0001
0000
0001
0010
0001
0000
0100
0000
0001
0100
0010
1000
0010
0100
0010
1000
,
0100
0101
0001
1100
,
0010
0011
0001
0110
,
1010
1100
0010
0011
,
0001
0000
0000
0000
0101
0000
0000
0000
0010
0000
0000
0000
1000
0001
1000
0001
,
0100
0000
0100
0010
0100
0000
0001
0000
0100
1000
0001
1000
0100
0010
0100
0000
,
0010
0000
0001
1000
0010
0000
0100
0000
0010
1000
0100
0010
0001
0010
0100
0000
,
0001
0000
0010
1000
0100
0000
0001
0000
0010
0100
0010
0100
0001
0010
0001
0000
,
0220
0000
0000
0000
,
0331
0000
0100
0000
0001
0100
0010
0100
0001
0100
0010
1000
0001
0100
0010
1000
,
0010
0000
0001
0000
0100
0000
0001
1000
0100
1000
0010
1000
0010
0100
0001
1000
,
0100
0000
0010
0000
0001
0000
0010
1000
0001
0100
0001
0010
0100
1000
0100
0010
,
0001
0000
0010
0000
0001
0000
0001
0010
0100
1000
0001
0100
0001
0010
0100
0010
,
0001
0000
0001
0000
0010
0000
0100
0000
0001
0100
0001
0010
0001
1000
0100
1000
,
0100
0000
0001
0000
0010
0000
0001
0100
0010
0100
0010
1000
0010
1000
0001
1000
,
0001
0000
0010
0000
0001
0000
0010
1000
0010
0100
0010
1000
0100
0010
0001
0010
,
0100
0000
0010
0000
1000
0000
0010
0000
0100
1000
0100
1000
0100
0010
0001
0010
,
0100
0000
0001
1000
0001
1000
0001
0010
0100
0010
0100
0010
0001
1000
0001
1000
,
0001
0010
0100
0010
0100
0010
0001
0100
0001
0100
0010
0100
0010
1000
0010
1000
,
0100
1000
0100
0010
0100
0010
0001
0010
0001
1000
0001
1000
0010
1000
0001
0100
,
0001
0100
0001
1000
0010
1000
0010
1000
0001
0010
0001
0010
0001
0100
0010
0100
,
0020
0000
0000
0000
,
0130
1000
0010
1000
0010
1000
0001
0010
,
0002
0000
0000
0000
,
1003
0100
0010
0100
0001
0010
0001
0010
,
0001
1000
0100
1000
0001
0100
0010
1000
0001
0010
0001
0010
0001
1000
0010
0000
,
0010
0000
0001
1000
0100
1000
0010
1000
0001
0100
0010
1000
0001
1000
0100
0000
,
0001
0000
0010
0100
0010
1000
0001
0100
0001
0010
0001
0100
0010
0100
0001
0000
,
0001
0000
0001
0010
0100
1000
0001
0100
0010
0100
0010
0100
0001
0010
0100
0010
,
0100
0010
0001
1000
0001
1000
0001
0100
,
0010
0000
0100
0001
0010
0000
0100
0000
0001
1000
0010
0000
0110
0000
1000
0000
,
0110
1000
0001
1000
0010
0100
0010
0100
,
0010
0000
1000
0001
0100
0000
0010
0000
0100
1000
0010
0100
0001
0000
0010
1000
,
0001
0100
0010
0100
0001
0010
0001
0100
,
0001
0000
0010
1000
0100
0000
0010
0000
0100
0001
1000
0000
0110
0000
0100
0000
,
0110
0000
0100
0001
0010
0000
1000
0000
0100
0010
1000
0000
0001
0000
0010
0000
,
2000
0000
0000
0000
,
0000
0000
0000
0000
,
3001
1000
0001
1000
0001
0100
0010
0100
0010
0100
0001
0010
0001
0010
0100
1000
,
0100
1000
0100
0010
0001
1000
0001
1000
0001
0010
0100
0010
0100
1000
0100
1000
,
0010
1000
0001
0010
0100
0010
0100
1000
0100
0010
0001
0010
0001
0010
0100
1000
,
0100
1000
0100
0010
0001
0010
0001
0010
0100
1000
0100
1000
0100
0010
0001
0010
,
0100
1000
0100
0010
,
0001
1000
0001
1000
,
0010
0100
0001
0100
,
0010
0000
0000
0000
0000
0000
0000
0000
0000
0000
0000
0000
1000
0000
0000
0000
0000
0000
0000
0000
0000
0000
0000
0000
0001
0000
0000
1000
0000
0000
0001
0000
0000
1000
0000
0000
0001
0000
1000
0000
0001
0000
1000
0000
0001
0000
1000
0000
,
0001
1000
0001
1000
0001
0010
0100
0010
0100
0010
0001
0100
0001
0010
0001
0010
,
0100
0010
0100
1000
0100
0010
0001
0010
0001
0100
0010
0100
0010
1000
0010
1000
,
0100
1000
0001
0100
0001
0010
0001
0010
0100
0010
0100
1000
0010
0100
0010
1000
,
0001
1000
0001
1000
0010
0100
0010
0100
0010
1000
0001
0010
0001
0010
0001
0100
,
0010
0100
0010
1000
,
0001
0100
0001
0100
0001
1000
0010
1000
,
0100
0010
0100
1000
,
0001
1000
0001
0100
0001
0000
0010
0000
0100
1000
0100
1000
0001
0010
0100
0010
,
1001
0000
1001
0000
0010
0000
0100
0000
0001
1000
0001
1000
0001
0000
1000
0000
,
0011
0000
0010
0001
0010
0000
0100
1000
0100
0000
0010
0000
0110
0000
0001
0000
,
0110
0001
1000
0001
1000
0001
0100
0010
,
0100
0000
0001
0000
0100
0000
0001
0000
1000
0001
1000
0001
1001
0000
0000
0000
,
2002
0000
0000
0000
,
0000
0000
0000
0000
,
0000
0000
0000
3003
;
