#TITLE:ELECTRICAL PARADE (Retro Future MIX);
#ARTIST:TOMOSUKE;
#GENRE:COSMO POP;
#CREDIT:KONAMI / B. M'Rey;
#MUSIC:ELECTRICAL PARADE (Retro Future MIX).ogg;
#BANNER:ELECTRICAL PARADE (Retro Future MIX).png;
#BACKGROUND:ELECTRICAL PARADE (Retro Future MIX)-bg.png;
#CDTITLE:./CDTITLES/DANCE DANCE REVOLUTION/HOME VERSION.png;
#SAMPLESTART:31.379;
#SAMPLELENGTH:12.000;
#BPMS:0.000=130.025;
#DISPLAYBPM:130.000;

//--------------- dance-single - KONAMI ----------------
#NOTES:
     dance-single:
     KONAMI:
     Beginner:
     3:
     0,0,0,0,0:
0000
0000
0000
0000
,
0000
0000
0000
0000
,
0000
0000
0000
0000
,
0000
0000
0000
0000
,
0000
0000
0000
0000
,
0000
0010
0000
0100
,
0000
0010
0000
0100
,
0001
0010
1000
0100
,
0001
0010
1000
0100
,
0000
0010
0000
0100
,
0000
0010
0000
0100
,
1000
0010
0001
0100
,
1000
0010
0001
0100
,
1001
0000
0000
0000
,
0110
0000
0000
0000
,
1001
0010
1000
0001
,
1000
0001
0110
0000
,
0001
0010
1000
0010
,
0001
0000
0001
0000
0001
0001
0001
0000
,
1000
0010
0001
0010
,
1000
0000
1000
0000
1000
1000
1000
0000
,
1000
0100
0001
0100
,
0001
0000
0001
0000
0010
0010
0010
0000
,
0001
0100
1000
0100
,
0010
0000
0001
0000
1000
1000
1000
0000
,
1001
0110
1001
0000
,
1001
0110
1001
0000
,
0010
1000
0001
0100
,
0010
0001
1000
0000
,
0001
0010
1000
0100
,
0001
0000
1000
0000
0001
0001
0001
0000
,
1000
0010
0001
0100
,
1000
0000
0001
0000
1000
1000
1000
0000
,
0001
0100
1000
0100
,
0001
0000
0001
0000
0010
0010
0010
0000
,
1000
0100
0001
0100
,
1000
0000
1000
0000
0010
0010
0010
0000
,
1000
0000
0001
0100
,
1000
0000
1000
0010
,
0001
0000
0010
1000
,
0001
0010
0100
1000
,
0001
0100
0010
1000
,
1000
0100
0010
0001
,
0001
0010
0100
1000
,
0010
0000
1001
0000
,
0010
0001
0100
1000
,
0100
1000
0010
0001
,
0010
0100
0001
1000
,
0010
0001
0010
1000
,
0001
0001
1000
1000
,
0001
1000
0001
0110
,
0010
0010
1000
1000
,
0001
0000
0001
0000
0100
1000
0100
0000
;

//--------------- dance-single - KONAMI ----------------
#NOTES:
     dance-single:
     KONAMI:
     Easy:
     6:
     0,0,0,0,0:
0000
0000
0000
0000
,
0000
0000
0000
0000
,
0000
0000
0000
0000
,
0000
0000
0000
0000
,
0000
0000
0000
0000
,
1000
0010
0001
0010
,
1000
0010
0001
0010
,
1000
0100
0010
0000
1000
0100
0010
0000
,
1000
0100
0010
0001
0010
0100
1000
0000
,
0001
0100
1000
0100
,
0001
0100
1000
0100
,
0001
0100
0010
0000
0001
0100
0010
0000
,
0001
0100
0010
1000
0100
0010
0001
0000
,
1100
0000
0000
0000
,
0101
0000
0000
0000
,
0110
0000
1000
0010
0001
0100
1000
0001
,
0010
0100
1000
0000
1001
0000
0000
0000
,
0001
0010
1000
0100
,
0010
0000
0010
0000
0100
1000
0001
0000
,
1000
0010
0001
0100
,
0010
0000
0010
0000
0100
1000
0001
0000
,
0010
1000
0100
0001
,
0010
1000
0100
0001
0100
1000
0001
0000
,
0010
0001
0100
1000
,
0010
0001
0100
1000
0100
0001
1000
0000
,
1001
0011
1001
1010
,
0110
0101
1010
0011
,
1010
1100
0101
0110
,
1001
0101
1100
0001
,
0010
0100
1000
0110
,
0001
0000
0100
0000
1000
0010
0001
0000
,
0100
0010
0001
0110
,
1000
0000
0100
0000
0001
0010
1000
0000
,
0001
1000
0100
0001
,
0100
1000
0010
0001
0100
0010
1000
0000
,
1000
0001
0010
1000
,
0010
0001
0100
1000
0010
0100
0001
0000
,
0100
0000
0010
0000
0100
0001
0010
0000
,
1000
0000
0001
0000
1000
0100
0001
0000
,
0010
0000
0100
0000
0010
1000
0100
0000
,
0101
1010
0101
1010
,
0100
0000
0001
0000
1000
0010
0100
0000
,
0100
0000
1000
0000
0001
0010
0100
0000
,
0100
0000
0001
0000
1000
0010
0100
0000
,
0001
0000
0010
0000
0100
0000
1000
0000
0000
0010
0000
0000
0100
0000
0000
0000
,
0001
1100
0001
1010
,
0100
0000
0010
0000
1000
0001
0010
0000
,
1000
0101
1000
0011
,
0100
0001
0010
1000
0010
0001
0100
0000
,
1000
0010
0100
1000
,
0001
0000
0100
0000
0010
1000
0100
0000
,
0001
0010
0001
0000
1000
0010
1000
0000
,
0100
0001
0010
0100
1000
0100
0010
0000
;

//--------------- dance-single - KONAMI ----------------
#NOTES:
     dance-single:
     KONAMI:
     Medium:
     7:
     0,0,0,0,0:
0000
0000
0000
0000
,
0000
0000
0000
0000
,
0000
0000
0000
0000
,
0000
0000
0000
0000
,
0000
0000
0000
0000
,
0010
0000
0100
0000
1000
0001
0100
0000
,
0010
0000
0100
0000
0001
1000
0100
0000
,
0001
0010
0100
1000
0001
0010
0100
1000
,
0001
0100
0010
1000
0010
0100
0001
0000
,
0010
0000
0100
0000
0010
0001
1000
0000
,
0010
0000
0100
0000
0010
1000
0001
0000
,
1000
0010
0100
0001
1000
0100
0010
0001
,
1000
0010
0100
0001
1000
0100
0010
0000
,
1001
0000
0000
0000
,
0011
0000
0000
0000
,
0110
0000
1000
0100
0001
0010
1000
0001
,
0100
0010
1000
0000
0001
0000
0000
0000
,
1010
0101
1100
0011
,
1000
0100
0001
1000
0001
0100
1000
0000
,
0011
1100
0101
1010
,
0001
0010
1000
0001
1000
0010
0001
0000
,
0101
1100
0110
1001
,
0010
0001
0100
0010
1000
0100
0010
0000
,
0001
0010
0100
1000
0001
0100
0010
1000
,
0001
0010
0100
1000
0001
0100
0010
0000
,
1001
0000
0000
0110
0000
0000
0010
0001
,
0100
0000
0000
1100
0000
0000
0010
0001
,
0100
0000
1000
0100
0000
0001
0100
1000
,
0010
0000
0001
0100
0000
1000
0001
1000
,
0001
0101
1000
1100
,
0010
0001
1000
0100
0010
0001
1000
0000
,
0001
0011
1000
1010
,
0100
1000
0001
0010
0100
1000
0001
0000
,
0110
0010
0001
0100
1000
0010
0100
0001
,
1000
0100
0010
0001
0100
0010
1010
0000
,
0001
1000
0010
0100
0001
0100
0010
1000
,
0001
0100
0010
1000
0010
0100
0001
0000
,
1010
0000
0000
0101
0000
1000
0100
0000
,
0011
0000
0000
1100
0000
0001
0100
0000
,
1010
0000
0000
0101
0000
1000
0100
0000
,
0110
1000
0001
0000
0110
1000
0001
0000
,
0011
0010
1000
0100
0000
0001
0010
0000
,
1010
0010
0100
0001
0000
1000
0100
0000
,
0011
0010
1000
0100
0000
0001
1010
0000
,
0001
0000
0100
0000
0010
0000
1000
0000
0100
0000
0000
0010
0000
0000
0000
0000
,
0010
0000
0011
0000
0010
0000
1000
0100
,
0010
0001
0100
1000
0010
0001
0100
0000
,
0010
0000
0011
0000
0010
0000
1000
0100
,
0010
1000
0100
0001
0010
1000
0100
0000
,
0010
0000
0101
0000
1000
0010
0100
0001
,
1000
0100
0010
0001
1000
0001
0100
0000
,
0010
1000
0100
0001
0010
0100
0001
1000
,
0010
0100
1000
0001
0100
0010
1000
0000
;

//--------------- dance-single - B. M'Rey ----------------
#NOTES:
     dance-single:
     B. M'Rey:
     Hard:
     9:
     0,0,0,0,0:
0000
0000
0000
0000
,
0000
0000
0000
0000
,
0000
0000
0000
0000
,
0000
0000
0000
0000
,
0000
0000
0000
0000
,
1000
0000
0001
0000
0010
0000
0100
0000
0000
0000
1000
0000
0000
0001
0000
0000
,
0001
0000
0010
0000
0100
0000
1000
0000
0000
0000
0100
0000
0000
1000
0000
0000
,
0010
0000
1000
0000
0001
0000
1000
0000
0000
0000
0100
0000
0000
1000
0000
0000
,
0010
0100
0001
0010
0100
0010
0100
0010
,
0001
0000
0100
0000
0010
0000
0100
0000
0010
0000
0100
0000
0000
0010
0000
0000
,
1000
0000
0001
0000
0100
0000
1000
0000
0001
0000
0100
0000
0000
0001
0000
0000
,
0010
0100
0001
1000
0001
0100
0010
1000
,
0010
1000
0001
0010
0001
0010
0001
1000
,
1001
0000
0000
0000
,
0110
0000
0000
0000
,
0101
0000
0000
0000
,
1000
0000
0000
0000
0000
0000
0000
0000
0001
0000
0000
1000
0000
0000
0000
0000
,
1000
0000
0100
0001
0100
0000
0010
0000
0100
0000
1000
0001
0100
0010
0100
0010
,
1000
0000
1000
0100
1000
0001
0100
0010
1000
0100
1000
0010
0100
0001
1000
0100
,
0010
0000
0100
0010
0100
0000
0100
0000
1000
0000
1000
0001
0100
0010
0100
0010
,
0001
1000
0001
0010
0001
1000
0101
0000
,
1000
0000
0010
0001
1000
0000
0100
0000
0010
0000
1000
0100
1000
0001
0010
0100
,
1000
0000
0010
0001
1000
0010
1000
0100
0010
0100
1000
0010
1000
0010
0100
0001
,
0100
0000
1000
0100
0010
0000
0010
0000
0100
0000
1000
0001
0010
0001
0010
0100
,
1000
0001
0010
0100
0010
0001
0010
0001
1000
0010
0100
0001
0010
0000
0000
0000
,
1001
0000
0000
0101
0000
0000
0110
0000
0000
1100
0000
0000
1000
0000
0010
0000
,
1001
0000
0000
0110
0000
0000
0101
0000
0000
1001
0000
0000
0010
0000
0100
0000
,
1001
0000
0000
0110
0000
0000
0101
0000
0000
1010
0000
0000
0001
0000
1000
0000
,
0110
0000
0000
0011
0000
0000
0101
0000
0000
1010
0000
0000
1000
0000
0010
0000
,
0100
0000
0001
1000
0001
0000
0010
0000
0001
0000
0001
0010
0001
0010
0100
0010
,
0100
0000
0010
1000
0001
1000
0010
0100
0010
0100
0010
1000
0001
1000
0001
1000
,
0100
0000
0001
0010
0100
0000
0100
0000
0001
0000
0001
0100
0010
1000
0010
1000
,
0010
0000
0001
0100
0001
0100
0010
0000
1010
0000
0110
0000
0101
0000
0000
0000
,
0010
0000
0010
0100
0010
0000
1001
0000
0001
0000
0001
1000
0100
1000
0100
1000
,
0010
0000
0010
0100
0010
1000
0001
0100
0001
0100
0001
0010
0100
0010
0100
0010
,
0001
0000
0001
0100
0001
0000
0110
0000
0010
0000
0001
1000
0001
1000
0100
0010
,
0100
0010
0100
1000
0010
1000
0010
1000
0001
0100
0001
0100
0001
0000
0000
0000
,
0001
0000
0001
0000
0010
1000
0001
0100
0001
0000
0001
1000
0010
0000
0010
0000
,
0100
0000
0001
0000
0010
1000
0010
1000
0100
0000
0100
0010
0100
0000
0010
0000
,
0100
0000
0010
0000
0001
1000
0001
1000
0001
0000
0010
0100
0010
0000
0001
0000
,
1001
0000
0000
0010
0100
0000
0000
0000
0101
0000
0000
0001
0100
0000
0000
0000
,
0010
0000
0100
0000
0010
0100
0001
0100
0010
0000
0010
1000
0010
0000
0001
0000
,
0010
0000
0001
0000
0010
1000
0001
1000
0100
0000
0010
0100
0010
0000
1000
0000
,
0100
0000
0100
0000
0001
0010
0100
1000
0100
0000
0100
0010
0001
0000
0100
0000
,
0001
1000
0001
1000
0100
1000
0100
0010
0100
0010
0000
0010
0001
0000
0000
0000
,
0001
1000
0001
1000
0001
0100
0010
1000
,
0100
1000
0001
1000
0010
0100
0010
0100
,
0010
1000
0100
0010
0100
0010
0100
1000
,
0001
0100
0001
0010
0001
0010
0100
0000
,
1001
0000
0001
1000
0001
0000
0100
0000
0001
0000
0001
0100
0001
0100
0010
0100
,
0010
0000
0100
1000
0001
1000
0100
0010
0100
0010
0100
1000
0001
1000
0001
1000
,
0010
0000
0001
0100
0010
0000
0010
0000
0001
0000
0001
0010
0100
1000
0100
1000
,
0001
1000
0001
1000
0100
1000
0100
0010
0100
0010
0001
0010
0001
0000
0000
0000
;
