#TITLE:EL BIMBO;
#SUBTITLE:;
#ARTIST:BE BORN STUDIO;
#TITLETRANSLIT:;
#SUBTITLETRANSLIT:;
#ARTISTTRANSLIT:;
#GENRE:;
#CREDIT:;
#MUSIC:EL BIMBO.ogg;
#BANNER:EL BIMBO-bn.png;
#BACKGROUND:EL BIMBO-bg.png;
#CDTITLE:./CDTITLES/Mambo A Go Go.PNG;
#SAMPLESTART:9.220;
#SAMPLELENGTH:15.000;
#SELECTABLE:YES;
#OFFSET:-0.090;
#BPMS:0.000=115.000;
#STOPS:;
#BGCHANGES:;
#FGCHANGES:;

//--------------- dance-single - B. M'Rey ----------------
#NOTES:
     dance-single:
     B. M'Rey:
     Beginner:
     1:
     0,0,0,0,0:
0000
0000
0000
0000
,
0000
0000
0000
0000
,
0000
0000
0000
0000
,
0000
0000
0000
0000
,
0010
0000
0001
1000
,
0001
0000
0000
0000
,
0000
0000
0100
1000
,
0100
0000
0001
0000
,
0000
0000
0100
0010
,
0100
0000
0001
0000
,
0100
0000
0100
0000
,
0100
0000
0001
0000
,
0000
0000
0001
0000
,
0100
0000
0100
0000
,
0000
0000
0001
0000
,
0100
0000
0000
0000
,
0000
0000
0001
0010
,
0001
0000
0010
0000
,
0010
0000
0001
0000
,
0100
0000
0100
0000
,
0001
0000
0001
0000
,
0020
0000
0000
0000
,
0030
0000
0001
1000
,
0020
0000
0000
0000
,
0030
0000
0010
1000
,
0200
0000
0310
0000
,
0000
0000
0001
1000
,
0001
0000
0010
0000
,
0010
0000
0010
0000
,
0001
0000
0001
0000
,
0000
0000
0100
0000
,
0100
0000
0002
0000
,
0000
0000
0013
0000
,
0200
0000
0000
0000
,
0300
0000
0001
1000
,
0010
0000
0010
0000
,
0001
0000
0001
0000
,
0010
0000
0010
0000
,
0010
0000
0100
0000
,
0100
0000
0001
0000
,
0001
0000
0100
0000
,
0001
0000
0100
0000
,
0200
0000
0000
0310
,
0010
0000
0010
0000
,
0002
0000
0000
0000
,
0000
0000
1003
0000
;

//--------------- dance-single - B. M'Rey ----------------
#NOTES:
     dance-single:
     B. M'Rey:
     Easy:
     2:
     0,0,0,0,0:
0000
0000
0000
0000
,
0000
0000
0000
0000
,
0000
0000
0000
0000
,
0000
0000
0000
0000
,
0001
0000
0100
0010
,
0001
0000
0001
0000
,
0001
0000
0100
0010
,
0100
0000
0001
0000
,
0100
0000
0100
1000
,
0010
0000
0001
0000
,
0100
0000
0001
0000
,
0001
0000
0001
0000
,
0100
0000
0100
0000
,
0100
0010
0001
0000
,
0100
0000
0001
0100
,
0001
0000
0100
0000
,
0100
0000
0001
0100
,
0010
0000
0100
0000
,
0100
0000
0001
0000
,
0010
0000
0010
0000
,
0001
0000
0010
0000
,
0020
0000
0000
0000
,
0031
0000
0001
0010
,
0001
0000
0100
0000
,
0100
0000
0100
0010
,
0001
0000
0001
0000
,
0100
0000
0010
1000
,
0100
0000
0100
0000
,
0001
0000
0010
0000
,
0010
0000
0010
0000
,
0001
0000
0001
0000
,
0001
0010
0100
0000
,
0001
0000
0010
0100
,
0010
0000
0100
0000
,
0001
0000
0001
0010
,
0100
0000
0100
0000
,
0010
0000
0010
0000
,
0001
0000
0010
0000
,
0001
0000
0100
0000
,
0001
0000
0001
0000
,
0001
0000
0010
0000
,
0010
0000
0001
0000
,
0001
0000
0010
0100
,
0010
0000
0010
0000
,
0200
0000
0000
0000
,
0000
0000
0300
0000
;

//--------------- dance-single - B. M'Rey ----------------
#NOTES:
     dance-single:
     B. M'Rey:
     Medium:
     5:
     0,0,0,0,0:
0000
0000
0000
0000
,
0000
0000
0000
0000
,
0000
0000
0000
0000
,
0000
0000
0000
0000
,
1001
0000
0000
1000
0100
0010
0100
0010
,
0100
0000
0001
0000
,
0010
0000
0000
0100
0010
0100
0001
0010
,
0001
0000
0000
1000
0100
0000
0000
0000
,
0001
0000
0000
0100
0010
0100
0010
1000
,
0010
0000
0000
1000
0010
0000
0000
0100
,
0010
0000
0000
1000
0100
0000
0000
0100
,
0010
0000
0000
1000
0100
0000
0000
0000
,
0100
0000
0000
0010
0100
0000
0000
1000
,
0100
0000
0000
0010
0001
0000
0100
0000
,
0100
0000
0100
0010
0001
0000
0000
1000
,
0001
0010
1000
0010
,
0100
0000
0000
1000
0010
0100
0010
0100
,
0010
0000
0000
1000
0001
0000
0000
0010
,
0100
0000
0000
0010
0001
0000
0000
1000
,
0100
0000
0000
0010
0100
0000
0000
0010
,
0001
0000
0000
1000
0010
0000
0000
0010
,
0200
0000
0000
0000
,
0310
0000
0000
1000
0010
0100
0010
0100
,
0010
0000
0100
0000
,
0100
0000
0000
0010
0001
1000
0001
1000
,
0100
0000
0000
0010
0100
0000
0000
0000
,
0001
0000
0000
0010
0100
0010
0100
0010
,
0001
0000
0000
0100
0001
0000
0000
0010
,
0100
0000
0000
0100
0001
0000
0000
1000
,
0010
0000
0000
0100
0001
0000
0000
0000
,
0001
0000
0000
0010
0001
0000
0000
0010
,
0001
0000
0100
1000
0100
0000
0001
0000
,
0001
0000
0001
1000
0010
0000
0010
1000
,
0100
0100
0100
0001
,
0001
0000
0001
0010
0100
0010
0100
1000
,
0100
0000
0000
1000
0010
0000
0000
0100
,
0001
0000
0000
0010
0001
0000
0000
0010
,
0100
0000
0000
1000
0001
0000
0000
0010
,
0001
0000
0000
0010
0001
0000
0000
0100
,
0001
0000
0000
1000
0010
0000
0000
0100
,
0001
0000
0000
1000
0001
0000
0000
1000
,
0100
0000
0000
0010
0100
0000
0000
0100
,
0020
0000
0000
0000
0000
1030
0001
1000
,
0010
0000
0000
0010
0000
0000
0001
0000
,
0201
0010
0001
0010
,
0001
0010
0301
0000
;

//--------------- dance-single - B. M'Rey ----------------
#NOTES:
     dance-single:
     B. M'Rey:
     Hard:
     5:
     0,0,0,0,0:
0000
0000
0000
0000
,
0000
0000
0000
0000
,
0000
0000
0000
0000
,
0000
0000
0000
0000
,
0000
0000
0000
0001
0010
0001
1000
0100
,
1000
0000
0100
0010
0100
0000
0010
0001
,
1000
0000
0010
0100
1000
0001
0100
0010
,
0100
0000
0100
0001
1000
0000
1000
0100
,
0010
0000
0010
0100
1000
0001
0010
0100
,
0010
0000
1000
0100
0010
0000
1000
0010
,
1000
0000
0100
0010
1000
0000
1000
0100
,
0010
0000
1000
0100
1000
0000
0100
0001
,
0010
0000
0010
0100
1000
0000
1000
0010
,
1000
0000
0100
0001
0010
0000
1000
0000
,
0010
0000
1000
0010
1000
0000
1000
0010
,
0100
0010
0010
1000
,
1000
0000
1000
0001
0010
0100
1000
0001
,
0100
0000
0100
0010
1000
0000
1000
0001
,
0010
0000
0000
0000
0000
0000
0010
0000
0000
0100
0000
0000
1000
0000
0000
0000
0000
0000
0010
0000
0001
0000
0010
0000
,
0001
0000
0000
1000
0010
0100
0001
0000
0000
0001
0010
0100
,
0010
0000
0000
0001
0100
0010
0100
0000
0000
0010
1000
0001
,
0200
0000
0000
0000
,
0310
0000
0000
0010
0100
0001
0010
0001
,
0100
0000
0100
0001
0010
0000
0010
0001
,
1000
0000
1000
0100
0010
0001
1000
0100
,
0010
0000
1000
0010
0100
0000
0100
0010
,
0100
0000
1000
0010
0100
0001
1000
0010
,
1000
0000
1000
0001
0100
0000
0100
0010
,
1000
0000
0010
0100
0010
0000
1000
0001
,
0100
0000
0100
0001
1000
0000
0010
0100
,
1000
0000
1000
0010
1000
0000
0010
0001
,
1000
0010
0010
1000
,
0010
0000
1000
0001
1000
0000
1000
0010
,
0100
1000
0010
0100
,
0010
0000
0100
0000
1000
0001
1000
0001
,
0100
0000
1000
0010
0100
0000
1000
0100
,
0010
0000
0010
0001
0100
0000
1000
0100
,
1000
0000
0010
0001
1000
0000
1000
0001
,
0100
0000
0100
0001
1000
0000
0100
0001
,
0010
0000
0010
0001
1000
0000
1000
0100
,
1000
0000
0100
0001
1000
0000
0010
0100
,
0010
0000
1000
0001
0100
0000
0100
0010
,
2000
0000
0000
0000
0000
3010
0100
0001
,
0100
0000
0000
0000
0000
0000
0001
1000
0010
0000
0000
0000
0100
0000
0000
0000
,
1000
0010
1000
0010
0100
0001
1000
0001
,
1000
0100
1000
0010
1000
0000
0000
0000
;
