#VERSION:0.83;
#TITLE:EISBERG;
#ARTIST:BLÜMCHEN;
#GENRE:HAPPY HARDCORE;
#MUSIC:eisberg.ogg;
#BANNER:EISBERG-bn.png;
#BACKGROUND:EISBERG-bg.png;
#CDTITLE:./CDTITLES/DANCEMANIA PRESENTS NATSU MONOGATARI SPEED.PNG;
#SAMPLESTART:37.333;
#SAMPLELENGTH:15;
#OFFSET:-0.004;
#BPMS:0=180;
#STOPS:104=0.661,230=0.667;

//--------------- dance-single - B. M'Rey ----------------
#NOTEDATA:;
#STEPSTYPE:dance-single;
#DESCRIPTION:B. M'Rey;
#DIFFICULTY:Beginner;
#METER:2;
#RADARVALUES:0.126,0.179,0,0.064,0;
#NOTES:
0000
0000
0000
0000
,
0000
0000
0000
0000
,
0000
0000
0000
0000
,
0000
0000
0000
0000
,
1000
0000
0000
0000
,
0010
0000
0000
0000
,
0100
0000
0000
0000
,
0001
0000
1000
0000
,
0001
0000
0000
0000
,
0010
0000
0000
0000
,
0100
0000
0000
0000
,
1000
0000
0001
0000
,
0010
0000
0100
0000
,
0000
0000
0000
0000
,
0000
1000
0000
0010
,
0000
0000
0100
0000
,
0000
0001
0000
0100
,
0000
0000
0000
0000
,
0000
0010
0000
1000
,
0000
0000
0100
0000
,
0001
0000
1000
0000
,
0010
0000
0100
0000
,
0001
0000
0000
0000
,
0100
0000
0010
0000
,
2000
0000
0000
0000
,
0000
0000
0000
0000
,
3001
0000
0000
0000
,
0000
0000
0010
0000
,
0100
0000
0000
0000
,
0000
0000
0001
0000
,
1000
0000
0000
0000
,
0000
0000
0100
0000
,
0010
0000
0001
0000
,
1000
0000
0020
0000
,
0000
0030
0000
0000
,
0000
0000
0100
0000
,
0001
0000
1000
0000
,
0000
0000
0010
0000
,
0000
0000
0000
0000
,
0000
0100
0001
0000
,
1000
0000
0010
0000
,
0100
0000
0002
0000
,
0000
0000
0000
0000
,
0000
0000
0103
0000
,
0010
0000
0000
0000
,
0000
0000
0000
0001
,
0000
0100
0000
0000
,
0010
0000
0000
1000
,
0000
0010
0000
0000
,
0000
0000
0000
0100
,
0000
0001
0000
0000
,
0010
0000
1000
0000
,
0001
0000
0100
0000
,
0010
0000
1000
0000
,
0000
0000
0010
0000
,
0100
0000
0002
0000
,
0000
0000
0000
0000
,
0000
0000
1003
0000
,
0000
0000
0000
0000
,
0100
0000
0010
0000
,
0000
0000
0000
0000
,
1000
0000
0001
0000
,
0000
0000
0000
0000
,
0010
0000
0100
0000
,
1000
0000
0001
0000
,
0200
0000
0000
0300
,
0000
0000
0000
0000
,
0010
0000
1000
0000
,
0001
0000
0000
0000
,
0100
0000
0000
0000
,
0000
0000
0000
0010
,
1000
0000
0001
0000
,
0100
0000
0010
0000
,
2000
0000
0000
0000
,
0000
0000
0000
0000
,
3010
0000
0000
0000
,
0100
0000
0000
0000
,
0001
0000
0000
0000
,
2000
0000
0000
0000
,
3000
0000
0000
0000
;

//--------------- dance-single - B. M'Rey ----------------
#NOTEDATA:;
#STEPSTYPE:dance-single;
#DESCRIPTION:B. M'Rey;
#DIFFICULTY:Easy;
#METER:5;
#RADARVALUES:0.218,0.248,0.073,0.054,0;
#NOTES:
0000
0000
0000
0000
,
0000
0000
0000
0000
,
0000
0000
0000
0000
,
0000
0000
0000
0000
,
1000
0000
0001
0000
,
0100
0000
0010
0000
,
1000
0000
0001
0000
,
0010
0000
0001
0000
,
0100
0000
0010
0000
,
1000
0000
0100
0000
,
1000
0000
0001
0000
,
0010
0000
0100
0000
,
0001
1000
0001
1000
,
0000
0000
0000
0000
,
0010
0100
0010
0100
,
0000
0000
0000
0000
,
0001
1000
0010
0000
,
0100
0000
0000
0000
,
0001
1000
0010
0000
,
0100
0000
0000
0000
,
0001
0000
1000
0000
,
0010
0000
0100
0100
,
0100
0000
0001
0000
,
1000
0000
0010
0000
,
0100
0000
0001
0000
,
0010
0000
0001
0000
,
0110
0000
0000
0000
,
0000
0000
1000
1000
,
1000
0000
0100
0000
,
0010
0000
0001
0001
,
0001
0000
0010
0000
,
0100
0000
0010
0010
,
0010
0000
0100
0100
,
0100
0000
0001
0000
,
1000
0000
0010
0000
,
0100
0000
1001
0000
,
0001
0001
0001
0000
,
0000
0000
0100
0000
,
1000
0000
0010
0000
,
0001
1001
0100
0000
,
0010
0000
1000
0000
,
0001
0000
0200
0000
,
0310
0000
0002
0000
,
0103
0000
1000
0001
,
1000
0000
0110
0000
,
0000
0000
0100
0010
,
0100
0000
1001
0000
,
0000
0000
1000
0100
,
0010
0002
0000
0003
,
0000
0000
0000
0001
,
0010
0100
2000
0000
,
3000
0000
0010
0000
,
0100
0000
0001
0000
,
0010
0010
0010
0000
,
1000
0000
0100
0000
,
1000
0000
0001
0000
,
0010
0000
0100
0000
,
0001
0000
1001
0000
,
0000
0000
0000
0000
,
1000
1000
1000
0000
,
0100
0000
0010
0000
,
0001
0001
0001
0000
,
0010
0000
0100
0000
,
0010
0010
0010
0000
,
0100
0100
0100
0000
,
0001
0000
1000
0000
,
0010
0000
0100
0000
,
1001
0000
0001
0001
,
0001
0000
0000
0000
,
0100
0000
1000
0000
,
0010
0000
0001
1001
,
0100
0000
0010
0000
,
1000
0000
0001
0000
,
0200
0000
0310
0000
,
0002
0000
0103
0000
,
1000
0000
0000
0000
,
0100
0000
0000
0000
,
0001
0000
0000
0000
,
0010
0000
0000
0000
;

//--------------- dance-single - B. M'Rey ----------------
#NOTEDATA:;
#STEPSTYPE:dance-single;
#DESCRIPTION:B. M'Rey;
#DIFFICULTY:Medium;
#METER:8;
#RADARVALUES:0.337,0.356,0.018,0.109,0;
#NOTES:
0000
0000
0000
0000
,
0000
0000
0000
0000
,
0000
0000
0000
0000
,
0000
0000
0000
0000
,
1000
0001
0010
0100
,
0001
0010
0100
0010
,
1000
0010
0100
0001
,
0010
0001
1000
0010
,
0100
0001
0010
0001
,
1000
0010
0100
0010
,
1000
0001
0010
0001
,
0100
0010
0001
0010
,
1000
0001
1000
0010
,
0100
0000
0001
0000
,
0010
0100
0010
1000
,
0001
0000
1000
0000
,
0010
0100
1000
0001
,
0010
0000
0100
0000
,
0001
0010
0100
1000
,
0010
0000
0100
0000
,
0001
0001
0001
1000
,
1000
0001
1000
0010
,
0100
0001
0010
0001
,
1000
0010
0100
0001
,
0010
1000
0100
0010
,
0001
0010
0100
0010
,
1001
0000
0010
0000
,
0100
0000
0001
1000
,
0001
1000
0001
0000
,
0100
0000
0010
0100
,
0010
0100
0010
0000
,
0001
0000
1000
0100
,
0010
0000
0001
0010
,
0100
1000
0020
0000
,
0001
0000
0130
0000
,
1000
0000
0001
1000
,
0010
0100
0020
0000
,
0031
0000
0001
1000
,
0010
0200
0000
0310
,
0000
0001
0001
0000
0020
0000
0000
1030
,
0000
0000
0100
0000
0001
0000
0000
0010
,
0000
0100
0020
0100
,
0100
0130
0200
0010
,
0010
0310
0100
0010
,
0100
1000
0001
0000
,
0010
0000
1000
0001
,
1000
0100
0010
0000
,
0100
0000
1000
0001
,
0100
0000
0010
0000
1000
0100
0010
0000
,
0001
0000
0010
1000
,
0001
0000
0100
0000
1000
0100
0010
0000
,
0001
0000
0010
0010
,
0010
0100
0100
0010
,
0100
1000
0001
0010
,
1000
0010
0100
1000
,
0001
0010
1000
0100
,
0001
1000
0010
1000
,
0001
1000
0110
0000
,
1000
0000
0001
0000
,
0010
0100
0010
0100
,
0010
0000
0001
0000
,
1000
0001
1000
0001
,
1000
0000
0010
0000
,
0100
0001
1000
0000
,
0010
1000
0001
0100
,
2000
0000
0010
0000
,
3001
0000
0100
0000
,
0010
0100
1000
0001
,
2000
0000
3010
0000
,
0010
0100
1000
0002
,
0000
0000
1003
0000
0000
0010
0010
0000
,
2000
0000
0000
3100
0000
0000
0001
0000
,
0010
0000
0000
1000
0000
0000
0001
0000
,
2000
0001
0001
3001
,
0002
1000
1000
1003
,
0010
0000
1000
0000
,
0100
0000
0001
0000
,
0010
0000
0100
0000
,
0010
0000
0001
0000
;

//--------------- dance-single - B. M'Rey ----------------
#NOTEDATA:;
#STEPSTYPE:dance-single;
#DESCRIPTION:B. M'Rey;
#DIFFICULTY:Hard;
#METER:11;
#RADARVALUES:0.523,0.574,0.082,0.091,0;
#NOTES:
0000
0000
0000
0000
,
0000
0000
0000
0000
,
0000
0000
0000
0000
,
0000
0000
0000
0000
,
1000
0010
1000
0010
0000
0100
0000
0001
,
0010
0001
0010
0100
0000
1000
0000
0001
,
1000
0001
1000
0010
0000
0100
0000
0001
,
0010
1000
0100
0001
,
0010
0100
0010
0100
0000
0001
0000
0010
,
1000
0010
1000
0100
0000
0001
0000
0010
,
0100
0010
0100
0001
0000
0010
0000
1000
,
0100
0001
0010
0100
,
0010
0000
0001
1000
0001
1000
0000
0010
,
0100
0001
0010
0001
,
0100
0000
0010
0100
0010
0100
0000
1000
,
0001
0010
0100
0010
,
1000
0000
0001
0010
0100
0010
0000
0001
,
0000
1000
0000
0010
0100
0000
0010
0000
,
1000
0000
0010
0100
1000
0100
0000
1000
,
0010
0100
0001
0010
,
0001
1000
0001
1000
0001
1000
0001
1000
,
0100
0010
0001
0100
0010
1000
0000
0100
,
0010
0000
0001
0000
0010
0000
1000
0100
,
1000
1000
0100
0001
,
0010
0100
0001
0000
0100
0001
0010
0000
,
1000
0001
0100
0000
0010
1000
0010
0000
,
1001
0000
0000
0000
0010
0100
0010
0000
,
0001
1000
0001
0000
0010
0100
0010
0100
,
0010
0100
0010
0000
0001
0000
1000
0000
,
0010
0000
0100
0000
1000
0001
1000
0001
,
1000
0001
1000
0000
0010
0000
0100
0000
,
0001
0000
0010
0000
1000
0001
0010
0200
,
0000
0000
0300
0000
0001
0000
0100
1000
,
0000
0010
0100
0000
0001
0000
0010
0000
,
1000
0010
0100
0010
,
1000
0100
1001
0010
,
0001
0010
0100
1000
0100
0000
0010
0000
,
0100
0000
0001
0000
1000
0100
0010
0001
,
0010
0100
0010
0001
,
1000
1001
1001
0000
0010
0100
0000
1000
,
0000
0000
0100
0000
0001
1000
0000
0100
,
0000
0000
0001
0000
0010
0100
0010
0000
,
1000
0100
1000
0000
0001
0010
0001
0000
,
0010
0100
0010
0000
1000
0001
0010
0100
,
0010
1000
0000
0002
0000
0003
0000
0010
,
0000
0100
0000
0000
0000
0001
1000
0100
,
0010
0100
0000
2000
0000
3000
0100
0000
,
0010
0000
0000
0000
0001
1000
0010
0100
,
0001
0010
0100
0010
2002
0000
3003
0000
,
0010
0000
0100
0000
1000
0001
0100
0010
,
1000
0100
0010
0100
2002
3003
0000
0000
,
0010
0000
0100
0000
0001
0010
0001
0010
,
0001
0000
0010
0000
1000
0000
0010
0100
,
0001
0010
0000
1000
0000
0001
0000
0010
,
0100
0000
1000
0000
0001
1000
0001
1000
,
0010
0100
0001
0010
0200
0000
1000
0000
,
1000
0010
0010
1000
,
1000
0010
0310
0000
,
0100
0010
0100
0000
1000
0001
1000
0000
,
0100
0010
0100
0010
0100
0010
0100
0000
,
1000
0001
0100
0010
,
0001
1000
0001
1000
0001
1000
0001
0000
,
0100
0010
1000
0100
,
0001
1000
0100
0020
0000
0000
0030
0000
,
1000
0000
0010
0001
0000
0100
0010
0000
,
1000
0100
0001
0100
,
0010
0100
0001
0010
,
1001
0000
0100
0000
1000
0100
0010
0001
,
0010
0100
0010
1000
,
0001
0010
0100
1000
0100
0000
0010
0000
,
0100
0000
1000
0000
0001
1001
1001
0000
,
0100
0010
0000
0001
0000
0000
0010
0000
,
1000
0001
0000
0010
0000
0000
1000
0000
,
0100
0010
0100
0000
0001
0010
0001
0000
,
1000
0100
1000
0000
0100
0010
0100
0000
,
0001
1000
0100
0010
0000
0001
0000
1000
,
0100
0000
0000
0100
0010
0000
0000
0001
,
0000
1000
0001
0010
0100
0000
0000
1000
,
0001
0100
0010
0000
0002
0000
0000
0000
,
0003
0000
0000
0000
;
