#VERSION:0.83;
#TITLE:EAT YOU UP (Phat K Mix);
#ARTIST:ANGIE GOLD;
#GENRE:EUROBEAT;
#MUSIC:EAT YOU UP (Phat K Mix).ogg;
#BANNER:EAT YOU UP (Phat k Mix)-bn.png;
#BACKGROUND:EAT YOU UP (Phat K Mix)-bg.png;
#CDTITLE:./CDTitles/DANCEMANIA EUROMIX.png;
#SAMPLESTART:41.702;
#SAMPLELENGTH:15;
#OFFSET:-0.283;
#BPMS:0=155;

//--------------- dance-single - B. M'Rey ----------------
#NOTEDATA:;
#STEPSTYPE:dance-single;
#DESCRIPTION:B. M'Rey;
#DIFFICULTY:Beginner;
#METER:2;
#RADARVALUES:0,0,0,0,0;
#NOTES:
0000
0000
0000
0000
,
0000
0000
0000
0000
,
0000
0001
0000
0010
,
0000
0001
0000
0100
,
0000
0010
0000
0001
,
0000
0010
0000
0001
,
1000
0100
0000
0001
,
0000
0010
0000
0001
,
0000
0100
0000
0010
,
0000
0001
1000
0100
,
0010
0001
0000
0010
,
0000
0001
1000
0000
,
0100
0001
0000
0100
,
0000
0001
0000
0000
,
0000
0001
0000
0010
,
0000
0001
0010
0000
,
0000
0010
0000
0001
,
0000
0010
0000
0000
,
0000
0100
0000
0001
,
0000
0010
0000
0001
,
0000
0100
0000
0001
,
0000
0020
0000
0000
,
0000
0130
0000
0010
,
0000
0001
1000
0000
,
0000
0001
0000
0010
,
0000
0001
0000
0020
,
0000
0000
0000
0030
,
1000
0010
0100
0000
,
1000
0000
0100
0000
,
0000
0100
0000
0001
,
0000
0010
0000
0001
,
0000
0100
1000
0000
,
0020
0000
1030
0000
,
0000
0010
1000
0000
,
0010
0002
0000
0000
,
0000
0013
0000
0010
,
0000
0001
0000
0010
,
0000
0001
0000
0100
,
0000
0001
0010
0100
,
1000
0010
0000
0001
,
0000
0100
0000
0001
,
0000
0100
0000
0001
,
0000
0200
0000
0000
,
0000
0310
1000
0000
,
0100
0000
1000
0000
,
0000
0100
0000
1000
,
0000
0200
0000
0000
,
0000
0301
1000
0000
,
0020
0000
1030
0000
,
0000
0001
0000
0100
,
0000
0001
0000
0100
,
0000
0010
0100
0000
,
2000
0000
3100
0000
,
0000
0010
0000
0001
,
0000
0100
0000
0001
,
0200
0000
0000
0000
,
0000
0300
0000
0000
;

//--------------- dance-single - B. M'Rey ----------------
#NOTEDATA:;
#STEPSTYPE:dance-single;
#DESCRIPTION:B. M'Rey;
#DIFFICULTY:Easy;
#METER:6;
#RADARVALUES:0,0,0,0,0;
#NOTES:
0000
0000
0000
0000
,
0000
0000
0000
0000
,
0000
0001
1000
0010
,
1000
0100
1000
0100
,
0010
0100
1000
0001
,
1000
0001
0100
0001
,
0100
0010
1000
0100
,
1000
0010
0100
0010
,
1000
0100
0010
0001
,
1000
0100
1000
0100
,
1000
0010
0100
0010
,
1000
0100
0000
0010
,
0000
0001
0100
0001
,
1000
0020
0000
0000
,
0000
0130
1000
0100
,
1000
0010
0000
0001
,
0000
0001
1000
0010
,
0100
0020
0000
0000
,
0000
0031
0010
0100
,
0010
0001
0000
0001
,
0000
0100
1000
0100
,
0010
0001
0000
0000
,
0100
0001
0010
0100
,
0010
0100
0000
0001
,
0000
0010
1000
0010
,
1000
0001
0000
0002
,
0000
0000
0000
0013
,
0000
0001
1000
0000
,
0100
0000
1000
0000
,
0100
0001
0010
0100
,
1000
0200
0000
0000
,
0310
0001
1000
0000
,
0020
0000
0130
0000
,
0000
0001
1000
0010
,
1000
0200
0010
0010
,
0310
1001
0000
1001
,
0000
1100
0000
1100
,
0000
0001
0000
0010
,
0100
0001
0100
0001
,
0100
0110
0000
0110
,
0000
1001
0000
1001
,
0000
0011
0000
1100
,
0000
0200
0010
0010
,
0010
0310
0010
0000
,
0100
0000
1000
0010
,
0000
0001
0010
0100
,
0010
0200
1000
1000
,
1000
0310
0100
0000
,
1000
0001
0100
0000
,
0100
0010
1000
0001
,
0010
0200
0001
0001
,
0001
0301
0100
0000
,
0100
0000
1000
0100
,
0000
0001
0100
0010
,
1000
0200
1000
1000
,
1000
1300
0010
0001
,
0010
0002
0000
0000
,
0000
0003
0000
0000
;

//--------------- dance-single - B. M'Rey ----------------
#NOTEDATA:;
#STEPSTYPE:dance-single;
#DESCRIPTION:B. M'Rey;
#DIFFICULTY:Medium;
#METER:9;
#RADARVALUES:0,0,0,0,0;
#NOTES:
0000
0000
0000
0000
,
0000
0000
0000
0000
,
0000
0000
0001
0100
0001
0000
0001
1000
,
0100
0100
0001
0010
,
0010
0000
0001
1000
0001
0000
0001
0100
,
0010
0010
0001
0010
,
0010
0000
0001
0100
0001
0000
0001
0010
,
0100
0100
0100
0001
,
0100
0000
0100
1000
0100
0000
0001
0010
,
0001
0001
0100
0100
,
0001
0010
1000
0100
,
0010
0001
0100
0010
,
1000
0100
1000
0010
,
0100
0002
1000
0100
,
0010
0013
0100
0001
,
0010
0001
0100
0010
,
0100
0001
0010
0100
,
1001
0000
0001
1000
0001
1000
0010
1000
,
0010
0100
0010
0000
0010
0000
0100
0000
,
0010
1000
0010
0100
,
0001
0010
0100
0010
,
0001
0110
0101
0110
,
1001
0100
0001
0010
,
0001
0100
0010
1000
,
0100
0010
0100
1000
,
0001
0000
0001
1000
0001
0000
0100
1000
,
0100
0001
0001
0001
,
0000
0000
0100
1000
0100
0000
0001
0000
,
0001
0000
0001
1000
0010
1000
0000
1000
,
0000
0010
0100
0000
0001
0000
1000
0000
,
0010
1000
0100
1000
,
0110
0000
0100
1000
0001
0000
0010
0000
,
0000
0200
0000
0300
1000
1000
0000
0000
,
0100
0010
0001
0100
,
0001
0010
0001
1000
,
0100
0100
0010
0000
0100
0000
0010
0000
,
0100
0100
0001
0000
0010
0000
0100
0000
,
0010
0010
1000
0000
0010
0000
0100
0000
,
0001
0001
0001
0000
0100
0000
0010
0000
,
1001
0011
0011
0101
,
0110
0110
1001
0110
,
1001
1100
1100
0110
,
0101
0002
0000
0000
,
0000
0000
0013
0100
0001
0000
0001
0000
,
0020
0000
0030
1000
0001
0000
0001
0000
,
0100
0010
0100
0010
,
0001
0100
0010
0100
,
0001
0000
0010
0100
0010
0000
0010
0000
,
0100
1000
0000
0010
0001
0000
0010
0000
,
0100
0010
0001
1000
,
0010
0100
0001
0010
,
0001
0000
0001
0010
0100
0000
0100
0000
,
0001
0000
0001
0000
0001
1000
0000
0000
,
0010
0001
0100
0010
,
1000
0100
0010
0001
,
0100
0010
1000
0100
,
0100
2002
0000
0000
,
0000
3003
0000
0000
;

//--------------- dance-single - B. M'Rey ----------------
#NOTEDATA:;
#STEPSTYPE:dance-single;
#DESCRIPTION:B. M'Rey;
#DIFFICULTY:Hard;
#METER:13;
#RADARVALUES:0,0,0,0,0;
#NOTES:
0000
0000
0000
0000
,
0000
0000
0000
0000
,
0000
0000
0010
0001
0100
0010
1000
0100
,
0010
0001
0100
0010
1000
0100
0010
0100
,
0010
0001
0100
0010
1000
0001
0100
0001
,
0100
0001
0010
0000
1000
0000
1000
0000
,
0010
0000
0100
0001
1000
0100
0010
0001
,
1000
0100
0010
0100
0010
0001
1000
0010
,
0100
0001
1000
0100
1000
0010
0100
0010
,
0100
0001
0010
0000
1000
0000
1000
0000
,
0010
0000
0100
0010
0100
0010
1000
0100
,
1000
0100
0000
0001
0000
0001
0000
0100
,
0010
0001
0010
0100
1000
0020
0000
0031
,
0000
0100
0010
0001
0100
0010
1000
0001
,
0100
0010
1000
0100
1000
0100
0010
0100
,
1000
0010
0000
0001
0000
0010
0000
0010
,
1000
0000
0010
0001
0100
0020
0000
0100
,
0000
0000
0130
0000
1000
0000
0001
0000
0100
0000
0001
0000
0100
0010
0100
0010
,
0100
1000
0100
0010
0100
0001
0000
0001
,
0100
0001
0000
0010
0000
0001
0000
1000
,
0000
0010
1000
0010
0100
0001
0000
0100
,
0010
0100
2000
0000
3020
0000
0032
0000
,
0013
0100
0010
0001
0100
0010
0000
0001
,
0100
0010
0000
0001
0000
0001
0000
0001
,
1000
0000
0000
0100
0010
0001
1000
0000
,
0010
0000
0001
0000
1000
0000
0001
0000
0010
0000
0001
0000
1000
0001
1000
0001
,
0010
0001
1000
0100
1010
0000
0000
0110
0000
0000
0001
0000
1000
0000
0100
0000
,
0010
0100
1000
0100
0010
0100
1000
0001
,
1000
0001
1000
0010
0100
0001
0010
0100
,
1000
0010
0100
0001
0100
0010
0100
0010
,
1000
0010
0100
0001
0010
0100
0010
0001
,
1000
0010
1000
0010
0100
0001
0010
0001
,
1000
0010
0100
0001
0010
0001
1000
0001
,
0010
0100
0010
0001
0100
0010
0100
0001
,
0010
0001
0100
0010
1000
0010
1000
0010
,
0100
0001
0011
0000
0010
0001
0000
0100
,
0010
0001
1100
0000
1000
0100
0000
0001
,
0010
0100
0011
0000
0010
0100
0000
0001
,
1000
0010
0101
0000
1010
0000
1001
0000
,
0010
0001
1000
1000
0100
0100
1000
1000
,
0100
0100
0001
0001
0010
0010
0001
0001
,
0010
0010
0100
0100
1000
1000
0100
0100
,
1000
1000
0022
0000
0000
0000
0000
0000
,
0000
0000
1033
0001
1000
0001
0010
0001
,
0010
0100
0010
0001
1000
0010
1000
0100
,
0010
0100
1000
0010
0100
0001
1000
0001
,
0010
0100
0010
0001
0010
0100
1000
0001
,
0010
0001
0010
0001
1000
0100
0010
0001
,
0100
0001
1000
0010
0100
0010
1000
0100
,
1000
0010
0100
0001
0010
0100
1000
0010
,
1000
0001
0100
0010
0100
0001
0010
0001
,
0100
0010
1000
0100
0010
0100
0010
0100
,
1000
0010
0100
0001
0010
0100
1000
0010
,
0100
0010
1000
0001
1000
0100
1000
0010
,
0100
0001
0100
0001
0100
0010
1000
0001
,
0010
0100
0010
0100
0010
0001
0100
0010
,
0100
0001
2020
0000
0000
0000
0000
0000
,
0000
3030
0000
0000
;
