#VERSION:0.83;
#TITLE:Drive Reflex;
#ARTIST:NAOKI-REISEN;
#GENRE:2STEP;
#MUSIC:Drive Reflex.ogg;
#BANNER:Drive Reflex-bn.png;
#BACKGROUND:Drive Reflex-BG.png;
#CDTITLE:./CDTITLES/DANCE DANCE REVOLUTION EXTREME 3.PNG;
#SAMPLESTART:44.849;
#SAMPLELENGTH:15;
#OFFSET:-0.050;
#BPMS:0=150,160=300,224=150,228=300,292=150;

//--------------- dance-single - B. M'Rey ----------------
#NOTEDATA:;
#STEPSTYPE:dance-single;
#DESCRIPTION:B. M'Rey;
#CREDIT:B. M'Rey;
#DIFFICULTY:Beginner;
#METER:2;
#RADARVALUES:0,0,0,0,0;
#NOTES:
0000
0000
0000
0000
,
0000
0000
0000
0000
,
1000
0000
0001
0000
,
0010
0000
0001
0000
,
0100
0000
0000
0000
,
0010
0000
0000
0000
,
1000
0000
0001
0000
,
0010
0000
0100
0000
,
0001
0000
0000
0000
,
1000
0000
0000
0000
,
0010
0000
0000
0000
,
0000
0100
0000
0000
,
0100
0000
0001
0000
,
1000
0000
0000
0000
,
0010
0000
0100
0000
,
0001
0000
0000
0000
,
1000
0000
0100
0000
,
1000
0000
0000
0000
,
0010
0000
0100
0000
,
0001
0000
0000
0000
,
1000
0000
0000
0000
,
0010
0000
0100
0000
,
0001
0000
0000
0000
,
0010
0000
0100
0000
,
1000
0000
0000
0000
,
0001
0000
0010
0000
,
0001
0000
0000
0000
,
0100
0000
0010
0000
,
1000
0000
0001
0000
,
1000
0000
0000
0000
,
0010
0000
0000
0000
,
0000
0000
0000
0000
,
0100
0000
0000
0000
,
0000
0000
0000
0000
,
0001
0000
0000
0000
,
0000
0000
0000
0000
,
1000
0000
0000
0000
,
0000
0000
0000
0000
,
0010
0000
0100
0000
,
0010
0000
0000
0000
,
0001
0000
0010
0000
,
0001
0000
0000
0000
,
1000
0000
0100
0000
,
1000
0000
0000
0000
,
0001
0000
0000
0000
,
1000
0000
0000
0000
,
0001
0000
0000
0000
,
1000
0000
0000
0000
,
0001
0000
0010
0000
,
0001
0000
0000
0000
,
0100
0000
1000
0000
,
0100
0000
0000
0000
,
0001
0000
0000
0000
,
1000
0000
0000
0000
,
0010
0000
0000
0000
,
0100
0000
0000
0000
,
0001
0000
0000
0000
,
1000
0000
0000
0000
,
0000
0000
0000
0000
,
0010
0000
0000
0000
,
0000
0000
0000
0000
,
0100
0000
0000
0000
,
0000
0000
0000
0000
,
0001
0000
0000
0000
,
0000
0000
0000
0000
,
1000
0000
0000
0000
,
0001
0000
0000
0000
,
1000
0000
0000
0000
,
0001
0000
0000
0000
,
0100
0000
0000
0000
,
0010
0000
0000
0000
,
0100
0000
0000
0000
,
0010
0000
0000
0000
,
0001
0000
0000
0000
,
1000
0000
0000
0000
;

//--------------- dance-single - B. M'Rey ----------------
#NOTEDATA:;
#STEPSTYPE:dance-single;
#DESCRIPTION:B. M'Rey;
#CREDIT:B. M'Rey;
#DIFFICULTY:Easy;
#METER:4;
#RADARVALUES:0,0,0,0,0;
#NOTES:
0000
0000
0000
0000
,
0000
0000
0000
0000
,
1000
0001
0010
0000
,
0001
0010
0100
0000
,
1001
0000
0101
0000
,
0110
0000
1010
0000
,
0001
0100
0010
0000
,
1000
0100
1000
0000
,
0101
0000
0110
0000
,
1010
0000
0110
0000
,
0001
0000
1000
0000
,
0010
0000
0100
0000
,
0001
0000
0010
0010
,
0010
0000
1000
0000
,
0100
0000
1000
1000
,
1000
0000
0001
0000
,
0010
0000
0001
0001
,
0001
0000
0100
0000
,
0010
0000
1000
1000
,
0001
0000
0100
0000
,
0010
0000
1000
0000
,
0100
0000
1000
0000
,
0001
0000
0010
0000
,
0001
0000
0100
0000
,
0010
0000
1000
0000
,
0100
0000
0001
0000
,
0010
0000
0001
0000
,
0100
0000
0010
0000
,
1000
0000
0001
0001
,
0001
0000
0000
0000
,
0100
0000
0010
0000
,
1000
0000
0000
0000
,
0001
0000
0010
0000
,
0001
0000
0100
0000
,
0010
0000
1000
0000
,
0001
0000
0100
0000
,
0010
0000
0001
0000
,
0010
0000
1000
0000
,
0001
0000
1000
0000
,
0001
0000
0100
0000
,
0010
0000
1000
0000
,
0000
0000
0010
0000
,
0100
0000
0001
0000
,
0000
0000
0010
0000
,
1001
0000
0000
0000
,
0101
0000
0000
0000
,
0110
0000
0000
0000
,
1010
0000
0000
0000
,
0001
0000
1000
0000
,
0010
0000
0000
0000
,
0100
0000
1000
0000
,
0010
0000
0000
0000
,
0101
0000
0000
0000
,
0110
0000
0000
0000
,
1010
0000
0000
0000
,
0110
0000
0000
0000
,
0001
0000
1000
0000
,
0001
0000
0010
0000
,
0001
0000
0010
0000
,
0001
0000
0010
0000
,
0001
0000
0010
0000
,
1000
0000
0100
0000
,
1000
0000
0100
0000
,
1000
0000
0100
0000
,
1000
0000
0100
0000
,
0001
0000
1000
0000
,
0001
0000
1000
0000
,
0010
0000
0100
0000
,
0010
0000
0100
0000
,
0001
0000
0010
0000
,
0001
0000
0010
0000
,
1000
0000
0100
0000
,
0001
0000
0010
0000
,
0001
0000
1000
0000
,
0010
0000
0100
0101
;

//--------------- dance-single - B. M'Rey ----------------
#NOTEDATA:;
#STEPSTYPE:dance-single;
#DESCRIPTION:B. M'Rey;
#CREDIT:B. M'Rey;
#DIFFICULTY:Medium;
#METER:9;
#RADARVALUES:0,0,0,0,0;
#NOTES:
0000
0000
0000
0000
,
0000
0000
0000
0000
,
0100
1000
0100
0010
,
0001
0010
0001
0100
,
0001
0000
0100
1000
0010
0000
0100
0010
,
0001
0000
0010
0001
0100
0000
1000
0010
,
0100
1000
0010
0100
,
0001
0010
0100
1000
,
0100
0000
1000
0001
0100
0000
0010
1000
,
0001
0000
0100
0010
0001
0000
0010
0000
,
0100
1000
0100
0010
,
0100
1000
0000
0000
0001
0000
1000
0000
,
0100
0010
0000
0000
0001
0000
1000
0000
,
0100
1000
0000
0000
0100
0000
1000
0000
,
0010
0100
0000
0000
0001
0000
1000
0000
,
0100
0010
0000
0000
0100
0000
0010
0000
,
0001
1000
0000
0000
0100
0000
0010
0000
,
0100
0010
0000
0000
0100
0000
1000
0000
,
0001
1000
0000
0000
0001
0000
0100
0000
,
0010
1000
0010
1000
,
0001
1000
0010
0000
0001
0100
1000
0000
,
0010
1000
0010
0100
,
0001
0010
1000
0000
0010
1000
0100
0000
,
0001
0100
0001
0010
,
0100
0001
1000
0000
0010
0100
1000
0000
,
0001
0010
0100
1000
,
0010
0001
0100
0000
0010
0100
1000
0000
,
0010
1000
0100
1000
,
0010
0100
0010
1000
,
0010
0100
0000
0001
0000
1000
0100
0000
,
0010
1000
0010
1000
,
0001
0100
0010
0100
,
0010
1000
0100
0010
,
0001
0010
0100
0010
,
0001
1000
0010
0100
,
0001
0100
0001
1000
,
0100
0010
0100
0010
,
0001
1000
0100
0010
,
0001
0010
0100
0010
,
0001
0100
0010
0100
,
0010
1000
0100
0010
,
0100
0010
0001
0010
,
0001
1000
0001
1000
,
0100
1000
0100
0010
,
0100
0010
0011
0000
,
0001
0100
0101
0000
,
0010
0100
1010
0000
,
0010
1000
1100
0000
,
0001
0010
0001
0010
,
0100
0010
0100
1000
,
0100
1000
0001
1000
,
0010
0100
0010
0100
,
0001
0100
1001
0000
,
0001
1000
1010
0000
,
0010
0100
0110
0000
,
0001
0100
0011
0000
,
0001
1000
0100
0010
,
0001
0010
0001
0010
,
0100
1000
0001
0010
,
0100
1000
0010
1000
,
0010
1000
0100
0010
,
0100
0010
0100
1000
,
0001
1000
0001
0010
,
0001
0010
0100
0010
,
0100
1000
0001
0010
,
0001
0010
0100
0010
,
0001
0100
0001
1000
,
0100
1000
0001
0010
,
0100
1000
0001
1000
,
0010
1000
0010
0100
,
0010
1000
0100
0010
,
0100
0010
0001
0100
,
0010
0100
0001
0100
,
0010
1000
0001
1000
,
0001
0100
0001
1000
;

//--------------- dance-single - B. M'Rey ----------------
#NOTEDATA:;
#STEPSTYPE:dance-single;
#DESCRIPTION:B. M'Rey;
#CREDIT:B. M'Rey;
#DIFFICULTY:Hard;
#METER:13;
#RADARVALUES:0,0,0,0,0;
#NOTES:
0000
0000
0000
0000
,
0000
0000
0000
0000
,
0001
1000
0001
0100
0001
0100
0010
0100
,
0010
1000
0010
1000
0001
1000
0001
0100
,
0001
0110
0010
1010
,
0001
0101
0001
1010
,
0010
1000
0010
0100
0001
1000
0001
1000
,
0010
0100
0001
0100
0001
0100
0010
1000
,
0010
0110
0001
1010
,
0010
0011
0001
1001
,
0010
0100
0010
0100
0010
0000
1000
0000
,
0001
1000
0000
1000
0001
0010
0100
0010
,
0100
0010
0000
1000
0001
1000
0001
0000
,
0010
0100
0000
0100
0001
0010
0100
0010
,
0100
0010
0000
1000
0001
1000
0001
0010
,
0100
0010
0000
0010
0001
0000
0001
1000
,
0001
0100
0000
0100
0010
0100
0001
1000
,
0001
1000
0000
0010
0100
0000
0001
0010
,
0001
0100
0000
0100
0010
0100
0010
1000
,
0001
0000
1000
0000
0010
0100
0010
0000
,
0001
1000
0001
0010
0001
0010
0100
0010
,
0100
1000
0100
1000
0001
0010
0100
0010
,
0100
1000
0100
1000
0001
1000
0001
0010
,
0001
0010
0100
0010
0100
1000
0010
1000
,
0010
1000
0100
0010
0100
0010
0100
1000
,
0001
0010
0001
0010
0001
1000
0100
1000
,
0100
1000
0010
0100
0010
0100
0010
1000
,
0100
1000
0100
1000
0010
0100
0010
0100
,
0001
1000
0001
1000
0001
0000
0010
0000
,
0010
0100
0000
1000
0000
0100
0001
0000
,
0010
0100
0010
0000
0100
0010
0100
0000
,
0100
1000
0000
0001
0000
1000
0100
0000
,
0100
0010
0000
1000
0000
0001
0000
0010
,
0000
0010
0100
1000
0100
1000
0100
0000
,
0001
0010
0001
0000
0001
1000
0100
0000
,
0100
1000
0000
0100
0000
0100
0010
0000
,
0001
0010
0001
0010
0001
0100
0010
0100
,
0010
0100
0001
0010
0001
0010
0001
1000
,
0100
1000
0100
0000
0001
0010
0100
0000
,
0100
0010
0000
0100
0000
0001
0010
1000
,
0001
1000
0001
1000
,
0001
0010
0100
0010
,
0100
1000
0100
1000
,
0001
0100
0001
0100
,
0001
0010
0100
0010
,
0100
0010
0001
0100
,
0001
0100
0001
1000
,
0100
1000
0100
1000
,
0001
0100
0010
0100
,
0010
0100
0001
0010
,
0001
0010
0001
1000
,
0010
1000
0010
0100
,
0010
0100
0001
0100
,
0001
0010
0100
0010
,
0100
0010
0001
1000
,
0001
1000
0001
0010
,
0100
1000
0100
1000
,
0001
1000
0001
1000
0001
0000
0100
0000
,
0100
0010
0001
0100
0010
0000
0010
0000
,
0001
0010
0001
0010
0001
0000
0100
0000
,
0100
1000
0010
0100
0010
0000
0010
0000
,
0001
1000
0001
0100
0001
0000
0010
0000
,
0010
1000
0010
1000
0100
0000
0100
0000
,
0100
0010
0001
0010
0100
0000
0100
0000
,
0001
0010
0001
0100
0001
0000
0010
0000
,
0010
1000
0010
0100
0001
0000
0010
0000
,
0010
1000
0010
1000
0100
0000
0100
0000
,
0100
0010
0001
0010
0001
0000
0001
0000
,
0100
1000
0100
0010
0001
0000
0001
0000
,
0001
0010
0100
0010
0100
0000
0001
0000
,
0001
1000
0001
0100
0010
0000
0010
0000
,
0001
0010
0001
0010
0001
0000
0010
0000
,
0001
0010
0001
0100
0001
0000
0100
0000
,
0100
0010
0001
0010
0100
0010
0001
1000
,
0001
1000
0001
0100
0010
0100
1000
0000
;
