#VERSION:0.83;
#TITLE:Dragon Flyer;
#ARTIST:NAOKI underground;
#GENRE:PIANO AMBIENT;
#MUSIC:Dragon Flyer.ogg;
#BANNER:Dragon Flyer-bn.png;
#BACKGROUND:Dragon Flyer-bg.png;
#CDTITLE:./CDTITLES/DANCE DANCE REVOLUTION EXTREME 3.PNG;
#SAMPLESTART:44.460;
#SAMPLELENGTH:15;
#OFFSET:-0.211;
#BPMS:0=130.031;

//--------------- dance-single - B. M'Rey ----------------
#NOTEDATA:;
#STEPSTYPE:dance-single;
#DESCRIPTION:B. M'Rey;
#CREDIT:B. M'Rey;
#DIFFICULTY:Beginner;
#METER:2;
#RADARVALUES:0,0,0,0,0;
#NOTES:
0000
0000
0000
0000
,
0000
0000
0000
0000
,
0000
0000
0000
0000
,
0000
0000
0000
0000
,
0000
0000
0000
0000
,
0001
0000
0000
0100
,
0010
0000
0000
1000
,
0001
0000
0000
0100
,
0001
0000
0000
0000
,
0010
0000
0000
1000
,
0001
0000
0000
0100
,
0010
0000
0000
1000
,
0010
0000
0000
0000
,
0001
0000
0000
0010
,
0100
0000
0000
1000
,
0001
0000
0000
0100
,
0010
0000
0000
0000
,
1000
0000
0000
0001
,
0100
0000
0000
0010
,
1000
0000
0000
0100
,
0010
0000
0000
0000
,
1000
0000
0000
0000
,
0001
0000
0000
0000
,
0100
0000
0000
0110
,
0001
0000
0000
1000
,
0010
0000
0100
0000
,
0010
0000
1000
0000
,
0001
0000
0000
0000
,
0110
0000
0000
1000
,
0001
0000
0100
0000
,
0010
0000
1000
0000
,
0001
0000
0000
0000
,
0100
0000
0000
0010
,
1000
0000
0100
0010
,
0001
0000
1000
0001
,
0010
0000
0100
0000
,
1000
0000
0000
0001
,
1000
0000
0010
0100
,
0010
0000
1000
0000
,
0001
0000
0100
0000
,
0010
0000
0000
0000
,
1000
0000
0000
0000
,
0001
0000
0000
0000
,
0010
0000
0000
0000
,
0100
0000
0000
0000
,
0010
0000
0000
0000
,
1000
0000
0000
0000
,
0001
0000
0000
0000
,
0010
0000
0000
0000
,
0100
0000
0000
0000
,
0010
0000
0000
0000
,
1000
0000
0000
0000
,
0001
0000
0000
0000
,
1000
0000
0000
0000
,
0010
0000
0000
0000
,
0100
0000
0000
0000
,
0010
0000
0000
0000
,
1000
0000
0000
0000
,
0001
0000
0000
0000
,
0010
0000
0000
0000
,
0001
0000
0000
0000
,
0100
0000
0000
0000
,
0010
0000
0000
0000
,
1000
0000
0000
0000
,
0100
0000
0000
0000
,
0010
0000
0000
0000
,
0001
0000
0000
0000
;

//--------------- dance-single - B. M'Rey ----------------
#NOTEDATA:;
#STEPSTYPE:dance-single;
#DESCRIPTION:B. M'Rey;
#CREDIT:B. M'Rey;
#DIFFICULTY:Easy;
#METER:5;
#RADARVALUES:0,0,0,0,0;
#NOTES:
0000
0000
0000
0000
,
0000
0000
0000
0000
,
0000
0000
0000
0000
,
0000
0000
0000
0000
,
0000
0000
0000
0000
,
1000
0000
0010
0100
,
0001
0000
0010
1000
,
0100
0000
0010
0100
,
0001
0000
1000
0010
,
0100
0000
0001
0000
,
1000
0000
0010
0000
,
0100
0000
0010
0000
,
0001
0000
1000
0000
,
0010
1000
0010
1000
,
0010
0100
0001
0100
,
0001
0010
1000
0010
,
1000
0001
0100
0001
,
0010
0100
0010
0100
,
0001
1000
0001
1000
,
0010
0100
0010
0100
,
0001
0000
1000
0000
,
0010
0000
0100
0000
,
0001
0001
1000
1000
,
0010
0010
0100
1001
,
0010
0000
0000
0100
,
0001
0000
1000
0010
,
0100
0000
0100
0000
,
0010
0000
0001
0010
,
1000
0000
0100
0000
,
0010
0000
0001
1000
,
0010
0000
0100
0000
,
0010
0000
0001
0010
,
0001
0000
0000
0000
0000
1000
0010
0000
,
0100
0000
0010
0100
,
0001
0000
0001
1000
,
0010
0000
1000
0000
,
0010
0000
0000
0000
0000
0100
0001
0000
,
0010
0000
0100
0010
,
1000
0000
0001
1000
,
0010
0000
0100
0000
,
0010
0000
1000
0000
,
0100
0000
1000
0000
,
0100
0000
0010
0000
,
0100
0000
0010
0000
,
0001
0010
0001
0000
,
1000
0100
1000
0000
,
0010
0100
0010
0000
,
0001
0010
0001
0000
,
1000
0000
0010
0000
,
0100
0001
0010
0000
,
1000
0000
0010
0000
,
0100
0001
0000
0010
,
1000
0000
0100
0000
,
0001
0010
1000
0000
,
0010
0000
0100
0000
,
0010
0001
1000
0000
,
0010
0000
0100
0000
,
0001
1000
0010
0000
,
0100
0000
0010
0000
,
0001
1000
0010
0000
,
0100
0000
0010
0000
,
1000
0100
0010
0000
,
0001
0000
0010
0000
,
0100
0000
0010
0000
,
1000
0000
0002
0000
,
0000
0000
0000
0000
,
1003
0000
0000
0000
;

//--------------- dance-single - B. M'Rey ----------------
#NOTEDATA:;
#STEPSTYPE:dance-single;
#DESCRIPTION:B. M'Rey;
#CREDIT:B. M'Rey;
#DIFFICULTY:Medium;
#METER:9;
#RADARVALUES:0,0,0,0,0;
#NOTES:
0000
0000
0000
0000
,
0000
0000
0000
0000
,
0000
0000
0000
0000
,
0000
0000
0000
0000
,
0000
0000
0000
0000
,
0001
0100
0010
0100
,
0010
1000
0100
1000
,
0100
0010
0100
1000
,
0001
1000
0100
1000
,
0100
0010
0001
0010
,
0100
1000
0001
0010
,
0001
0100
0001
0100
,
0010
1000
0010
0100
,
0010
0000
0001
1000
0010
0000
0010
1000
,
0100
0000
0010
1000
0001
0000
0001
0100
,
0010
0000
0010
0100
0001
0000
0100
0010
,
0001
0000
0010
1000
0010
0000
0100
0010
,
0001
0000
0100
0010
0001
0000
0001
0010
,
0100
0000
0100
1000
0001
0000
0100
1000
,
0100
0000
0010
0100
0010
0000
0010
1000
,
1001
0000
0100
0010
0001
0000
0100
1000
,
0110
0000
0001
1000
0100
0000
0001
0100
,
0101
0001
0110
0001
,
0001
0100
0001
1001
,
0100
0000
0001
0000
0001
0100
0010
1000
,
0100
0000
0100
0000
0001
0010
0100
0010
,
0000
0001
0000
1000
0100
0001
0000
1000
,
0010
0000
0010
1000
0001
0000
0010
0000
,
1000
0100
0010
1000
0000
0100
0001
1000
,
0001
0000
0100
0010
0001
0000
0100
0000
,
0100
0010
0001
0010
0000
1000
0010
1000
,
0001
0000
0001
0010
0100
0000
1000
0000
,
0100
0000
0010
0000
0001
1000
0010
0000
,
0001
0000
1000
0000
0010
0001
0100
0000
,
0001
0000
0100
0000
0001
0010
1000
0010
,
0100
0000
0010
0000
1001
0000
0100
0001
,
0010
0000
1000
0000
0010
1000
0100
0010
,
0001
0000
0100
0000
0001
1000
0010
0000
,
0001
0000
0100
0000
0010
0100
1000
0000
,
1001
0000
0100
0010
0100
0000
1000
0001
,
0100
0010
0001
1000
,
0100
1000
0001
0010
,
0001
0010
0100
0010
,
0001
1000
0010
1000
,
0001
0000
0100
1000
0001
0000
0010
0000
,
0001
0000
0100
0001
0010
0000
1000
0000
,
0001
0000
0010
1000
0001
0000
0010
0000
,
0001
0000
0100
0001
0010
0000
1000
0000
,
0010
0000
1000
0000
0100
0000
0010
0001
,
0100
0000
1000
0000
0001
0000
0010
1000
,
0001
0000
1000
0000
0010
0000
1000
0001
,
0100
1000
0010
0000
0100
0000
1000
0000
,
0010
0000
1000
0000
0100
0000
1000
0010
,
0001
0000
0010
0000
0001
0000
0010
1000
,
0100
0000
0010
0000
0100
0000
1000
0010
,
0001
1000
0100
0000
0001
1000
0010
0100
,
0001
0000
0010
0000
0100
0000
0010
1000
,
0001
0000
1000
0100
0010
0000
0100
0001
,
0010
0000
1000
0000
0001
0000
0100
0001
,
0010
1000
0100
0000
0001
0010
1000
0100
,
0001
0000
1000
0000
0010
0000
0100
0001
,
0010
0000
1000
0100
0010
0000
0100
1000
,
0001
1000
0100
0010
,
0100
0000
0010
0001
0100
0000
1000
0100
,
0010
0000
1000
0001
0100
0000
1000
0000
,
0100
0010
0001
1000
,
1001
0000
0000
0000
;

//--------------- dance-single - B. M'Rey ----------------
#NOTEDATA:;
#STEPSTYPE:dance-single;
#DESCRIPTION:B. M'Rey;
#CREDIT:B. M'Rey;
#DIFFICULTY:Hard;
#METER:12;
#RADARVALUES:0,0,0,0,0;
#NOTES:
0000
0000
0000
0000
,
0000
0000
0000
0000
,
0000
0000
0000
0000
,
0000
0000
0000
0000
,
0000
0000
0000
0000
,
0001
0000
1000
0000
0010
0000
0100
0010
,
0001
0000
0010
0000
1000
0000
0010
0100
,
0001
0000
0010
0000
1000
0000
0100
1000
,
0010
0100
0010
0100
,
0001
0010
0001
0000
0010
1000
0010
0000
,
0100
0010
0100
0000
0001
0010
0001
0000
,
1000
0010
1000
0000
0010
0100
0001
0000
,
0001
0000
1000
0000
0010
0100
0001
1000
,
0010
0100
0001
0100
0010
1000
0001
0100
,
0010
0000
0100
0001
0100
0010
1000
0001
,
0100
0000
0010
1000
0010
1000
0010
0100
,
0001
0000
0010
0001
0100
0001
0100
0010
,
1001
0000
0100
0001
0100
0001
1000
0010
,
0100
0000
0001
0010
0100
0001
1000
0010
,
0100
0000
0100
0010
0100
0001
1000
0100
,
1010
0010
0100
0001
,
1001
0010
1000
0000
0001
0000
0100
0000
,
1010
1000
0100
0000
0101
0100
0010
0000
,
1001
1000
0010
0100
0001
1000
0110
0000
,
0001
0010
0000
0100
1000
0000
0010
0001
0000
0100
1000
0000
0010
0000
0001
0000
,
0010
0100
0000
0001
0010
0000
1000
0100
0001
0000
0010
0100
0000
1000
0001
0000
,
0010
0000
0001
0000
1000
0001
1000
0001
1000
0000
0010
0000
0001
0010
0001
0010
,
0001
0000
1000
0000
0001
0010
0000
0100
1000
0000
0010
0100
0000
0001
0010
0000
,
1000
0000
0001
0000
1000
0001
0000
1000
0001
0000
0010
0000
0001
0000
0010
0000
,
1000
0001
0000
0010
0100
0000
0001
0010
1000
0000
0100
0000
0001
0000
0010
0000
,
0001
0000
1000
0000
1000
0001
1000
0001
1000
0000
0100
0000
0010
0001
0010
0001
,
0010
0000
0100
0000
0001
0010
0000
1000
0100
0000
0001
0010
0000
0100
0010
0000
,
0020
0000
0100
0000
1030
0001
0100
1000
,
0020
0000
0100
0000
0031
0010
0100
1000
,
0002
0000
0100
0000
1003
0100
0010
0100
,
0101
0000
0010
0100
1010
0000
0100
0010
,
1100
0000
0001
0000
0010
1000
0001
0010
,
0001
0000
0010
0000
0100
0010
0001
0100
,
0010
0000
0000
0000
0100
0000
0000
0000
0001
0010
0000
1000
0100
0000
1000
0100
,
0010
1000
0001
1000
0100
0010
0002
0000
,
0103
1000
0001
0010
0100
1000
0100
1000
,
0100
0010
0001
1000
0100
0010
0100
1000
,
0010
0100
0001
1000
0010
1000
0001
0010
,
0001
0100
0001
0100
0010
0100
0001
0010
,
1001
1000
0010
0100
0010
1000
0010
1000
,
0100
1000
0001
0100
0001
0010
0100
1000
,
0001
0100
0010
1000
0001
1000
0100
1000
,
0100
0010
0001
0010
0100
0010
0001
0100
,
0001
0000
0100
0001
0000
0100
1000
0000
0010
0100
0000
1000
0010
0000
1000
0000
,
0010
0000
0100
0001
0000
1000
0010
0000
0001
0100
0000
1000
0010
0000
0100
0000
,
0001
0000
1000
0010
0000
0001
1000
0000
0100
1000
0000
0001
0100
0000
0010
0000
,
0001
0000
0010
0100
0000
0001
0010
0000
0001
1000
0000
0100
0001
0000
1000
0000
,
0001
0000
0100
0010
0000
0001
1000
0000
0001
0100
0000
1000
0010
0000
1000
0000
,
0010
0000
1000
0100
0000
0001
0010
0000
0100
1000
0000
0010
0001
0000
0010
0000
,
0100
0000
0010
0001
0000
1000
0100
0000
0001
0100
0000
0010
0001
0000
0010
0000
,
0100
0010
0100
0010
0100
0000
0001
0000
1000
0001
1000
0001
1000
0000
0100
0000
,
0002
0000
0000
0000
0100
0000
0000
0000
0010
0000
0000
0000
0100
0000
1003
0001
,
1000
1000
0001
0000
0010
1000
0001
0000
,
0002
0000
0010
0000
0100
0000
0013
1000
,
0010
0001
0100
0000
0001
0000
0000
0000
0001
0000
1000
0001
1000
0001
1000
0000
,
0002
0000
0000
0000
0100
0000
0000
0000
0010
0000
0000
0000
0100
0000
1003
0001
,
0100
0010
0100
0010
0002
0000
0013
0100
,
0001
0010
0001
0010
0001
0100
0010
0100
,
0101
0000
0010
1000
0110
0000
0100
1000
,
0110
0000
0001
1000
0011
0000
0100
0010
,
0100
1000
0001
0010
0100
1000
0001
1000
,
1001
0000
0000
0000
;
