#TITLE:Dive;
#SUBTITLE:~Into Your Heart~;
#ARTIST:NAOKI feat. Paula Terry;
#TITLETRANSLIT:;
#SUBTITLETRANSLIT:;
#ARTISTTRANSLIT:;
#GENRE:;
#CREDIT:;
#MUSIC:DIVE ~INTO YOUR HEART~.ogg;
#BANNER:DIVE ~INTO YOUR HEART~-bn.png;
#BACKGROUND:DIVE ~INTO YOUR HEART~-BG.png;
#CDTITLE:./CDTITLES/Beatmania IIDX.PNG;
#SAMPLESTART:51.526;
#SAMPLELENGTH:12.000;
#SELECTABLE:YES;
#OFFSET:-0.042;
#BPMS:0.000=155.000;
#STOPS:;
#BGCHANGES:;
#FGCHANGES:;

//--------------- dance-single - B. M'Rey ----------------
#NOTES:
     dance-single:
     B. M'Rey:
     Beginner:
     1:
     0,0,0,0,0:
0000
0000
0000
0000
,
0000
0000
0000
0000
,
0000
0000
0000
0000
,
0000
0000
0000
0000
,
0000
1000
0000
0000
,
0000
0001
0000
0000
,
0000
0100
0000
0000
,
0000
0010
0000
0000
,
0000
0001
0000
0001
,
0000
1000
0000
1000
,
0000
0010
0000
0000
,
0000
0000
0000
0000
,
0000
1001
0000
0010
,
0000
0010
0000
0100
,
0000
0010
0000
0002
,
0000
0000
0000
0000
,
0000
0003
0000
0000
,
0000
0010
0000
0000
,
0000
0001
0000
0000
,
0000
1000
0000
0001
,
0000
1000
0000
0000
,
0000
0010
0000
0000
,
0000
0100
0000
0000
,
0000
0001
0000
1000
,
0000
0100
0000
0000
,
0000
0001
0000
0000
,
0000
0010
0000
0000
,
0000
0100
0000
0000
,
0000
0010
0000
0000
,
0000
1000
0000
0000
,
0000
0001
0000
0000
,
0000
0100
0000
0000
,
0000
0010
0000
0000
,
0000
0001
0000
1000
,
0000
0010
0000
0100
,
0000
0001
0000
0010
,
0000
0001
0000
1000
,
0000
0010
0000
0100
,
0000
0001
0000
0010
,
0000
0001
0000
0000
,
0000
1000
0000
0010
,
0000
0100
0000
0000
,
0000
0010
0000
0000
,
0000
1000
0000
0000
,
0000
0001
0000
0000
,
0000
0010
0000
0000
,
0000
0100
0000
0000
,
0000
0010
0000
0000
,
0000
0001
0000
0000
,
0000
1000
0000
0010
,
0000
0100
0000
0000
,
0000
0001
0000
0010
,
0000
0001
0000
0000
,
0000
0100
0000
0010
,
0000
1000
0000
0000
,
0000
0010
0000
0100
,
0000
0001
0000
0000
,
0000
1000
0000
0000
,
0000
0000
0000
0000
,
0000
0001
0000
0010
,
0000
0001
0000
0100
,
0000
0010
0000
1000
,
0000
0100
0000
1000
,
0000
0010
0000
0000
,
0000
0001
0000
0100
,
0000
0010
0000
1000
,
0000
0001
0000
0010
,
0000
0001
0000
0100
,
0000
0010
0000
0000
,
0000
1000
0000
0010
,
0000
0100
0000
0001
,
0000
1000
0000
0000
,
0000
0010
0000
0100
,
0000
0001
0000
0000
,
0000
1000
0000
0000
,
0000
0010
0000
0100
,
0000
0020
0000
0030
;

//--------------- dance-single - B. M'Rey ----------------
#NOTES:
     dance-single:
     B. M'Rey:
     Easy:
     4:
     0,0,0,0,0:
0000
0000
0000
0000
,
0000
0000
0000
0000
,
0000
0000
0000
0000
,
0000
0000
0000
0000
,
0000
0001
1000
0010
,
0100
1000
0100
0010
,
1000
0001
0010
0001
,
0010
0100
0010
1000
,
0010
1000
0000
0001
,
0010
0001
0000
0100
,
0010
1000
0000
0010
,
0100
0001
0000
0010
,
1000
1001
0000
0010
,
0100
0101
0000
0010
,
1000
0010
0000
0100
,
0000
0001
1000
0001
,
1000
0000
0000
0000
,
0000
0001
0000
0010
,
0000
0001
0010
0100
,
1000
0100
0010
1000
,
0001
0010
0000
0100
,
0000
0010
1000
0000
,
0001
0100
0000
0010
,
0000
1000
0100
0010
,
0001
0000
0000
0001
,
1000
0010
0000
0100
,
0000
0001
0000
0010
,
1000
0100
0000
1000
,
0000
0010
0000
0001
,
0010
0100
0000
0010
,
1000
0100
0000
0001
,
0010
0001
0000
1000
,
0000
0010
0000
0000
,
0000
1001
1100
0100
,
0010
0001
1000
0001
,
1000
0010
0100
0010
,
0000
0100
0010
0001
,
0000
0011
0110
0010
,
1000
0001
1000
0010
,
2000
0000
3000
0010
,
1000
0001
0010
0200
,
0000
0301
0000
0000
,
0000
1000
0000
0000
,
0000
0010
0000
0000
,
0000
0100
0000
0000
,
0000
0001
1000
0010
,
0100
0001
0010
0001
,
1000
0100
1000
0010
,
0100
0001
0010
1000
,
0100
0001
0000
1000
,
0000
0001
0010
0100
,
0000
1000
0000
0010
,
0000
1000
0100
0010
,
0000
0001
0000
0010
,
0000
0100
0010
0001
,
0000
1000
0000
0001
,
0000
0001
0010
0100
,
0000
1001
0000
0000
,
0000
0000
0000
0000
,
0000
0010
1000
0100
,
1000
0010
1000
0010
,
0000
0110
1001
0001
,
0010
0001
0010
0100
,
0020
0000
0030
0001
,
0010
0001
0000
0100
,
0000
1001
0110
0100
,
1000
0010
1000
0010
,
1000
0001
0010
0100
,
0000
0001
0100
0001
,
0000
1001
1001
0010
,
0100
0010
1000
0100
,
0020
0000
0030
0100
,
0010
0001
1000
0002
,
0000
1003
0010
0100
,
0000
0001
0010
0001
,
0000
0100
0010
0000
,
0000
0000
0002
0000
0000
1003
0000
0000
;

//--------------- dance-single - B. M'Rey ----------------
#NOTES:
     dance-single:
     B. M'Rey:
     Medium:
     7:
     0,0,0,0,0:
0000
0000
0000
0000
,
0000
0000
0000
0000
,
0000
0000
0000
0000
,
0000
0000
0000
0000
,
0000
0001
0100
0001
,
1000
0010
1000
0001
,
1000
0100
0010
0100
,
1000
0010
1000
0100
,
1000
0001
0010
0000
0100
0010
0000
0001
,
1000
0010
0100
0000
0010
0100
0000
0100
,
1000
0010
0100
0001
,
0100
0000
0001
0000
0010
1000
0001
1000
,
0010
0001
0100
0000
1000
0001
0000
0010
,
1000
0100
0010
0000
0100
0001
0000
1000
,
0010
0001
0100
0000
0010
0000
0200
0000
,
0010
0001
0010
0001
,
0010
0301
0000
0000
,
0000
0001
0100
0001
,
1000
0001
0100
1000
0010
1000
0000
0001
,
0010
1000
0001
0000
0100
0000
0001
0000
,
0100
0010
0001
0000
1000
0000
0010
0000
,
1000
0000
0001
1000
0010
1000
0000
0001
,
0100
1000
0010
1000
0000
0001
0000
1000
,
0010
1001
0110
0101
,
0010
1000
0001
0000
1000
0000
0100
0000
,
0010
0000
0001
0000
0000
0001
0000
1000
,
0100
0011
0000
0010
,
0100
0000
0001
0000
0000
1000
0001
0010
,
0000
0100
0010
0000
0000
0100
0010
1000
,
0100
0000
1001
0000
1000
0001
0010
1000
,
0100
0000
0110
0000
0100
0000
0001
1000
,
0010
0001
0100
0000
1000
0000
0100
0000
,
1000
0000
0100
0000
0000
0000
0000
0010
,
0000
0000
0010
0000
0100
0000
0010
1000
,
0001
1000
0000
0100
0000
0010
0000
1000
,
0100
1000
0001
0000
0010
0000
0100
0000
,
0100
0010
0000
0100
0000
1000
0000
0010
,
0100
0100
0001
0100
,
0010
1000
0000
0100
0000
0010
0000
0010
,
0100
0000
0001
0000
0001
0010
0000
0010
,
0100
0010
0100
0000
0010
0200
0000
0000
,
0310
0001
0010
0000
1000
0000
0100
0000
,
1000
0101
0100
0001
,
1000
0011
0010
0100
,
0010
1001
1000
0100
,
0010
0000
0010
1000
0100
0000
0010
1000
,
0100
0000
0100
0010
0001
0000
0100
1000
,
0100
0000
0100
0010
0001
0000
0001
1000
,
0010
0000
0001
0010
0001
0000
0010
0100
,
0010
0000
0001
0100
0010
0000
0100
0010
,
0000
1000
0000
0100
0000
1000
0000
0010
,
0100
0010
0001
1000
0100
0000
0001
1000
,
0000
0100
0000
0010
0000
1000
0010
0100
,
0010
1000
0010
0000
0001
0010
0001
0000
,
0010
0100
0001
0000
0001
0020
0000
0000
,
1030
0000
0100
0000
0010
0100
0010
0000
,
0100
1000
0010
0000
0001
0010
0100
0000
,
0010
0100
0010
0000
0000
0000
0000
0000
,
0000
0000
0000
0000
,
0000
0001
0100
1000
,
0100
0010
0000
0100
0010
0000
0001
0000
,
0001
1000
0001
0000
0010
0000
0100
0000
,
0001
1000
0000
0100
0000
0010
0000
0100
,
0001
0000
0100
0000
0001
1000
0000
0100
,
1000
0001
0100
0010
,
0100
0000
0010
0000
0100
0000
0010
1000
,
0001
1000
0000
0100
0000
0010
0000
1000
,
0100
1000
0001
0000
0010
0000
0100
0000
,
0100
0010
0000
0100
0000
1000
0000
0010
,
0100
0100
0001
0100
,
0010
1000
0000
0100
0000
0010
0000
0010
,
0100
0000
0001
0000
0001
0010
0000
0010
,
0100
0010
0100
0000
0010
0200
0000
0000
,
0310
0001
0010
0000
1000
0000
0100
0000
,
1000
0001
0100
0001
,
1000
0000
0001
0010
0100
2000
0000
0000
,
0000
0000
3001
1000
0001
2000
0000
0000
,
3000
0000
0000
0000
;

//--------------- dance-single - B. M'Rey ----------------
#NOTES:
     dance-single:
     B. M'Rey:
     Hard:
     8:
     0,0,0,0,0:
0000
0000
0000
0000
,
0000
0000
0000
0000
,
0000
0000
0000
0000
,
0000
0000
0000
0000
,
0000
0000
0010
0100
0001
0000
0010
1000
,
0100
0000
0010
0100
0010
0000
0001
0010
,
0100
0000
0100
0010
0001
0000
0010
1000
,
0100
0000
0001
1000
0001
0100
0000
1000
,
0001
1000
0010
0000
0001
0010
0000
0100
,
0001
0100
0010
0000
0010
1000
0000
1000
,
0100
0010
0100
0000
0001
0000
0100
0000
,
0001
0000
0001
0010
0100
0000
0001
0100
,
0001
0100
0010
0000
0001
1000
0000
1000
,
0001
1000
0100
0000
0100
1000
0000
0010
,
0100
1000
0000
0010
0000
2000
0100
0100
,
0100
0000
0010
0010
0010
0000
0001
0001
,
0001
3010
0000
0000
,
0000
0000
0001
0010
0001
1000
0000
0010
,
0100
0010
0100
1000
0001
0010
0000
1000
,
0100
1000
1001
0000
0110
0000
0011
0000
,
0001
0100
0000
0100
0001
0010
0000
1000
,
0100
0000
0100
1000
0001
1000
0000
0010
,
0100
0010
0100
1000
0000
0100
0000
1000
,
0010
0100
1010
0000
0101
0000
0011
0000
,
0001
0010
0000
0000
0001
1000
0100
0000
,
0100
0000
0020
0000
0000
0130
0000
1000
,
0010
1000
0010
0000
0000
0000
0100
0000
,
0010
0000
0000
0000
0100
0000
0000
0000
0010
0000
1000
0000
0000
0100
0000
0000
,
0001
0010
0001
0000
0010
0000
0010
0100
,
0001
0010
0100
0000
0001
0010
0000
0100
,
0001
0100
0010
0000
0001
0010
0000
1000
,
0010
0100
0001
0000
0001
0010
0100
0000
,
0100
0000
0000
0100
0010
0200
0000
0010
,
0000
0000
1310
0000
0101
0000
0010
1000
,
0010
1000
0000
0010
0100
0010
0000
0010
,
0100
1000
1100
0000
0110
0000
0101
0000
,
0001
0010
0001
1000
0010
1000
0000
0010
,
0100
0011
1100
0011
,
0010
1000
0000
0100
0001
0100
0010
1000
,
0200
0000
0000
0000
0301
0000
0100
0010
,
0100
1000
0100
1000
0010
2000
0000
0000
,
3010
0100
0010
0000
1000
0000
0100
0000
,
1000
0001
0100
0001
,
1000
0001
0010
0100
,
0010
0100
1000
0001
,
0100
0000
0001
1000
0001
0000
0010
0100
,
0001
0000
0010
0100
0001
0000
0010
1000
,
0010
0000
0010
0100
0001
0000
0100
1000
,
0010
0000
0100
0010
0001
0000
0001
0100
,
0010
0100
0001
0010
0001
0010
0100
1000
,
0001
0010
0100
1000
0001
0100
0001
0010
,
0100
0010
0001
0100
0010
1000
0100
0010
,
0001
0010
0100
0010
0100
1000
0100
1000
,
0001
0010
0001
1000
0001
0100
0010
0100
,
0010
1000
0100
1000
0001
1000
0100
0010
,
0100
0010
0001
0010
0001
1000
0001
0010
,
0100
1000
0010
0100
0010
1000
0100
1000
,
0100
1000
0100
0000
0010
0000
0100
0000
,
0001
0100
0000
0010
0000
1000
0000
0001
,
0010
1000
1100
0000
1001
0000
0110
0000
,
0001
0000
1000
0000
0000
0000
0100
0000
0010
0000
1000
0000
0000
0100
0000
0000
,
0010
0100
1001
0000
1100
0000
1001
0000
,
0100
0010
0001
0100
0010
1000
0100
1000
,
0200
0000
0310
0100
,
0001
1000
0001
0010
0001
0010
0100
0010
,
0001
1000
0101
0000
0101
0000
0110
0000
,
0001
0010
0001
0100
0001
0100
0010
1000
,
0001
0010
1001
0000
1100
0000
1010
0000
,
0001
0100
0000
1000
0010
1000
0000
0010
,
0100
1000
1001
0000
0110
0000
0011
0000
,
0001
1000
0100
0010
0001
1000
0100
0010
,
0200
0000
0000
0000
0310
0100
0000
0100
,
0001
1000
0010
0100
0001
1000
0100
1000
,
0010
0100
0001
0000
0100
1000
0100
1000
,
0100
0010
0001
0000
0010
1000
0100
0010
,
0100
0010
0100
0000
0010
0100
0000
0100
,
0010
0000
0100
1000
0100
2200
0000
0000
,
3300
0000
0000
0000
;
