#VERSION:0.83;
#TITLE:Distance;
#ARTIST:EGOISTIC LEMONTEA;
#GENRE:SYMPATHY;
#MUSIC:Distance.ogg;
#BANNER:Distance.png;
#BACKGROUND:Distance-bg.png;
#CDTITLE:./CDTitles/Pop'n Music 7.png;
#SAMPLESTART:53.916;
#SAMPLELENGTH:15;
#OFFSET:-0.294;
#BPMS:0=127;

//--------------- dance-single - B. M'Rey ----------------
#NOTEDATA:;
#STEPSTYPE:dance-single;
#DESCRIPTION:B. M'Rey;
#DIFFICULTY:Beginner;
#METER:2;
#RADARVALUES:0,0,0,0,0;
#NOTES:
0000
0000
0000
0000
,
0000
0000
0000
0000
,
0000
0000
0000
0000
,
0000
0000
0000
0000
,
0000
0000
0000
1000
,
0000
0000
0000
0100
,
0000
0000
0000
0001
,
0000
0000
0000
0100
,
0100
0010
0010
1000
,
0000
0000
0000
0001
,
0000
0000
0000
0100
,
0000
0000
0000
0010
,
0000
0001
0000
1000
,
0000
0010
0000
0100
,
0000
0001
0000
0010
,
0000
0000
0000
0100
,
0000
0010
0000
0001
,
0000
1000
0000
0010
,
0000
0100
0000
0001
,
0000
0000
0000
1000
,
0000
0100
0000
1000
,
0000
0010
0000
0100
,
0000
0001
0000
0010
,
0000
0001
0000
0100
,
0000
1000
0000
0010
,
0000
0100
0000
1000
,
0000
0001
0000
0010
,
0000
0001
0000
0100
,
0000
0010
0000
0001
,
0001
0000
1000
1000
,
0000
0100
0100
0000
,
0010
0010
0000
0001
,
0001
0000
0010
0010
,
0000
1000
1000
0000
,
0100
0100
0000
0010
,
0010
0000
0001
0001
,
0000
1000
0000
0010
,
0000
0000
0000
0100
,
0000
0000
0000
0001
,
0000
0000
0000
1000
,
1000
0001
0001
0010
,
0000
0000
0000
0100
,
0000
0000
0000
1000
,
0000
0000
0000
0001
,
0000
0000
0000
0100
,
0000
0010
0000
0100
,
0000
0010
0000
0001
,
0000
1000
0000
0001
,
0000
1000
0000
1001
;

//--------------- dance-single - B. M'Rey ----------------
#NOTEDATA:;
#STEPSTYPE:dance-single;
#DESCRIPTION:B. M'Rey;
#DIFFICULTY:Easy;
#METER:5;
#RADARVALUES:0,0,0,0,0;
#NOTES:
0000
0000
0000
0000
,
0000
0000
0000
0000
,
0000
0000
0000
0000
,
0000
0000
0000
0000
,
0000
0000
0000
1000
,
0100
1000
0000
0010
,
0100
0001
0000
0010
,
0100
1000
0000
0101
,
0000
1010
0000
0100
,
0010
0001
0000
0010
,
0100
1000
0000
0100
,
1000
0010
0000
0100
,
0001
0010
0000
0001
,
0010
0001
0000
1000
,
0100
1000
0010
0100
,
0000
0010
0000
0001
,
0010
0100
1000
0010
,
0100
0001
0000
0010
,
0100
1000
0000
0010
,
0000
0100
0000
0001
,
0010
1000
0000
0100
,
0000
1000
0000
0010
,
0100
0001
0000
0010
,
0000
1000
0000
0001
,
0010
0000
1000
0100
,
0000
0010
0100
0001
,
0000
0010
1000
0100
,
0000
0010
0000
1000
,
0000
0001
0000
0010
,
0100
0010
1000
0100
,
1000
0010
0100
0010
,
0001
0010
0001
0010
,
0100
0010
1000
0100
,
1000
0010
0100
0010
,
0001
0010
0001
0010
,
0100
1000
0100
0010
,
0000
0001
0000
1000
,
0010
0100
0000
0001
,
0010
0001
0000
0100
,
0010
1000
0000
0101
,
0000
1010
0000
0100
,
0010
1000
0000
0001
,
0010
0100
0000
0010
,
1000
0100
0000
0001
,
0010
0100
0000
0001
,
0000
1000
0000
0010
,
0000
0100
0000
0001
,
0000
0010
0000
1000
,
0000
0010
0101
0000
;

//--------------- dance-single - B. M'Rey ----------------
#NOTEDATA:;
#STEPSTYPE:dance-single;
#DESCRIPTION:B. M'Rey;
#DIFFICULTY:Medium;
#METER:8;
#RADARVALUES:0,0,0,0,0;
#NOTES:
0000
0000
0000
0000
,
0000
0000
0000
0000
,
0000
0000
0000
0000
,
0000
0000
0000
0000
,
0000
0000
0000
0000
0000
0000
1000
0100
,
0001
0000
0010
0100
1000
0000
0010
0000
,
0100
0000
0010
0001
0010
0000
0010
0000
,
0100
1000
0100
0000
0010
0100
1001
0000
,
1010
0110
0101
0001
,
0010
0100
1000
0000
0010
0000
0100
0010
,
0001
0000
0001
1000
0010
0000
0100
0000
,
0010
0000
1000
0100
0010
0001
0000
0001
,
1000
0001
0000
0000
0000
0000
0010
0000
,
0100
0000
0010
0000
1000
0100
1000
0000
,
0001
0000
0010
0000
0001
0010
0100
0000
,
1000
0000
0100
0000
0010
0100
1000
0000
,
0001
0000
0010
0100
1000
0000
0001
0010
,
0100
0000
0001
0000
0010
1000
0100
0000
,
0010
0000
0001
0000
0010
0100
0001
0000
,
1000
0100
0010
0000
1000
0000
0100
0000
,
0010
0000
0001
0010
1000
0000
0100
0000
,
0010
1000
0100
0010
1000
0100
0000
0001
,
0010
0000
0100
0000
1000
0100
1000
0000
,
0010
0000
0100
0010
1000
0100
0000
0001
,
0010
0000
0100
0000
0010
0000
0001
0010
,
0001
1000
0000
0100
0010
0000
0000
0001
,
1000
0010
0100
0000
0001
0010
0001
0000
,
0100
0010
0000
1000
0100
1000
0000
0010
,
0100
0001
0000
0001
0010
0002
0000
0000
,
0000
0103
0010
1000
0100
1000
0000
0010
,
0100
1000
0000
0010
0100
0020
0000
0000
,
0031
0000
1000
0000
0100
1000
0000
0010
,
0100
0001
0000
0001
0010
0200
0000
0000
,
0000
0310
1000
0001
0100
0010
0000
0001
,
0010
0100
0000
0001
0010
1000
0100
0000
,
0010
0000
0100
0000
0001
0010
1000
0000
,
0100
0000
1000
0000
0010
0000
0100
0001
,
0010
0100
1000
0000
0100
0000
0001
0010
,
0100
0000
1000
0010
0100
0001
0010
0000
,
0100
0010
0001
1000
0010
0100
0101
0000
,
1010
0000
0110
0000
0101
0000
0010
1000
,
0100
0010
0001
0000
0010
0100
0001
0000
,
0010
0000
1000
0100
0010
0001
0010
0000
,
0100
0010
0001
0000
0010
1000
0000
0010
,
0100
0002
0000
0000
0000
0000
1003
0100
,
0000
0010
1000
0000
0001
0100
0000
0010
,
1000
0000
0010
0100
0000
0001
0010
0000
,
1000
0100
0000
0001
0010
0000
0001
0100
,
0000
0001
1000
0000
0001
1001
0000
0000
;

//--------------- dance-single - B. M'Rey ----------------
#NOTEDATA:;
#STEPSTYPE:dance-single;
#DESCRIPTION:B. M'Rey;
#DIFFICULTY:Hard;
#METER:11;
#RADARVALUES:0,0,0,0,0;
#NOTES:
0000
0000
0000
0000
,
0000
0000
0000
0000
,
0000
0000
0000
0000
,
0000
0000
0000
0000
,
0000
0000
0000
0000
0000
0000
1000
0010
,
1000
0000
0100
1000
0000
0000
0100
0000
0010
0000
0001
0000
0010
0000
0001
0010
,
0000
0000
0100
0001
1000
0000
0100
0000
1000
0000
0100
0010
0000
0000
0001
0000
,
0010
0001
0000
0100
1000
0000
0100
0000
1000
0000
0100
0000
1001
0000
0000
0000
,
0011
0000
1001
0000
1001
0000
0010
1000
,
0010
0000
0100
0010
0000
0000
0001
0000
1000
0000
0010
0000
1000
0000
0010
1000
,
0000
0000
0001
0100
0001
0000
0010
0000
0100
0000
0001
0100
0000
0000
0010
0000
,
1000
0001
0000
0000
1000
0000
0010
0000
1000
0000
0010
0000
0000
0000
0010
0000
,
0100
0001
0100
0000
0001
0000
1000
0010
,
1000
0000
0010
0100
0000
0000
0010
0000
0000
0000
0001
0000
0010
0000
0001
0000
,
0010
0000
0001
0100
0000
0000
0010
0000
0100
0000
0010
0000
0100
0000
0000
0001
,
0000
0010
0100
0001
0100
0010
0200
0000
,
0302
0000
0023
0000
0230
0000
0310
0001
,
1000
0000
0001
1000
0000
0000
0001
0000
0000
0000
0100
0000
0010
0000
0100
0000
,
0010
0000
0001
1000
0000
0000
0001
0000
1000
0000
0001
0000
0100
0000
0000
0010
,
0000
0000
0001
0000
0100
0000
0000
0001
0000
0000
0100
0000
1000
0000
0000
0000
,
1000
0000
0010
0001
0010
0100
0010
0000
,
1000
0000
1000
0001
1000
0001
0000
0001
,
0100
0000
0010
0100
0001
0000
0010
0000
1000
0000
0010
0000
1000
0000
0000
0000
,
1000
0100
0010
0000
0010
0100
1000
0010
,
1000
0000
1000
0100
0010
0001
0010
0000
,
0010
0100
1000
0001
1000
0001
0000
0001
,
0100
0001
1000
0010
1000
0001
1000
0000
,
0100
0001
1000
0010
1000
0010
1000
0001
,
0100
0001
0000
0100
0010
0100
1000
0000
,
1000
0100
1000
0100
0010
0100
0010
0001
,
0100
0001
0100
0001
1000
0020
0000
0030
,
1000
0000
0010
0001
0010
0100
0010
0100
,
1000
0001
1000
0001
1000
0010
0200
0000
,
0310
0000
0100
0010
1000
0010
1000
0010
,
0100
0000
0001
0000
0100
0000
0001
0000
0100
0000
0010
0001
0010
0000
0000
0000
,
1000
0000
1000
0010
0100
0010
0200
0000
,
0000
0000
1300
0000
0100
0000
0010
0001
,
0100
0000
0001
1000
0000
0000
0001
0000
1000
0000
0010
0000
1000
0000
0001
0010
,
0000
0000
0100
0010
0100
0000
0100
0000
0010
0000
0001
0100
0000
0000
0001
0000
,
1000
0001
0000
0010
0100
0000
0010
0000
0100
0000
0010
0000
0101
0000
0000
0000
,
0011
0000
0011
0000
1010
0000
1000
0010
,
1000
0000
0001
0010
0000
0000
0001
0000
0010
0000
0001
0000
1000
0000
0100
1000
,
0001
0000
0000
0010
1000
0000
0001
0000
0010
0000
0100
0010
0000
0000
0100
0000
,
0010
0001
0000
0100
1000
0000
0010
0000
1000
0000
0010
1000
0000
0000
0100
0000
,
0010
0000
0010
0100
1000
0000
1000
0001
,
1000
0100
0010
0001
0010
0001
0010
0100
,
1000
0100
0010
0100
0010
0001
0010
0001
,
0100
0001
0100
0010
0100
0010
1000
0010
,
1000
0100
1000
0001
0100
0010
0000
0000
;
