#TITLE:デリケートに好きして;
#SUBTITLE:;
#ARTIST:秋葉レイ;
#TITLETRANSLIT:Delicate ni sukishite;
#SUBTITLETRANSLIT:;
#ARTISTTRANSLIT:Rei Akiba;
#GENRE:;
#CREDIT:;
#MUSIC:Delicate ni sukishite.ogg;
#BANNER:Delicate ni sukishite-bn.png;
#BACKGROUND:Delicate ni sukishite-bg.png;
#CDTITLE:./CDTITLES/Pop'n Music.PNG;
#SAMPLESTART:30.220;
#SAMPLELENGTH:12.000;
#SELECTABLE:YES;
#OFFSET:-0.293;
#BPMS:0.000=141.000;
#STOPS:;
#BGCHANGES:;
#FGCHANGES:;

//--------------- dance-single - B. M'Rey ----------------
#NOTES:
     dance-single:
     B. M'Rey:
     Beginner:
     1:
     0,0,0,0,0:
0000
0000
0000
0000
,
0000
0000
0000
0000
,
0000
0000
1000
0000
,
0001
0000
0100
0000
,
0000
0000
0010
0000
,
0001
0000
0100
0000
,
0000
0000
1000
0000
,
0001
0000
0100
0000
,
0000
0000
0001
0000
,
1000
0000
0010
0000
,
0000
0000
0001
0000
,
0100
0000
0010
0000
,
1000
0000
0001
0000
,
0000
0000
0000
0000
,
0000
0000
0010
0000
,
1000
0000
0100
0000
,
0001
0001
1000
0000
,
0000
0000
0000
0000
0000
0001
0000
0000
,
0001
1000
0100
0000
,
1000
0000
0001
0000
,
0000
0000
0100
0000
,
0010
0000
1000
0000
,
0001
0000
0010
0000
,
0001
0000
0100
0000
,
0010
0000
1001
0000
,
0000
0000
0000
0000
,
0000
0000
0001
0000
,
0100
0000
1000
0000
,
0010
0100
0010
0000
,
0001
0000
1000
0000
,
0000
0000
0100
0000
,
1000
0000
0010
0100
,
0000
0000
0001
0000
,
0010
0000
0001
0000
,
0000
0000
0100
0000
,
1000
0000
0010
0000
,
0100
0001
0010
0000
,
0001
0000
0100
0000
,
0000
0000
0010
0000
,
1000
0000
0100
0000
,
1000
0000
0001
0010
,
0100
0000
0001
0000
,
1000
0001
0000
0010
,
0100
0000
1000
0001
,
0000
0000
0100
0000
,
0000
0000
0010
0000
,
0010
0000
0001
0000
,
0000
0000
1000
0000
,
1000
0000
0100
0000
,
0000
0000
0010
0000
,
0010
0000
0001
0000
,
1000
0000
0001
0000
;

//--------------- dance-single - B. M'Rey ----------------
#NOTES:
     dance-single:
     B. M'Rey:
     Easy:
     3:
     0,0,0,0,0:
0000
0000
0000
0000
,
0000
0000
0000
0000
,
0000
0000
1000
0000
,
0001
0000
0010
0100
,
0010
0000
0100
0000
,
0010
0000
0001
0010
,
0100
0000
1000
0000
,
0001
0000
0010
0100
,
0010
0000
0001
0000
,
1000
0000
0100
0000
,
0000
0000
1000
0010
,
0100
0000
0001
0000
,
0010
0100
1000
0000
,
0100
0000
0100
0000
,
0001
0010
0001
0000
,
0100
0000
0010
0000
,
0001
0010
1000
0000
,
1000
0000
0001
0000
,
0100
0010
1000
0000
,
0100
0000
1000
0000
,
0001
0000
0001
0010
,
0100
0000
0010
0000
,
1000
0000
0100
0010
,
0001
0000
0010
0000
,
0100
0000
0010
0000
,
0001
0000
0200
0000
,
0000
0000
2300
0000
,
0010
0000
3100
0000
,
0001
0001
0020
0000
,
0001
0000
0130
0000
,
0010
0000
0000
0100
,
1000
0100
1000
0100
,
1000
0000
0010
0100
,
0010
0100
0010
0000
,
0001
0000
0020
0000
,
0001
0000
1030
0010
,
0100
0001
0020
0000
,
0001
0000
0130
0010
,
1000
0100
1000
0000
,
0010
0100
0001
0000
,
0010
0001
0100
0010
,
1000
0100
1000
0000
,
0001
0010
0100
0001
,
0010
0100
0001
0010
,
0100
0000
1000
0000
,
0010
0000
0100
0010
,
0001
0010
1000
0000
,
0010
0000
0100
0010
,
0001
1000
0010
0000
,
0100
0000
0001
0010
,
1000
0100
1000
0000
,
0010
0100
0001
0000
;

//--------------- dance-single - B. M'Rey ----------------
#NOTES:
     dance-single:
     B. M'Rey:
     Medium:
     6:
     0,0,0,0,0:
0000
0000
0000
0000
,
0000
0000
0000
0000
,
0000
0000
0010
0100
,
1000
0000
0000
0100
0000
0000
1000
0000
0001
0010
0000
0010
,
0100
0000
1000
0010
0000
0001
0100
0000
0000
0010
0000
0000
,
1000
0000
0000
0100
0000
0000
1000
0000
0010
0001
0000
0010
,
0100
0000
0010
0001
0000
0100
0010
0000
0000
0001
0000
0000
,
0010
0000
0000
0100
0000
0000
1000
0000
0001
0100
0000
0010
,
1000
0000
0100
0001
0000
0010
0100
0000
0000
0010
0000
0000
,
1000
0000
0000
0001
1000
0001
0000
0000
0001
0000
0000
0000
,
0010
0000
0000
0100
0000
0000
0010
0000
0000
0100
0000
0001
,
1000
0000
0000
0000
0001
0000
0000
0000
0000
0010
0000
0000
0000
0000
0000
0000
0000
0000
0100
0000
0000
0000
0000
0000
,
1000
0000
0000
0100
0000
0000
0010
0000
0000
0000
0000
0001
,
0100
0000
0000
0000
0000
0010
0100
0000
0001
0000
0000
0000
,
0100
0000
0000
0010
0000
0000
1000
0000
0000
0100
0000
0100
,
1000
0000
0010
0100
0000
0000
0010
0000
0000
0001
0000
1000
,
0010
0000
0100
0001
0000
0010
1000
0000
0000
0000
0000
0010
,
0100
0000
0000
0000
0000
0001
0100
0000
0001
0000
0000
0000
,
0100
0010
1000
0001
,
0100
0000
0000
0001
0000
0100
0000
0000
0000
0001
0000
0000
,
0010
0000
0010
0001
,
0100
0000
0000
0010
0000
1000
0000
0000
0001
0000
0000
0000
,
0010
0001
0100
0001
,
0010
0000
0000
0100
0000
0010
0000
0000
0000
0001
0000
0000
,
0100
0000
0000
0001
0000
0000
1001
0000
1001
0000
0000
0000
,
0110
0000
0110
0000
0000
2000
0000
0000
0000
0000
0000
0000
,
0000
0000
3010
0100
,
0010
0000
0000
0001
0000
0000
0100
0000
0000
0001
0000
0010
,
1000
0000
0100
0001
0000
0000
0010
0000
0000
0100
0000
0000
,
0010
0000
0000
0001
0000
0100
0010
0000
0000
0100
0000
0000
,
1000
0000
0010
0100
0000
0001
0010
0000
0000
0001
0000
0000
,
1000
0001
0010
0100
,
0010
0100
1000
0001
,
0100
0001
1000
0100
,
0010
0001
0010
0100
,
0010
0000
0000
0001
0000
0000
0100
0000
0000
0010
0001
0000
,
0100
0000
0010
0001
0000
0000
1000
0000
0000
0010
0000
0000
,
1000
0000
0000
0100
0000
0001
0010
0000
0000
0001
0000
0000
,
0010
0000
0100
0001
0000
0100
1000
0000
0000
0001
0000
0000
,
1000
0100
0010
0100
,
0010
0100
1000
0010
,
1000
0010
1000
0001
,
0100
0000
0000
0001
0000
0100
0000
0000
0000
0010
0000
0000
,
0100
0000
0001
0000
0000
0000
0010
0000
0000
0001
0000
1000
,
0000
0010
0100
0010
,
1000
0000
0000
0010
0000
0000
1000
0000
0010
0001
0000
0100
,
0010
0000
0001
0100
0000
1000
0010
0000
0000
0001
0000
0000
,
1000
0000
0000
0010
0000
0000
0100
0000
0001
0010
0000
0001
,
0100
0000
0001
0010
0000
0100
1000
0000
0000
0001
0000
0000
,
0010
0000
0000
0100
0000
0010
1000
0000
0010
0100
0000
0001
,
0010
0000
1000
0001
0000
0000
1000
0000
0000
0001
0000
0000
,
0010
0000
0000
0100
0010
0200
0000
0000
0000
0000
0000
0000
,
0000
0000
0300
0000
;

//--------------- dance-single - B. M'Rey ----------------
#NOTES:
     dance-single:
     B. M'Rey:
     Hard:
     9:
     0,0,0,0,0:
0000
0000
0000
0000
,
0000
0000
0000
0000
,
0000
0000
0010
0100
,
0001
0000
0000
0100
0000
0000
0001
1000
0001
1000
0001
0100
,
0010
0100
0010
0100
0001
0010
0100
0000
0000
0100
0000
0000
,
0010
0000
0000
1000
0000
0000
0001
1000
0010
1000
0010
1000
,
0100
0010
0001
0010
0001
0010
0001
0000
0000
1000
0000
0000
,
0100
0000
0000
1000
0000
0000
0001
1000
0010
0100
0010
0100
,
0010
1000
0001
1000
0001
1000
0001
0000
0000
0010
0000
0000
,
0100
0000
1000
0100
0010
0100
0000
0000
0100
0010
0000
0001
,
0100
0000
0000
1000
0000
0000
0010
0000
0001
1000
0000
1000
,
0100
0000
0100
0010
0000
0010
0001
0000
0001
1000
0000
1000
,
0100
0000
0100
0010
0000
0010
0001
0000
0000
1000
0000
0010
,
0001
0000
0000
0010
0000
1000
0100
0000
0100
0000
0000
0000
,
1000
0000
0000
0010
0000
0000
0100
0000
0001
0100
0000
0100
,
0001
0000
0100
1000
0000
1000
0001
0000
0010
1000
0000
1000
,
0010
0000
0001
0100
0001
0100
0010
0000
0000
1000
0000
0100
,
0001
0000
0000
1000
0000
0100
0001
0000
0001
0000
0000
0000
,
1000
0000
0000
0001
0000
0000
0001
0000
0001
1000
0000
0100
,
0010
0000
0010
0100
0000
0010
0001
0000
0001
1000
0000
1000
,
0100
0000
0010
0100
0010
0100
0010
0000
0001
1000
0000
1000
,
0010
0000
0001
0100
0000
0100
0010
0000
0001
0000
0000
0010
,
0001
0000
0000
0010
0000
1000
0100
0000
0001
1000
0000
0100
,
0010
0000
0001
0100
0000
1000
0001
0000
0010
1000
0000
0100
,
0010
0000
0001
0100
0000
0010
0001
0000
0100
0000
0000
1000
,
0001
0000
0100
0000
0000
0020
0000
0000
0000
0000
0000
0000
,
0000
0000
0000
0000
0000
0000
0130
0000
0010
1000
0000
1000
,
0001
0000
0010
1000
0000
1000
0010
0000
0001
0100
0000
0100
,
0010
0000
0001
1000
0000
1000
0200
0000
0000
0010
0000
1300
,
0002
0000
0000
1000
0000
0013
0200
0000
0000
0310
0000
0000
,
0001
0000
0010
0100
0000
1000
0010
0000
0000
0010
0000
0010
,
0100
0000
0001
0010
0000
0000
0001
0000
0010
1000
0000
0010
,
0000
0000
0001
0010
0000
1000
0001
0000
0010
1000
0000
0100
,
0010
0000
0001
0010
0000
1000
0001
0010
0100
0010
0100
0010
,
0001
1000
0001
1000
0010
1000
0020
0000
0000
0001
0000
0000
,
0032
0000
0000
0010
0000
0000
0103
0000
0100
0010
0001
0000
,
0001
0000
0001
0100
0000
0000
0001
0000
0100
0010
0000
0000
,
0001
0000
0000
1000
0000
1000
0001
0000
0000
0010
0000
0000
,
0010
0000
0010
0100
0000
0010
0001
0000
0000
1000
0000
1000
,
0010
0000
0001
0100
0000
0000
0010
0000
0010
0100
0000
0010
,
0000
0000
0010
1000
0000
1000
0100
0000
0010
0100
0000
0100
,
0010
0000
0100
1000
0000
1000
0001
0000
0000
0010
0000
1000
,
0100
0000
0010
1000
0000
0010
0000
0000
0001
0100
0000
0010
,
0001
0000
0100
0000
0000
1000
0100
0000
0010
1000
0000
0200
,
0000
0000
0000
0310
0000
0000
0001
0000
1000
0000
0000
0010
,
0100
0000
0001
0000
0000
2000
0000
0000
3100
0010
0100
0010
,
0001
1000
0001
1000
0001
0100
0010
0000
1000
0000
0000
0100
,
0001
0000
0001
0000
0000
2000
0000
0000
3001
0010
0001
1000
,
0010
0100
0010
1000
0010
1000
0001
0000
1000
0000
0000
0010
,
0100
0000
1000
0000
0000
0001
0000
0000
0001
0010
0100
1000
,
0100
1000
0100
0010
0001
0010
0001
0000
0100
1000
0000
0000
,
0100
0000
0001
0010
0001
0020
0000
0000
0000
0000
0000
0000
,
0000
0000
0030
0000
;
