#TITLE:Deep Magenta;
#SUBTITLE:;
#ARTIST:Naya~n;
#TITLETRANSLIT:;
#SUBTITLETRANSLIT:;
#ARTISTTRANSLIT:;
#GENRE:;
#CREDIT:;
#MUSIC:Deep Magenta.ogg;
#BANNER:Deep Magenta-BN.png;
#BACKGROUND:Deep Magenta-BG.png;
#CDTITLE:./CDTITLES/Pop'n Music.PNG;
#SAMPLESTART:83.520;
#SAMPLELENGTH:12.000;
#SELECTABLE:YES;
#OFFSET:-0.480;
#BPMS:0.000=203.978
,84.000=101.989
,102.000=203.978
;
#STOPS:;
#BGCHANGES:;
#FGCHANGES:;

//--------------- dance-single - B. M'Rey ----------------
#NOTES:
     dance-single:
     B. M'Rey:
     Beginner:
     2:
     0,0,0,0,0:
0000
0000
0000
0000
,
0000
0000
0000
0000
,
0000
0000
0000
0000
,
0000
0000
0000
0000
,
0000
0000
0000
0000
,
0000
0000
0001
0000
,
0000
0000
0100
0000
,
0000
0000
0010
0000
,
1000
0000
0001
0000
,
0010
0000
0000
0000
,
0100
0000
0100
0000
,
0100
0000
0000
0000
,
1000
0000
0000
0000
,
0001
0000
0001
0000
,
0001
0000
0000
0000
,
0100
0000
0000
0000
,
0010
0000
1000
0000
,
0001
0000
0100
0000
,
0010
0000
1000
0000
,
0100
0000
1000
0000
,
0010
0000
0100
0000
,
0001
0000
0000
0000
,
1000
0000
0000
0000
,
0100
0000
0000
0000
,
1000
0000
0000
0000
,
0010
0000
0001
0000
,
1000
0000
0010
0000
,
0100
0000
1001
0000
,
0010
0000
0100
0000
,
0010
0000
1000
0000
,
0001
0000
0010
0000
,
0100
0000
0001
0000
,
1000
0000
0000
0000
,
0010
0000
0100
0000
,
0001
0000
0000
0000
,
1000
0000
0000
0000
,
0100
0000
1000
0000
,
0010
0000
1000
0000
,
0001
0000
0100
0000
,
0000
0000
0010
0000
,
0100
0000
0001
0000
,
0000
0000
1000
0000
,
0010
0000
0100
0000
,
0001
0000
1000
0000
,
0010
0000
0100
0000
,
0000
0000
0001
0000
,
1000
0000
0010
0000
,
0000
0000
0100
0000
,
0010
0000
1000
0000
,
0000
0000
0001
0000
,
0010
0000
0100
0000
,
0000
0000
0001
0000
,
0000
0000
1000
0000
,
0000
0000
0010
0000
,
0100
0000
0001
0000
,
1000
0000
0001
0000
,
1000
0000
0001
0000
,
1000
0000
0001
0000
,
1000
0000
0001
0000
,
0000
0000
0100
0000
,
0000
0000
0010
0000
,
0000
0000
1000
0000
,
1000
0000
1000
0000
,
1000
0000
0001
1000
,
0001
1000
0001
1000
,
0001
1000
0001
0000
,
1000
0000
0110
0000
,
0000
0000
0100
0000
,
0010
0000
0101
0000
,
0000
0000
0010
0000
,
1000
0000
1010
0000
,
0000
0000
0100
0000
,
0001
0000
0101
0000
,
0000
0000
1000
0000
,
0000
0000
0010
0000
,
0000
0000
0100
0000
,
0010
0000
0001
0000
,
1000
0000
0000
0000
,
0010
0000
0000
0000
,
0100
0000
0000
0000
,
0001
0000
1000
0000
,
0000
0000
1000
0000
,
0001
0000
1000
0000
,
1001
0000
0000
0000
;

//--------------- dance-single - B. M'Rey ----------------
#NOTES:
     dance-single:
     B. M'Rey:
     Easy:
     6:
     0,0,0,0,0:
0000
0000
0000
0000
,
0000
0000
0000
0000
,
0000
0000
0000
0000
,
0000
0000
0000
0000
,
0000
0000
0000
0000
,
0000
0000
0000
0001
0000
0000
1000
0000
,
0000
0000
0000
0010
0000
0000
0100
0000
,
0000
0000
0000
0001
0000
0000
1000
0000
,
0010
0000
0000
0100
0000
0000
0000
0000
,
0002
0000
0000
0000
,
1003
0000
0000
0010
0000
0000
0100
0000
,
0010
0100
0001
0010
,
0001
0100
0001
0100
,
1000
0000
0000
0010
0000
0000
0100
0000
,
0001
0000
0000
1000
0000
0000
0010
0000
,
0000
0100
0001
0010
0000
0100
0000
0001
,
0100
0010
0001
0100
,
0001
1000
0100
1000
,
0002
0000
1003
0000
,
0200
0000
0310
0000
,
0100
0010
0001
0100
,
0001
1000
0001
1000
,
0001
0010
0100
0010
,
0100
0010
0001
1000
,
0010
1000
0010
1000
,
0001
0000
0100
0000
0001
0000
0000
0100
,
0000
0000
0010
0000
1000
0000
0000
0100
,
0000
0000
1000
0000
0001
0000
0000
0010
,
0000
0000
0001
0000
0100
0000
0000
0010
,
0100
0010
0100
1000
,
0001
0010
0100
0010
,
0100
0010
0001
0100
,
0202
0000
0000
0303
,
0100
0010
0001
0010
,
0100
1000
0000
0101
,
1010
0000
0100
0001
,
0010
0100
0010
0100
,
0010
0000
0100
0000
0002
0000
0000
0203
,
0000
0301
1000
0000
,
0010
0000
0000
0000
0200
0000
0000
0302
,
0000
0013
1000
0000
,
0100
0000
0000
0000
0020
0000
0000
2030
,
0000
0000
3010
0000
0002
0000
0000
0203
,
0000
0000
0310
0000
2000
0000
0000
3002
,
0000
0013
0100
0000
,
0001
0000
0000
0000
2000
0000
0000
3020
,
0000
0130
0010
0000
,
0001
0000
0000
0000
2000
0000
0000
3200
,
0000
0301
0010
0000
,
0100
0000
0000
0000
0020
0000
0000
2030
,
0000
3100
0001
0000
,
0010
0000
0010
0100
,
0010
1000
0100
0010
,
0001
0100
2002
0000
,
0000
0000
3003
0000
0010
0000
0010
0010
,
0000
0100
0100
0000
0001
0001
0000
1000
,
1000
0000
0010
0000
0100
0000
0001
0001
,
0000
0010
0010
0000
0100
0100
1000
0000
,
0001
0010
0200
0000
,
2300
0000
3002
0000
,
0013
0000
0000
0100
,
0001
1000
0010
0000
,
0100
0000
0001
0000
,
1000
0000
0001
1000
,
0001
1000
0001
1000
,
0001
0000
1000
0000
1001
0000
0000
1001
,
0000
0100
0001
0000
,
0010
0000
0000
0000
1010
0000
0000
1010
,
0000
0010
0100
0000
,
0001
0000
0000
0000
0110
0000
0000
0110
,
0000
0000
0010
0000
1000
0000
0000
0010
,
0000
0000
0100
0000
0001
0000
0000
1000
,
0000
0010
0100
0001
,
1000
0010
0100
0000
,
0001
0000
0010
0000
,
1000
0000
0010
0000
,
0100
0000
0001
0000
,
0100
1000
0010
0100
,
0010
1000
0010
0100
,
0001
0010
0100
1000
,
0010
0100
0010
1000
,
0000
0000
0001
0010
,
0100
0001
1000
0010
,
0110
0000
0000
0000
;

//--------------- dance-single - B. M'Rey ----------------
#NOTES:
     dance-single:
     B. M'Rey:
     Medium:
     8:
     0,0,0,0,0:
0000
0000
0000
0000
,
0000
0000
0000
0000
,
0000
0000
0000
0000
,
0000
0000
0000
0000
,
0000
0000
0000
0000
,
0000
0000
0000
0001
0000
0000
1000
0000
,
0010
0000
0000
0010
0000
0000
0100
0000
,
0001
0000
0000
0001
0000
0000
1000
0000
,
0010
0000
0000
0200
0000
0000
0000
0000
,
0301
0000
0000
1000
0000
0000
0010
0000
,
1000
0000
0010
1000
0000
0000
0010
0000
,
0100
0001
0010
0001
,
1000
0001
1000
0100
,
1000
0001
0000
0010
0100
0000
0010
0001
,
0010
0100
0010
2000
,
0000
0000
3010
1000
,
0001
0010
0001
0000
0010
0100
0010
0000
,
0100
0010
0001
0010
,
1000
0100
0010
0001
0000
0010
0000
0001
,
1000
0100
0010
0001
0000
1000
0000
0001
,
1000
0000
0001
0000
0100
0010
0001
0010
,
0100
0010
0001
1000
0010
1000
0100
0010
,
0001
0010
0001
1000
0010
0100
0010
1000
,
0010
0100
0001
0010
0100
1000
0001
1000
,
0010
0100
0001
0100
0001
0010
0100
0010
,
0100
0010
0001
1000
0001
0001
0000
0010
,
0010
0000
0110
0000
1000
1000
0000
0100
,
0100
0000
0110
0000
0001
0001
0000
0100
,
0100
0000
0101
0000
0010
0010
0000
1000
,
0100
0010
0001
0010
0100
0000
1000
0010
,
0100
0000
0001
0010
0010
0000
1000
0000
,
0100
0010
0001
0100
,
0101
1001
1010
0100
,
0001
0100
0001
0010
0100
0000
0100
0000
,
0001
0100
0001
0000
0000
0000
1001
0000
,
0110
0000
0001
1000
,
0010
0000
0100
0001
0100
0000
0010
1000
,
0010
0000
0100
0010
0001
0000
1000
0010
,
0000
1000
0010
0001
,
0100
0000
1000
0000
0001
0000
0010
0100
,
0000
0100
0010
0000
0100
0000
0010
0000
,
0001
0000
0100
0000
0001
0000
1000
0100
,
0000
0100
1000
0000
0100
0000
1000
0001
,
0000
0001
0100
0000
0001
0000
0100
0001
,
0000
0001
1000
0000
0100
0000
0010
0000
,
0100
0000
0010
0000
0001
0000
0100
0010
,
0000
0010
0100
0000
0001
0000
0010
0000
,
0100
0000
0010
0000
0001
0000
0100
0010
,
0000
0010
1000
0000
0010
0000
1000
0000
,
0010
0000
0100
0000
0001
0000
0100
0001
,
0000
0001
0010
0000
0001
0000
1000
0000
,
0100
0000
0010
0000
0001
0010
0001
0000
,
0010
0100
0010
0000
1000
0100
1000
0000
,
0010
0100
0010
0000
0001
0000
0010
1000
,
0000
0100
0010
0000
0001
0000
0001
0001
,
0000
0000
0010
0000
0010
0010
0000
0000
,
0100
0000
0010
0000
0100
0000
0100
0100
,
0000
0000
1000
0000
1000
1000
0000
0000
,
0001
0100
0001
0010
,
0001
1000
0100
0010
,
0001
0000
0000
0100
,
0010
1000
0001
1000
,
0001
0010
0100
0010
,
0110
0011
1100
0110
,
1001
1100
0011
0011
,
0110
0000
0101
0000
0010
0000
0010
1000
,
0000
1000
0100
0000
0010
0000
0001
0000
,
0010
0000
0001
0000
0110
0000
0001
0100
,
0000
1000
0100
0000
0010
0000
0100
0000
,
0010
0000
0100
0000
0011
0000
0001
0100
,
0000
1000
0100
0000
0110
0000
0100
1000
,
0000
0100
0010
0000
0110
0000
0001
0100
,
0000
1000
0100
0000
0110
0000
0010
1000
,
0000
0010
0001
0000
0100
0000
0010
0000
,
0001
1000
0001
0010
,
0100
1000
0001
0100
,
0010
0100
0001
0010
,
0100
1000
0010
1000
,
0100
1000
0010
0100
,
0001
0010
0001
0100
,
0001
0010
0100
1000
,
0000
0000
0001
0100
,
0001
1000
0100
0010
,
1001
0000
0000
0000
;

//--------------- dance-single - B. M'Rey ----------------
#NOTES:
     dance-single:
     B. M'Rey:
     Hard:
     9:
     0,0,0,0,0:
0000
0000
0000
0000
,
0000
0000
0000
0000
,
0000
0000
0000
0000
,
0000
0000
0000
0000
,
0000
0000
0000
0000
,
1001
0000
0001
0010
0001
0000
1001
0000
,
0010
0100
0000
1001
0000
0000
0101
0000
,
0010
0000
0001
0010
0001
0000
1000
0000
,
0010
0000
0000
0220
0000
0000
0330
0000
,
0001
1000
0001
1000
0001
1000
0001
1000
,
0001
0000
0000
1001
0000
0000
0101
0000
,
0000
0100
0010
0100
0000
0110
0000
0101
,
0000
0110
0000
1010
0000
0110
0000
0100
,
0010
0100
0010
0100
0010
0100
0010
0100
,
0001
0000
0000
1000
0000
0000
0010
0000
,
0000
0100
0001
0100
0000
0101
0000
0100
,
1000
0100
1000
0000
0010
0100
0010
0000
,
0001
0010
0001
0000
1001
0000
0110
0000
,
0101
0010
1000
0010
0000
0101
0000
0110
,
0000
1000
0010
1000
0000
0101
0000
0110
,
0001
0010
0100
1000
0100
1000
0001
1000
,
0100
1000
0001
0010
0001
1000
0000
1000
0100
0010
0100
0010
0000
1000
0001
1000
,
0001
0100
0000
0010
0000
1000
0000
0100
0000
1000
0100
1000
0001
1000
0010
0100
,
0010
1000
0001
1000
0001
0010
0000
0010
0100
1000
0010
0100
0000
0010
0001
0010
,
0001
0100
0000
1000
0100
0010
0100
1000
0100
0000
0001
1000
0010
1000
0100
0000
,
0010
0100
0001
0010
0001
0010
0001
0100
0001
0000
1000
0000
0000
0000
0100
0000
,
0001
0000
0110
0000
0001
1000
0000
0100
,
0010
0000
0101
0000
0010
1000
0000
0100
,
0001
0000
0110
0000
0001
1000
0000
0010
,
0100
0010
0100
0010
0001
1000
0001
0010
,
0100
0010
0000
0001
1000
0010
0001
0010
,
0100
1000
0100
0010
0001
1000
0010
0100
,
0101
0000
1010
0000
1100
0000
0001
1000
,
0001
0010
0001
0100
0010
0100
0001
0010
,
0001
0010
1000
0000
0000
0000
0101
0000
,
0110
0000
0000
0000
0001
0000
0010
0100
,
0010
1000
0100
1000
0010
0100
0010
0100
,
0001
0010
0100
1000
0011
0000
0000
0110
,
0000
0000
1100
0000
0011
0000
0100
0010
,
0001
0100
0010
0100
1001
0000
0000
0101
,
0000
0000
0011
0000
1100
0000
0010
0100
,
0001
0100
0001
0100
1000
0000
0000
0101
,
0000
0000
0110
0000
1001
0000
0000
1100
,
0000
0000
0101
0000
1001
0000
0000
0011
,
0000
0000
0110
0000
1100
0000
0100
0010
,
0001
0010
0001
1000
1001
0000
0000
0110
,
0000
0000
0101
0000
1010
0000
0100
0010
,
0001
0100
0010
0100
1100
0000
0000
0110
,
0000
0000
0101
0000
1100
0000
0001
1000
,
0001
0010
0001
0010
1000
0000
0000
0110
,
0000
0000
0101
0000
0110
0000
0100
1000
,
0001
0100
0001
1000
0001
0010
0001
0000
,
0010
0100
0010
0000
0010
1000
0010
1000
,
0001
1000
0010
0100
0002
0000
0000
0010
,
0000
0000
0010
0000
0010
0000
1003
0100
,
0000
0010
0001
0000
0100
0010
0000
0001
,
0010
0000
1001
0000
0101
0000
0001
1000
,
0000
0100
0001
0000
0010
1000
0000
1000
,
0001
0000
0001
1000
0010
0100
0010
0000
,
0001
0010
0100
0000
0100
1000
0100
0000
,
0010
1000
0100
0000
0100
1000
0001
0010
,
0100
1000
0100
0010
0100
0000
1000
0000
,
0001
0100
0010
1000
,
0100
0000
0010
0000
0001
0100
0001
1000
,
0001
0100
0010
1000
0010
0100
0010
0100
,
0001
0100
0010
1000
0011
0000
0100
1000
,
0000
0100
0001
0000
0001
1000
0001
0100
,
0010
0100
0010
0100
0101
0000
0010
1000
,
0000
0100
0010
0000
1001
0000
0100
0010
,
0001
0100
0001
0010
1001
0000
0010
0100
,
0000
1000
0010
0000
0001
0000
0001
1000
,
0000
1000
0100
0000
0100
0000
0001
1000
,
0000
0100
0010
0000
0010
0000
0001
0100
,
0001
0100
0001
1000
0100
0010
0001
1000
,
0100
1000
0000
0100
0001
0100
0010
1000
,
0000
1000
0001
0100
0010
1000
0100
0010
,
0001
1000
0000
1000
0100
0010
0100
1000
,
0010
0100
0010
1000
0010
1000
0001
0010
,
0001
0100
0010
1000
0100
1000
0001
0100
,
0001
0100
0001
1000
0100
0010
0001
0100
,
0010
0100
0001
1000
0001
0100
0001
0100
,
0001
0000
0000
0000
0010
0100
0010
0000
,
1000
0010
1000
0000
0001
0000
0010
0000
,
0100
0000
0000
0000
;
