#VERSION:0.83;
#TITLE:DREAMS;
#ARTIST:2 BROTHERS ON THE 4TH FLOOR;
#GENRE:EURODANCE;
#MUSIC:DREAMS.ogg;
#BANNER:DREAMS-BN.PNG;
#BACKGROUND:DREAMS-BG.PNG;
#CDTITLE:./CDTITLES/DANCEMANIA PRESENTS AKI MONOGATARI 2007.PNG;
#SAMPLESTART:64.699;
#SAMPLELENGTH:15;
#OFFSET:-0.248;
#BPMS:0=134.056;

//--------------- dance-single - B. M'Rey ----------------
#NOTEDATA:;
#STEPSTYPE:dance-single;
#DESCRIPTION:B. M'Rey;
#DIFFICULTY:Beginner;
#METER:1;
#RADARVALUES:0,0,0,0,0;
#NOTES:
0000
0000
0000
0000
,
0000
0000
0000
0000
,
0000
0000
0000
0000
,
0000
0000
0000
0000
,
0001
0000
0000
0000
,
0100
0000
0000
0000
,
0010
0000
0000
0000
,
0100
0000
0000
0000
,
0010
0000
0000
0000
,
0100
0000
0000
0000
,
0100
0000
0000
0000
,
0001
0000
0000
0000
,
0001
0000
0100
0000
,
0001
0000
0100
0000
,
1000
0000
0010
0000
,
1001
0000
0000
0000
,
0100
0000
0000
0000
,
0010
0000
0000
0000
,
0001
0000
0000
0000
,
1001
0000
0000
0000
,
0001
0000
0001
0000
,
0001
0000
0010
0100
,
1000
0000
0010
0000
,
0200
0000
0000
0000
,
0310
0000
0010
0100
,
0001
0000
0001
1000
,
0001
0000
0100
0000
,
0200
0000
0000
0000
,
0310
0000
0010
1000
,
0001
0000
0001
0010
,
0001
0000
0100
0000
,
0200
0000
0000
0000
,
0301
0000
0001
0010
,
0001
0000
0100
1000
,
0100
0000
0100
1000
,
0001
0000
0000
0000
,
0020
0000
0000
0000
,
0031
0000
0000
0000
,
0020
0000
0000
0000
,
0031
0000
0100
0000
,
2000
0000
0000
0000
,
3100
0000
0000
0000
,
2000
0000
0000
0000
,
3001
0000
0000
0000
,
0001
0000
0100
0000
,
0001
0000
0010
0000
,
0001
0000
0100
0000
,
0010
0000
0001
0010
,
0100
0000
0010
0000
,
0001
0000
0100
0000
,
0001
0000
0100
0000
,
0001
0000
0100
0010
,
0002
0000
0000
0000
,
0000
0000
0000
0000
,
0000
0000
0000
0000
,
0000
0000
0000
0000
,
0000
0000
0000
0000
,
0000
0000
0000
0000
,
0000
0000
0000
0000
,
0000
0000
0000
0000
,
1003
0000
0000
0000
;

//--------------- dance-single - B. M'Rey ----------------
#NOTEDATA:;
#STEPSTYPE:dance-single;
#DESCRIPTION:B. M'Rey;
#DIFFICULTY:Easy;
#METER:4;
#RADARVALUES:0,0,0,0,0;
#NOTES:
0000
0000
0000
0000
,
0000
0000
0000
0000
,
0000
0000
0000
0000
,
0000
0000
0000
0000
,
0001
0100
0001
0000
,
0100
1000
0001
0000
,
0010
0000
0100
0000
0010
0000
0000
0100
,
0000
0000
0010
0000
,
0100
1000
0001
0000
,
0100
1000
0010
0000
,
0010
0000
0100
0000
0010
0000
0000
0100
,
0000
0000
0000
0000
,
0010
1000
0100
0010
,
0001
1000
0100
0010
,
0001
0010
0100
0010
,
0001
0000
0000
0000
,
0001
0000
0000
0000
,
1000
0000
0000
0000
,
0001
0000
0000
0000
,
0100
0000
0000
0000
,
0001
1000
0001
1000
,
0001
0100
0001
0100
,
0001
0100
0001
1000
,
0100
0000
0100
0000
,
0100
1000
0100
0010
,
0100
0010
0100
0010
,
0100
0010
0100
0010
,
0100
0000
0010
0000
,
0010
1000
0010
1000
,
0010
0100
0010
0100
,
0001
0100
0001
0100
,
0001
0000
0001
0000
,
0001
0100
0001
0100
,
0001
0100
0001
0100
,
0001
0100
0001
0100
,
0010
0000
0000
0000
,
0002
0000
0000
0013
,
0001
0000
0000
0000
,
0002
0000
0000
0000
0000
0000
0000
0103
,
0000
0001
0000
1000
0000
0020
0000
0000
,
0230
0000
0000
0310
,
0001
0000
0000
0000
,
0200
0000
0000
0301
,
0010
0000
0001
0100
,
0001
0100
0001
0000
,
0100
1000
0001
0000
,
0010
0000
0100
0000
0010
0000
0000
0100
,
0000
0000
0010
0000
,
0100
1000
0001
0000
,
0100
1000
0010
0000
,
0010
0000
0100
0000
0010
0000
0000
0100
,
0000
0000
0010
0000
,
0002
0000
0000
0000
,
0203
0000
0000
0000
,
2300
0000
0000
0000
,
3020
0000
0000
0000
,
0032
0000
0000
0000
,
0203
0000
0000
0000
,
0302
0000
0000
0000
,
2003
0000
0000
0000
,
3000
0000
0000
0000
;

//--------------- dance-single - B. M'Rey ----------------
#NOTEDATA:;
#STEPSTYPE:dance-single;
#DESCRIPTION:B. M'Rey;
#DIFFICULTY:Medium;
#METER:7;
#RADARVALUES:0,0,0,0,0;
#NOTES:
0000
0000
0000
0000
,
0000
0000
0000
0000
,
0000
0000
0000
0000
,
0000
0000
0000
0000
,
0001
0010
0100
0000
,
0001
1000
0100
0000
,
0001
0000
0010
0000
0001
0000
0000
0010
,
0000
0000
0200
0000
,
0310
1000
0100
0000
,
0001
0100
0010
0000
,
0001
0000
1000
0000
0001
0000
0000
1000
,
0000
0000
0020
0000
,
0130
1000
0100
0000
0100
0010
0100
0000
,
0100
0010
0100
0000
0010
1000
0010
0000
,
0001
0010
0001
0000
0010
0100
0010
0000
,
0200
0000
0000
0000
0000
0000
0000
0300
,
0100
1000
0010
0000
,
0001
1000
0100
0000
,
0001
0010
0100
0000
,
0110
0000
0000
0010
,
0010
0000
0010
1000
0000
1000
0001
0000
,
0001
0100
0010
0000
0001
0100
0010
0000
,
0010
0000
0001
0000
0010
1000
0001
0000
,
0100
0001
0100
0010
,
0001
1000
0100
0010
0001
0000
0010
0000
,
0010
1000
0000
0100
0010
0100
0010
0000
,
0001
0000
0001
1000
0010
0000
0010
0000
,
0010
0001
0100
0100
,
0100
1000
0001
0000
0100
0010
0001
0000
,
0010
0000
0001
0100
0001
1000
0001
0000
,
1001
0000
0110
0000
0001
0010
0100
0000
,
0001
0001
0100
0100
,
0100
0010
0000
1000
0000
0010
0100
1000
,
0001
0000
0100
0000
0001
0100
0001
0000
,
0100
0000
0100
0010
0001
0100
0010
0000
,
0020
0000
0000
0000
,
0230
0000
0000
0000
0000
0000
0301
0010
,
0001
0010
1000
0100
,
0020
0000
0000
0000
0000
0130
0001
0100
,
0000
0010
0000
0010
0000
2000
0000
0000
,
3002
0000
0000
0000
0000
0103
0001
0010
,
0001
0100
0100
0100
,
0002
0000
0000
0000
0000
0000
0013
0100
,
0000
0000
0000
0010
0001
1000
0100
1000
,
0010
0001
0100
0000
,
0001
0100
0001
0000
,
0100
0000
1000
0000
0100
0000
0000
0010
,
0000
0000
0000
0100
0010
0100
0010
0100
,
0001
0010
0001
0000
,
0001
0010
0001
0000
,
0010
0000
0100
0000
0010
0000
0000
0001
,
0000
0000
0000
0100
0010
1000
0001
0100
,
0002
0000
0000
0000
,
0023
0000
0000
0000
,
2030
0000
0000
0000
,
3200
0000
0000
0000
,
0302
0000
0000
0000
,
0023
0000
0000
0000
,
0032
0000
0000
0000
,
2003
0000
0000
0000
,
3000
0000
0000
0000
;

//--------------- dance-single - B. M'Rey ----------------
#NOTEDATA:;
#STEPSTYPE:dance-single;
#DESCRIPTION:B. M'Rey;
#DIFFICULTY:Hard;
#METER:10;
#RADARVALUES:0,0,0,0,0;
#NOTES:
0000
0000
0000
0000
,
0000
0000
0000
0000
,
0000
0000
0000
0000
,
0000
0000
0000
0000
,
0001
0000
1000
0000
0001
0000
0100
0000
0001
0000
0000
0100
0000
0000
0010
0000
,
0001
0000
0010
0000
0100
0000
1000
0000
0100
0000
0000
0100
0000
0000
1000
0000
,
0001
0010
0100
0010
0001
0000
0000
1000
,
0000
0000
0000
1000
0010
0100
0010
0100
,
0001
0000
1000
0000
0001
0000
0100
0000
0010
0000
0000
0001
0000
0000
1000
0000
,
0010
0000
1000
0000
0100
0000
0010
0000
0100
0000
0000
1000
0000
0000
0100
0000
,
0001
1000
0100
1000
0100
0000
0000
0010
,
0000
0000
0000
0100
0010
0001
1000
0010
,
0100
0010
0001
0100
0001
0010
0100
1000
,
0100
1000
0010
0100
0010
0100
0010
1000
,
0001
0100
0001
1000
0010
0100
0001
0100
,
2000
0000
0000
0000
,
3001
1000
0001
0100
0010
0000
0001
0000
,
0001
0010
0100
0010
0001
0000
0010
0000
,
0100
0010
0001
0100
0001
0000
0001
0000
,
0010
1000
0001
0100
,
0001
0100
0001
0100
0001
1000
0010
1000
,
0001
1000
0100
0010
0100
1000
0001
0000
,
0010
1000
0001
0010
0001
1000
0100
1000
,
0001
1000
0010
0100
,
0001
1000
0010
1000
0100
1000
0100
0000
,
0100
0010
0001
0010
0001
0100
0001
0000
,
0100
1000
0001
0010
0001
0010
0001
1000
,
0010
1000
0001
0100
,
0100
0010
0001
0100
0010
1000
0100
0000
,
0100
1000
0100
1000
0010
1000
0100
0000
,
0110
0000
0010
1000
0001
0010
0001
0000
,
0100
1000
0100
0000
0100
1000
0001
0000
,
0001
0100
0000
0100
0001
0010
0001
0100
,
0001
0000
0010
0100
0010
1000
0100
0000
,
0100
1000
0001
1000
0010
0100
0001
0000
,
0010
0100
0010
1000
,
0002
0000
1000
0000
0100
0003
0100
1000
,
0100
0000
0001
0100
0001
0000
0001
0100
,
0020
0000
0100
0000
1030
0100
0001
1000
,
0000
0100
0000
0010
0000
0200
0000
0000
,
0320
0000
0001
0000
0031
1000
0010
0100
,
0001
0000
0001
0010
0001
0000
0010
1000
,
0020
0000
0100
0000
0130
0000
0001
0010
,
0100
0000
0001
0100
0010
1000
0001
0100
,
0010
0100
0010
0100
0001
0000
0010
0000
,
0010
0100
0001
0010
0001
0000
0001
0000
,
0010
0100
0010
1000
0100
0000
0001
1000
,
0000
0010
0001
1000
0100
1000
0010
0100
,
0001
0100
0001
0100
0010
0000
0010
0000
,
0010
0100
0001
0010
0100
0000
0010
0000
,
0100
1000
0010
0100
0001
0000
0001
1000
,
0010
0000
0010
0100
0010
0100
0001
0100
,
0200
0000
0000
0000
,
0320
0000
0000
0000
,
2030
0000
0000
0000
,
3200
0000
0310
0100
,
0002
0000
0000
0000
,
0203
0000
0000
0000
,
0320
0000
0000
0000
,
2030
0000
0000
0000
,
3000
0000
0000
0000
;
