#TITLE:DON’T STOP THE MUSIC;
#SUBTITLE:;
#ARTIST:ANGELICA;
#TITLETRANSLIT:;
#SUBTITLETRANSLIT:;
#ARTISTTRANSLIT:;
#GENRE:;
#CREDIT:;
#MUSIC:DON’T STOP THE MUSIC.ogg;
#BANNER:DON’T STOP THE MUSIC-bn.png;
#BACKGROUND:DON’T STOP THE MUSIC-bg.png;
#CDTITLE:./CDTITLES/DANCEMANIA/PRESENTS NATSU MONOGATARI SPEED.PNG;
#SAMPLESTART:66.147;
#SAMPLELENGTH:12.000;
#SELECTABLE:YES;
#OFFSET:-0.124;
#BPMS:0.000=147.221;
#STOPS:;
#BGCHANGES:;
#FGCHANGES:;

//--------------- dance-single - B. M'Rey ----------------
#NOTES:
     dance-single:
     B. M'Rey:
     Beginner:
     2:
     0,0,0,0,0:
0000
0000
0000
0000
,
0000
0000
0000
0000
,
0000
0000
0000
0000
,
0000
0000
0000
0000
,
0100
0010
0001
0000
,
0000
0000
0000
0000
,
0000
0000
0000
0000
,
0000
0000
0000
0000
,
0001
1000
0010
0000
,
0001
0000
0001
0010
,
0100
1000
0001
0000
,
0100
0000
0001
0100
,
0001
0010
0100
0000
,
0010
0000
0010
1000
,
0100
0010
0001
0000
,
0010
0000
0002
0000
,
0000
0000
0103
1000
,
0000
0000
0010
1000
,
0100
1000
0001
0010
,
0000
1000
0010
0100
,
0001
0010
0100
1000
,
0000
0010
0100
1000
,
0010
1000
0100
1000
,
0000
0100
0010
0100
,
0000
1000
0000
0000
0100
0000
1000
0000
,
0000
0000
0100
0010
,
0001
0100
0010
0100
,
0000
0000
0100
0010
,
0001
1000
0010
1000
,
0000
0100
0001
1000
,
0100
0010
0001
0100
,
0000
1000
0100
0010
,
0000
0100
0000
0000
0000
0000
1000
0000
,
0001
0010
0000
1000
,
0001
0010
0000
0010
,
0100
1000
0010
0000
,
0010
0100
0000
1000
,
0001
0100
0000
0100
,
0001
0010
0000
1000
,
0001
0000
0001
0000
,
0100
0010
0100
0000
,
0001
0000
1001
0000
,
0010
0100
0001
0000
,
0001
0000
0110
0000
,
0010
0100
0001
0000
,
0100
1000
0001
0000
,
0001
0010
0100
0000
,
1010
0000
0110
0000
,
0101
0000
0010
0000
,
0100
0000
0101
0000
,
0001
0010
0100
0000
,
0010
0000
1010
0000
,
0010
1000
0001
0000
,
0010
1000
0100
0000
,
0100
1000
0010
0000
,
1100
0000
0110
0000
,
1010
0000
1000
0000
,
0001
0000
0100
0000
,
0010
0000
1000
0000
,
0100
0000
1000
0000
,
0001
0000
1001
0000
,
0010
0000
0100
0000
,
0001
0000
0010
0000
,
1000
0000
0010
0000
,
0000
0000
1001
0000
;

//--------------- dance-single - B. M'Rey ----------------
#NOTES:
     dance-single:
     B. M'Rey:
     Easy:
     5:
     0,0,0,0,0:
0000
0000
0000
0000
,
0000
0000
0000
0000
,
0000
0000
0000
0000
,
0000
0000
0000
0000
,
0001
0100
0001
0100
,
0001
1000
0100
0010
,
0001
0010
0001
0010
,
0100
1000
0100
1000
,
0001
1000
0010
0100
,
0100
1000
0100
0000
0001
0000
0001
0000
,
0001
0010
0100
0000
0100
0000
0001
0000
,
0001
0010
0001
0000
0100
0000
0100
0000
,
0100
1000
0001
0000
0001
0000
0001
0000
,
0100
1000
0100
0000
0001
0000
0001
0000
,
0100
0010
0100
0000
0010
0000
0001
0000
,
0010
0100
0001
0000
1001
0000
0101
0000
,
0110
0000
0110
0000
0001
1000
0002
0000
,
0003
0000
0000
0100
0001
0000
0100
0000
,
0001
0000
0100
0010
0100
0000
0001
0000
,
0001
1000
0001
0000
1000
0000
0001
0000
,
1000
0000
0010
0000
0100
1000
0100
0000
,
0100
0010
0001
0100
,
0010
0000
0010
1000
0100
0000
0100
0000
,
0100
0010
0001
0000
0001
1000
0001
0000
,
0000
0200
0000
0000
0301
0000
0001
0000
,
0000
0000
0000
1000
0010
0000
0001
0000
,
1000
0000
0001
0010
0100
0010
0100
0000
,
0000
0000
0000
1000
0010
0000
1000
0000
,
0100
0000
0010
0000
0001
0100
0001
0000
,
0000
0000
0010
1000
0010
0000
1000
0000
,
0001
0000
0100
0000
0010
1000
0100
0000
,
0000
0000
0001
0100
0001
0000
0002
0000
,
0000
0203
0000
0000
0000
1300
0000
1000
,
0001
0000
0010
0000
0000
0100
0000
1000
,
0100
0000
0100
1000
0000
0010
0000
0100
,
0100
1000
0010
0100
,
0001
0000
0010
0100
0000
1000
0010
0000
,
0100
0000
0200
0000
0300
0010
0000
1000
,
0001
0000
0002
0000
0003
0100
0010
0000
,
0100
0010
1000
0100
,
0010
0100
0001
0000
0110
0000
1000
0000
,
0001
0000
0100
0000
0002
0000
0000
0003
,
0001
1000
0010
0000
0001
0000
0100
0000
,
0010
0100
0002
0000
,
0103
0010
0100
0010
,
0001
1000
0100
0000
0010
0000
0001
0000
,
0100
1000
0001
0000
0010
0000
0001
0000
,
0100
0010
0001
0000
0001
1000
0001
0000
,
0010
0010
0010
1000
,
0100
0010
0002
0003
,
0001
1000
0001
0000
0100
0000
0010
0000
,
0100
0000
0001
0000
2000
0000
0000
3000
,
0010
1000
0010
0000
0010
0000
0100
0000
,
0100
0010
0001
0000
0001
0000
0001
0000
,
0010
1000
0010
0000
0010
0000
0001
0000
,
0001
0010
0001
0000
0100
0010
0100
0000
,
0100
1000
0001
0000
0001
0000
1000
0000
,
0001
1000
0001
0100
,
0010
0100
0010
0100
,
0001
0010
0001
1000
,
0001
0100
0010
0100
,
0010
0100
0001
1000
,
0001
1000
0010
1000
,
0010
0100
0001
0100
,
0001
0100
0010
1010
;

//--------------- dance-single - B. M'Rey ----------------
#NOTES:
     dance-single:
     B. M'Rey:
     Medium:
     8:
     0,0,0,0,0:
0000
0000
0000
0000
,
0000
0000
0000
0000
,
0000
0000
0000
0000
,
0000
0000
0000
0000
,
0010
1000
0001
1000
0010
0000
0010
0000
,
0001
0001
1000
0010
,
0001
0100
0001
0001
,
0001
0000
0100
0000
0010
0100
0010
0100
,
0001
1000
0001
0100
0010
0000
0001
1000
,
0001
0000
0100
0010
0001
0000
1010
0000
,
0010
0100
0001
1000
0010
0000
0001
1000
,
0010
0000
0001
0010
0001
0000
0110
0000
,
0100
1000
0010
1000
0010
0000
0100
0010
,
0100
0000
0100
1000
0001
0000
0011
0000
,
0100
0010
0100
1000
0001
0000
0001
1000
,
0100
0000
0100
0010
1001
0000
0110
0000
,
1001
0000
0110
0000
0010
1000
0100
0000
,
0100
0000
0001
0000
0001
0010
0001
0000
,
0010
1000
0001
1000
0001
1000
0010
0000
,
0001
0010
0100
0000
0001
1000
0001
0010
,
0101
0000
0101
0000
0001
0100
0001
0000
,
0100
0010
0001
0100
0001
0000
0010
0100
,
0010
0000
0001
0100
0010
0100
0010
0000
,
0001
0010
0100
1000
0001
0000
0100
0000
,
0100
0000
0001
0000
0010
0100
0001
0000
,
0100
0000
0100
0000
0010
1000
0001
0010
,
0100
1000
0100
1000
0010
0100
0010
0000
,
0001
0000
0100
0000
0001
0100
0010
0000
,
0001
0010
0100
1000
0100
1000
0100
0000
,
0001
0000
0001
0010
0100
0000
0100
1000
,
0010
0000
0010
0100
0010
1000
0100
0000
,
0001
0100
0010
0100
0010
1000
0010
0000
,
0000
1000
0000
0000
0010
1000
0001
0010
,
0001
0100
0001
0010
0000
1000
0001
0100
,
0010
1000
0001
0100
0000
0010
0001
0100
,
0010
1000
0100
1000
0010
0000
0010
0000
,
0001
1000
0001
1000
0000
0100
0001
0100
,
0010
0100
0020
0000
0130
0010
0001
1000
,
0100
0010
0002
0000
1003
0001
0010
1000
,
0001
0000
0001
0010
0001
0000
0010
1000
,
0001
0000
1000
0000
0001
0000
0000
0000
0001
0000
0000
0010
0000
0000
0010
0000
,
0001
0000
0000
0100
0000
0000
0100
0000
0010
0000
0000
0000
0001
0000
0010
0000
,
0100
0000
0010
0000
0001
0000
0100
0000
0010
0000
0000
0010
0000
0000
1000
0000
,
0001
0000
0000
0100
0000
0000
0010
0000
0100
0000
0000
0000
0100
0000
0000
0000
,
0001
1000
0001
0010
0100
0000
0001
0000
,
0001
0100
0001
1000
0010
0000
0010
0000
,
0010
0100
0001
0010
0001
0000
0100
0000
,
0001
0010
0100
0000
0100
1000
0100
0000
,
1010
0000
0000
0000
0011
0000
0000
0000
0100
0000
0000
0010
0000
0000
1000
0000
,
0001
0000
0000
1000
0000
0000
0010
0000
0001
0000
0000
0000
0001
0000
1000
0000
,
0100
0000
1000
0000
0001
0000
1000
0000
0010
0000
0000
0100
0000
0000
0100
0000
,
0010
0000
0000
0100
0000
0000
1000
0000
0100
0000
0000
0000
0001
0000
0000
0000
,
0100
0010
0001
0010
0001
0000
0010
0000
,
0001
0010
0001
1000
0100
0000
0001
0000
,
0100
1000
0100
0010
0100
0000
0001
0000
,
0100
1000
0010
0100
0001
0100
0001
0100
,
0010
1000
0100
1000
0100
0000
0001
0000
,
0001
0100
0010
0000
0100
0000
0100
0000
,
0001
0010
0001
0000
0001
0000
0100
0000
,
0010
0100
0001
0000
0100
0000
0100
0000
,
0100
0010
0001
0000
0001
0000
0010
0000
,
0001
0010
0001
0000
0100
0000
0100
0000
,
0001
0100
0010
0000
0001
0000
0001
0000
,
0001
1000
0010
0000
0010
0000
0010
0000
,
0001
0010
0100
0010
0100
0000
0001
0000
;

//--------------- dance-single - B. M'Rey ----------------
#NOTES:
     dance-single:
     B. M'Rey:
     Hard:
     9:
     0,0,0,0,0:
0000
0000
0000
0000
,
0000
0000
0000
0000
,
0000
0000
0000
0000
,
0000
0000
0000
0000
,
0010
0000
1000
0000
0100
0000
0010
0000
0100
0000
0000
1000
0000
0000
1000
0000
,
0010
0000
0000
0100
0000
0000
1000
0000
0100
0000
0000
1000
0000
0000
1000
0000
,
0100
0000
0010
0000
0001
0000
0100
0000
0010
0000
0000
0100
0000
0000
1000
0000
,
0001
0000
0000
1000
0000
0000
0010
0000
0100
0000
0010
0000
0100
0000
0010
0000
,
0001
0100
0010
1000
0010
0100
0001
0100
,
0001
0100
0010
1000
0010
1000
0001
1000
,
0100
0010
0001
0010
0100
1000
0100
0010
,
0100
1000
0001
0010
0100
0010
0001
0100
,
0010
0100
0001
0010
0001
0010
0100
1000
,
0100
0010
0100
1000
0001
0010
0100
1000
,
0010
0100
0001
0100
0001
0100
0010
1000
,
0100
0010
0100
0010
1001
0000
1001
0000
,
0110
0000
0110
0000
0100
0010
0100
0000
,
0001
0000
0000
1000
0000
0000
0100
0000
0001
0000
1000
0000
0100
0000
0010
0000
,
0001
0100
0010
0100
0010
1000
0010
0000
,
0001
1000
0001
1000
0001
0100
0010
1000
,
0010
0100
0001
0010
0001
0010
0100
0000
,
0001
0100
0001
0010
0100
0010
0001
0010
,
0001
1000
0100
0010
0001
0100
0001
0000
,
0001
0010
0100
1000
0001
1000
0001
0100
,
0010
0000
0100
0000
0001
1000
0001
1000
0100
0000
1000
0000
0100
0000
1000
0000
,
0001
0010
0100
1000
0001
1000
0010
0100
,
0010
1000
0001
0010
0001
0100
0001
0010
,
0100
0010
0001
0010
0001
1000
0100
1000
,
0010
1000
0100
0010
0001
1000
0100
0010
,
0001
0010
0100
1000
0010
1000
0010
0100
,
0010
1000
0100
1000
0001
0010
0100
0010
,
0100
1000
0001
0010
1100
0000
0101
0000
,
1001
0000
1100
0000
0100
1000
0001
0100
,
0010
0100
1010
1010
0000
0100
0001
1000
,
0100
1000
0011
0011
0000
0010
0001
1000
,
0001
0100
0010
0100
0110
0000
1001
0000
,
0010
1000
0100
0010
0000
1000
0001
0010
,
0100
1000
0200
0000
0301
0010
0100
0010
,
0100
1000
0020
0000
1030
1000
0100
0010
,
0001
0010
0001
0100
0010
0100
0001
0100
,
0001
0000
1000
0000
0001
0000
0000
0000
0100
0000
1000
0010
0000
0000
1000
0000
,
0001
0000
1000
0100
0000
0000
0010
0000
1100
0000
0000
0000
0100
0000
0010
0000
,
0001
0000
0010
0000
0001
0000
0010
0000
0100
0000
0000
0001
0000
0000
1000
0000
,
0100
1000
0001
0010
0101
0000
0010
0000
,
0010
1000
0001
0010
1100
0000
1010
0000
,
0001
0100
0010
1000
0110
0000
1100
0000
,
0100
0010
0001
1000
0110
0000
0101
0000
,
0010
0100
0010
1000
0001
0010
0100
0010
,
1001
0000
0000
0000
1010
0000
0000
0000
0100
0000
0010
0001
0000
0000
0010
0000
,
0100
0000
1000
0001
0000
0000
1000
0000
0110
0000
0000
0000
0100
0000
1000
0000
,
0010
0000
1000
0000
0001
0000
0010
0000
0100
0000
0000
1000
0000
0000
0010
0000
,
0100
0010
0001
1000
0011
0000
0100
0000
,
0010
1000
0100
0010
0101
0000
0110
0000
,
0001
0100
0010
1000
0101
0000
0011
0000
,
0001
1000
0100
0010
1100
0000
0011
0000
,
0100
0010
0001
0100
0001
1000
0100
0010
,
0100
0000
1000
0000
0100
0000
0001
1000
0001
0000
0001
0100
0010
0000
0100
0010
,
0000
0010
0000
0010
0000
0000
0010
0100
0001
0000
0001
0010
0100
0000
0100
0010
,
0000
1000
0000
1000
0000
0000
0100
0010
0100
0000
0100
0010
0001
0000
0100
0010
,
0000
1000
0000
0010
0000
0000
0100
1000
0001
0000
0010
1000
0010
0000
0001
0100
,
0001
0000
0001
0000
0010
0000
0001
0100
0010
0000
0100
1000
0010
0000
0001
0010
,
0000
0100
0000
0010
0000
0000
0100
0010
0001
0000
0010
1000
0001
0000
0001
1000
,
0000
1000
0000
0100
0000
0000
0100
1000
0010
0000
0001
0010
0100
0000
0010
0100
,
0000
0100
0000
0100
0000
0000
0010
0100
0001
0000
1000
0000
0010
0000
1000
0000
,
0100
0010
0100
0010
1100
0000
1010
0000
;
