#VERSION:0.83;
#TITLE:DARE;
#ARTIST:GORILLAZ;
#GENRE:HIP HOP;
#MUSIC:Dare.ogg;
#BANNER:DARE-BN.png;
#BACKGROUND:DARE-bg.png;
#CDTITLE:./CDTITLES/LICENSED MUSIC.PNG;
#SAMPLESTART:66.858;
#SAMPLELENGTH:15;
#OFFSET:1.500;
#BPMS:0=120.25;
#BGCHANGES:2.500=DARE.avi=1.000=0=0=0=StretchNoLoop====,
99999.000=-nosongbg-=1.000=0=0=0=StretchNoLoop====;

//--------------- dance-single - B. M'Rey ----------------
#NOTEDATA:;
#STEPSTYPE:dance-single;
#DESCRIPTION:B. M'Rey;
#DIFFICULTY:Beginner;
#METER:2;
#RADARVALUES:0,0,0,0,0;
#NOTES:
0000
0000
0000
0000
,
0000
0000
0000
0000
,
0000
0000
0000
0000
,
0000
0000
0000
0000
,
0000
0000
0000
0000
,
2000
0000
0000
0000
,
0000
0000
0000
0000
,
3001
0000
0001
0000
,
0010
0000
0000
0000
,
0100
0100
0010
0000
,
0001
0000
1000
0000
,
0000
0010
0010
0000
,
0100
0000
0001
0000
,
0001
0000
0010
0000
,
0000
0000
1000
0100
,
0020
0000
0031
0000
,
0000
0000
0000
0000
,
0000
0001
0010
1000
,
0000
0010
0100
0001
,
0000
0010
0100
1000
,
0000
0000
0010
0100
,
0001
0000
0010
0000
,
0100
0000
0000
1000
,
0000
1000
0000
0000
0000
0000
0000
0000
,
0000
0000
0000
0000
,
0002
0000
0000
0000
,
0003
0000
0010
0000
0100
0000
0000
1000
,
0000
0000
0001
0000
0010
0000
0000
0100
,
0000
0000
1000
0000
,
0001
0000
0100
0010
,
1001
0000
0000
0010
,
0000
0010
0000
0010
,
0000
0010
0000
0010
,
0000
0001
1000
1001
,
0000
0100
0010
0000
,
0001
0000
1000
0000
,
0000
0010
0010
0000
,
0100
0000
0001
0000
,
0001
0000
0010
0000
,
0000
0000
1000
0100
,
0020
0000
0031
0000
,
0000
0000
0000
0000
,
0000
0001
0010
1000
,
0000
0010
0100
0001
,
0000
0010
0100
1000
,
0000
0000
0010
0100
,
0001
0000
0010
0000
,
0100
0000
0000
1000
,
0000
1000
0000
0000
0000
0000
0010
0000
,
0000
0100
0000
0000
,
0002
0000
0000
0000
,
2003
0000
0000
0000
,
3200
0000
0000
0000
,
0320
0000
0000
0000
,
2030
0000
0000
0000
,
3002
0000
0000
0000
,
0203
0000
0000
0000
,
0320
0000
0000
0030
;

//--------------- dance-single - B. M'Rey ----------------
#NOTEDATA:;
#STEPSTYPE:dance-single;
#DESCRIPTION:B. M'Rey;
#DIFFICULTY:Easy;
#METER:5;
#RADARVALUES:0,0,0,0,0;
#NOTES:
0000
0000
0000
0000
,
0000
0000
0000
0000
,
0000
0000
0000
0000
,
0000
0000
0000
0000
,
0000
0000
0000
0000
,
2000
0000
3020
0000
,
0230
0000
0000
0000
,
0301
0000
0010
0000
,
0001
0000
1000
0000
,
0000
0010
0010
0000
,
0100
0000
0100
0000
,
0000
0001
0001
0000
,
1000
0000
0010
0000
,
0010
0001
0010
0000
,
0010
0001
0010
0100
,
2000
0000
3100
0000
,
1000
0010
0000
0110
,
0000
0010
0100
0001
,
0000
0001
0010
0001
,
0000
0001
0010
0100
,
0000
0001
1000
0001
,
2000
0000
3200
0000
,
0320
0000
0031
0200
,
0000
0310
0000
0000
0001
0000
1000
0000
,
0001
1000
0001
1000
,
0002
0000
0000
0000
,
1003
0001
0100
0001
,
0100
0001
0100
0001
,
1000
0100
1000
0010
,
1000
0100
1000
0001
,
0010
0000
0100
0110
,
0000
0110
0000
0101
,
0000
0011
0000
0011
,
0000
0001
0100
0010
,
0000
0010
0001
0100
,
0000
0100
0001
0100
,
0000
0010
0100
1000
,
0010
0000
0010
0000
,
0010
0001
0010
0000
,
0010
0001
0010
0100
,
2000
0000
3100
0000
,
1000
0010
0000
0110
,
0000
0010
0100
0001
,
0000
0001
0010
0001
,
0000
0001
0010
0100
,
0000
0001
1000
0001
,
2000
0000
3200
0000
,
0320
0000
0031
0200
,
0000
0310
0000
0000
0001
0000
1000
0000
,
0001
1000
0000
1001
,
1000
0000
1000
0000
,
0001
0000
0001
0000
,
0100
0000
0100
0000
,
0010
0000
0010
0000
,
1000
1000
1000
0000
,
0010
0010
0010
0000
,
0100
0100
0100
0000
,
0001
0001
0001
1001
;

//--------------- dance-single - B. M'Rey ----------------
#NOTEDATA:;
#STEPSTYPE:dance-single;
#DESCRIPTION:B. M'Rey;
#DIFFICULTY:Medium;
#METER:7;
#RADARVALUES:0,0,0,0,0;
#NOTES:
0000
0000
0000
0000
,
0000
0000
0000
0000
,
0000
0000
0000
0000
,
0000
0000
0000
0000
,
0000
0000
0000
0000
,
2000
0000
3020
0000
,
0230
0000
0302
0000
,
1003
0000
0010
0000
0001
0000
0010
0100
,
0000
1000
0000
0000
0010
0000
0100
0000
,
0000
0001
0001
1000
,
1000
0010
0100
0000
,
0001
0001
1000
1000
,
0010
0100
0001
0010
,
0001
0010
0001
0000
1000
0100
1000
0000
,
0010
0100
0010
1000
,
1000
0100
1000
0000
0001
0010
0001
0000
,
0100
0000
0010
0000
0001
1000
1001
0000
,
0001
0000
0010
0000
0100
0000
0001
0010
,
0000
1000
0100
0110
,
0000
0000
0001
0000
0010
0000
1000
0100
,
0000
0000
0010
0100
0000
0001
0010
1000
,
0000
0100
1000
0100
0000
0010
0100
0010
,
0000
0001
0000
1000
0000
0010
0000
0100
,
0001
1000
0100
0000
1000
0000
0100
0010
,
0000
0001
0000
0000
0001
0000
1000
0000
,
2002
0000
0000
0000
0000
0000
0000
3003
,
0010
0000
0100
0000
0010
0100
0000
0100
,
0000
0000
0010
0000
0100
0010
0000
0010
,
0000
1000
0000
0001
0000
1000
0000
0001
,
0000
0100
0000
0010
0000
1000
0100
0000
,
1001
0000
0001
0000
0010
0000
0001
0010
,
0001
0000
0001
0010
0001
0000
0001
0010
,
0001
0000
0001
0010
0001
0000
0001
0010
,
0001
1001
1001
0110
,
0001
0000
1000
0000
0010
0000
0100
1000
,
0000
0100
0000
0010
0000
1000
0010
0000
,
1000
0000
0001
0000
0010
0000
0001
0100
,
0000
0010
0000
1000
0000
0100
0000
1000
,
0001
0010
0001
0000
1000
0100
1000
0000
,
0010
0100
0010
1000
,
1000
0100
1000
0000
0001
0010
0001
0000
,
0100
0000
0010
0000
0001
1000
1001
0000
,
0001
0000
0010
0000
0100
0000
0001
0010
,
0000
1000
0100
0110
,
0000
0000
0001
0000
0010
0000
1000
0100
,
0000
0000
0010
0100
0000
0001
0010
1000
,
0000
0100
1000
0100
0000
0010
0100
0010
,
0000
0001
0000
1000
0000
0010
0000
0100
,
0001
1000
0100
0000
1000
0000
0100
0010
,
0000
0001
0000
0000
0001
0000
1100
0000
,
0010
0010
0100
0100
,
0010
0010
0100
0100
,
1000
1000
0001
0001
,
1000
1000
0001
0001
,
0001
0001
0010
0010
,
0100
0100
1000
1000
,
1000
0010
0100
0001
,
0010
1000
0100
1001
;

//--------------- dance-single - B. M'Rey ----------------
#NOTEDATA:;
#STEPSTYPE:dance-single;
#DESCRIPTION:B. M'Rey;
#DIFFICULTY:Hard;
#METER:10;
#RADARVALUES:0,0,0,0,0;
#NOTES:
0000
0000
0000
0000
,
0000
0000
0000
0000
,
0000
0000
0000
0000
,
0000
0000
0000
0000
,
0000
0000
0000
0000
,
0001
1000
0001
1000
,
0001
0100
0010
0100
,
0010
0000
0100
0010
0001
0000
1000
0100
,
0000
0001
1000
0000
0001
0010
0100
0000
,
0001
0000
1000
0000
0001
0000
1000
0100
,
0000
0001
0000
0100
0010
0000
1000
0000
,
0010
0000
0100
0000
0010
0000
0100
0010
,
0000
0001
0000
0100
0001
0010
1000
0000
,
0001
1000
0001
0010
0100
0010
0100
1000
,
0001
0010
0001
0010
0001
0100
0010
1000
,
0010
0000
0100
1000
0001
0000
0001
0100
,
0000
1000
0010
0000
0010
1000
0011
0000
,
0001
0000
0101
0000
0110
0000
0010
0100
,
0001
0000
0001
1000
1001
0000
1010
0000
,
0010
0100
0011
0000
0001
0100
0001
0010
,
0000
0010
0100
0010
0000
1000
0000
1000
,
0010
1000
0001
0100
0001
0100
0010
0100
,
0010
1000
0010
1000
0000
2000
0000
0000
,
0000
3010
0100
0010
0100
0000
0001
0100
,
0000
0100
0001
0000
0010
1000
0010
0000
,
2000
0000
0000
0000
,
3001
1000
0001
1000
0001
0010
0000
0110
,
0000
0010
0001
1000
0001
0100
0000
0110
,
0000
0100
0010
1000
0010
1000
0001
0010
,
0001
0010
0001
1000
0010
1000
0011
0000
,
0110
0000
0000
0000
0100
0000
0010
0000
0001
0000
1000
0000
0001
0010
1000
0000
,
0001
0000
0100
0000
0010
1000
0100
0000
0010
0000
0100
0000
0001
0100
0010
0000
,
0001
0000
0010
0000
0001
0100
1000
0000
0010
0000
1000
0000
0010
0001
0100
0000
,
0010
0100
1001
0000
1001
0000
0200
0000
,
0301
0000
0010
1000
0010
0000
0001
0100
,
0000
0100
0001
0010
0000
0010
0000
0010
,
0001
0000
0001
0010
0001
0000
0010
0100
,
0000
0100
0000
1000
0001
0010
0001
0010
,
0001
1000
0100
1000
0010
1000
0010
0100
,
0001
0000
0001
0100
0010
1000
0010
1000
,
0100
0000
0100
0010
0100
0000
0001
0010
,
0000
1000
0100
0000
0100
0010
1100
0000
,
0001
0000
1001
0000
1001
0000
0010
1000
,
0010
0110
0002
0203
,
0301
0000
1010
0000
0010
0100
0010
0100
,
0000
0100
0001
0010
0000
0010
0100
0010
,
0100
1000
0100
1000
0001
0010
0001
0010
,
0001
0000
0100
0010
0100
2000
0000
0100
,
0000
3000
0100
0010
0001
0010
0001
0010
,
1000
0100
1000
0001
,
0001
1000
0001
1000
0001
0010
0100
0010
,
0100
0010
0001
1000
0010
1000
0010
1000
,
0100
0010
0100
0010
0100
1000
0010
1000
,
0010
1000
0001
0100
0001
1000
0010
1000
,
0010
1000
0100
0010
0100
0010
0100
1000
,
0010
0100
0010
0100
0010
1000
0001
0010
,
0100
0010
0001
0010
0001
1000
0001
1000
,
0100
1000
0100
0010
0100
0010
0001
0000
;
