#TITLE:Colors;
#SUBTITLE:~InPhase mix~;
#ARTIST:dj TAKA;
#TITLETRANSLIT:;
#SUBTITLETRANSLIT:;
#ARTISTTRANSLIT:;
#GENRE:;
#CREDIT:;
#MUSIC:Colors ~InPhase mix~.ogg;
#BANNER:Colors ~InPhase mix~-bn.png;
#BACKGROUND:Colors ~InPhase mix~-bg.png;
#CDTITLE:./CDTITLES/DANCE DANCE REVOLUTION/EXTREME 3.PNG;
#SAMPLESTART:76.409;
#SAMPLELENGTH:12.000;
#SELECTABLE:YES;
#OFFSET:-0.400;
#BPMS:0.000=149.983;
#STOPS:;
#BGCHANGES:;
#FGCHANGES:;

//--------------- dance-single - B. M'Rey ----------------
#NOTES:
     dance-single:
     B. M'Rey:
     Beginner:
     2:
     0,0,0,0,0:
0000
0000
0000
0000
,
0000
0000
0000
0000
,
0000
0000
0000
0000
,
0000
0000
0000
0000
,
0000
0000
0000
0000
,
0000
0000
0000
0000
,
0000
0000
0000
0000
,
0000
0000
0000
0100
,
0000
0000
0000
0001
,
0000
0000
0000
1000
,
0000
0000
0000
0010
,
0000
0000
0000
0100
,
0000
0100
0000
0001
,
0000
0001
0000
1000
,
1000
1000
1000
0010
,
0010
0010
0010
0100
,
0001
0000
1000
0000
,
0000
0000
0000
0010
,
0100
0000
0000
0001
,
0000
1000
0000
0010
,
0100
0000
0000
0000
0000
0001
0000
0000
,
0000
0000
0000
1000
,
0000
0010
0000
0100
,
0000
0001
0000
0001
,
0000
1000
0000
0000
0010
0000
0200
0000
,
0000
0000
0000
0300
,
0000
0000
0001
1000
,
0000
0010
0000
0000
0100
0000
0001
0000
,
0000
1000
0000
0000
0010
0000
0200
0000
,
0000
0300
0001
2002
,
0000
0000
0000
0000
,
3003
0010
0100
2000
,
0000
0000
3000
0020
,
0000
0031
0000
0200
,
0000
0000
0000
0000
,
0000
0300
0000
0002
,
0000
0000
1003
0010
,
0000
0100
0000
0002
,
0000
0000
0000
0003
,
0000
0000
1000
0200
,
0000
0000
0000
0300
0000
0000
0010
0000
,
0000
1000
0100
0002
,
0000
0000
0000
0000
,
0000
0000
0003
2000
,
0000
0000
0000
3002
,
0000
0000
0000
0023
,
0000
0000
0000
0030
,
0000
0000
1000
0001
,
0000
0010
0100
1000
,
0000
0001
0010
0001
,
0000
0100
0000
0010
,
0000
0000
0000
0000
,
1000
0001
0000
0010
,
0000
0000
0000
0100
0000
1000
0100
0000
,
0000
0001
0000
0020
,
0000
0030
0000
0000
1000
0000
0100
0000
,
0000
0001
0010
0001
,
0000
1000
0100
1000
,
0000
0010
0100
0001
,
0000
1000
0000
0010
,
0100
0001
0000
0010
,
0000
0000
0000
1000
0000
0001
0010
0000
,
0000
1000
0010
0200
,
0000
0302
0000
0023
,
0000
0000
0000
0030
,
0000
1000
0100
2000
,
0000
0000
0000
3000
,
0000
0001
0010
0002
,
0003
0000
0000
2000
,
0000
3010
0000
0100
0000
0001
0010
0000
,
0000
1000
0000
0010
,
0000
1000
0001
0020
,
0000
0000
0000
0100
,
0000
1000
0000
0130
,
0000
1000
0000
0001
,
0000
0001
0010
1000
,
0000
0200
0000
0000
0000
0000
0300
0000
,
0000
0001
0020
0000
,
0200
0000
0000
0000
,
0000
0000
0000
0000
,
0330
0000
0000
0000
;

//--------------- dance-single - B. M'Rey ----------------
#NOTES:
     dance-single:
     B. M'Rey:
     Easy:
     4:
     0,0,0,0,0:
0000
0000
0000
0000
,
0000
0000
0000
0000
,
0000
0000
0000
0000
,
0000
0000
0000
0000
,
0000
0000
0000
0000
,
0000
0000
0000
0000
,
0000
0000
0000
0000
,
0000
0000
0000
0100
,
0010
0100
1000
0001
,
0010
0100
0010
0100
,
1000
0100
1000
0001
,
0100
0010
0100
1001
,
1000
0010
1000
0110
,
0100
0001
1000
0001
,
1000
0010
1000
0020
,
0000
0200
0000
0331
,
1000
0000
0110
0000
,
0100
0010
1000
0100
,
1000
0000
1000
0001
,
0000
0010
0000
0100
0000
0000
0100
0000
,
1000
0000
0010
0001
,
0010
0100
0010
2000
,
0000
3100
0010
0001
,
1000
0001
0010
0100
,
0000
0010
0000
0000
1000
0000
0020
0000
,
0000
0000
0000
0130
,
0100
0001
0100
0001
,
0000
1000
0000
0000
0001
0000
0100
0000
,
0000
0001
0000
0000
1000
0000
0200
0000
,
0000
0300
1000
0002
,
0100
0000
0100
0000
,
0103
0001
0010
0001
,
0000
0100
0000
0020
,
0000
0130
1000
0200
,
0010
0000
0010
0000
,
0010
0000
0310
2000
,
0100
0000
3010
0200
,
0000
0001
0300
0010
,
1000
0010
0100
0001
,
0010
0100
0010
0200
,
0000
0300
1000
0200
,
0000
0310
0001
0200
,
1000
0000
1000
0000
,
1000
0000
1300
0020
,
1000
0100
1000
0032
,
0100
0010
0100
0023
,
0000
0000
0000
0130
,
0000
1000
0010
0002
,
0000
0013
1000
0200
,
0000
0301
0100
0002
,
0000
0103
1000
0010
,
0200
0000
0000
0300
,
1000
0100
0010
0001
,
0010
0100
1000
0200
,
0000
0301
1000
0020
,
0000
0130
1000
0200
,
0000
0301
0010
0200
,
0000
0301
1000
0002
,
0000
1003
0100
0010
,
0000
0100
0000
0001
,
1000
0100
0010
0100
,
1000
0001
0100
0002
,
0000
0103
0010
0200
,
0320
0032
2003
3002
,
0100
0100
0100
0103
,
1000
0100
0010
0200
,
1000
1000
1000
1300
,
1000
0100
0010
0002
,
0013
0100
1000
0020
,
1030
0100
1000
0200
,
0310
0100
0010
0001
,
0010
0001
0100
0020
,
0100
0100
0100
0001
,
0001
0100
0100
0032
,
0000
0203
0000
0320
,
0000
0130
1000
0010
,
0000
0200
0000
0000
0001
0000
0301
0000
,
0010
0100
2000
0000
,
0200
0000
0000
0000
,
0000
0000
0000
0000
,
3300
0000
0000
0000
;

//--------------- dance-single - B. M'Rey ----------------
#NOTES:
     dance-single:
     B. M'Rey:
     Medium:
     6:
     0,0,0,0,0:
0000
0000
0000
0000
,
0000
0000
0000
0000
,
0000
0000
0000
0000
,
0000
0000
0000
0000
,
0000
0000
0000
0000
,
0000
0000
0000
0000
,
0000
0000
0000
0000
,
0000
0000
0000
0001
,
1000
0001
0010
0001
,
0010
0100
0010
0100
,
1000
0001
1000
0001
,
1000
0100
0010
1001
,
0010
1000
0100
0001
0010
0000
0110
0000
,
1000
0001
1000
0001
1000
0001
1000
0000
,
1000
0100
0010
0200
,
0000
0000
0002
0000
0000
0303
0100
0000
,
0001
0000
0010
1000
0001
0000
0001
0000
,
0100
0001
0100
0001
,
0010
0000
0000
0100
0001
0200
0000
0000
,
1300
0020
0000
0130
0000
0010
0100
0000
,
0001
0000
0001
0100
0001
1000
0010
0000
,
1000
0001
0010
0200
,
0310
1000
0010
0000
0001
0100
0000
1000
,
0000
0010
0000
0100
0000
1000
0002
0000
,
0003
0010
0000
0000
0100
0000
0100
0000
,
1000
0001
0100
0001
,
0100
0000
0001
0000
1000
0010
0200
0000
,
0000
1300
0000
0000
0100
0000
0001
0000
,
0010
0100
0000
0000
0110
0000
0110
0000
,
1000
0000
0010
0000
0010
0100
0020
0000
,
0100
0001
0100
0001
,
0030
0001
0010
0100
1000
0100
0020
0000
,
0001
0031
0010
0020
,
0100
0000
0130
0010
0000
1000
0200
0000
,
0001
0010
0001
0010
,
0001
0310
0001
0001
,
0010
0100
0010
0000
0001
0000
0100
0000
,
0100
0000
1000
0000
0010
0000
0000
0001
0000
0000
0100
0000
0010
0000
0000
0000
,
0100
1000
0100
1000
,
0010
0000
0100
0000
0100
0010
0002
0000
,
0010
0013
0100
0002
,
0010
0000
0000
0000
0103
0000
0010
0000
0000
0001
0000
0000
0200
0000
0000
0000
,
0010
0001
0010
0001
,
0010
0301
0010
2000
,
0100
0000
0100
0000
3100
0010
0002
0000
,
0010
0010
0010
2003
,
0000
0000
0000
3100
,
0000
0000
0001
0000
0001
1000
0002
0000
,
0000
1003
0100
1000
0010
0200
0000
0000
,
0000
0310
0001
0010
0100
2000
0000
0000
,
0000
0000
3100
0000
0010
0000
0000
0100
0000
0000
0010
0000
0000
0000
0010
0000
,
0100
0001
0100
1000
,
0110
0000
0001
0010
0000
1000
0000
0010
,
0001
0000
0000
0000
0100
0000
0010
0000
0000
0001
0000
0000
0020
0000
0000
0000
,
0000
0000
0000
0000
1030
0000
0000
0001
0000
0000
0010
0000
0001
0000
0000
0000
,
0100
0010
0100
0000
0010
1000
0200
0000
,
0310
0100
0001
0010
0001
2000
0000
0000
,
3010
0100
0010
0100
0001
2000
0000
0000
,
0000
0000
3010
0000
0001
0000
0000
0010
0000
0000
1000
0000
0010
0000
0100
0000
,
0001
0000
0001
1000
0100
0000
0001
0000
,
0010
0000
0100
0010
0000
0100
0000
0010
,
0001
0000
0000
0000
0010
0000
0100
0000
0000
0001
0000
0000
0001
0000
0000
0000
,
0001
0000
0010
0000
0100
0000
0000
1000
0000
0000
0100
0000
0020
0000
0000
0000
,
0030
1000
0001
1000
0001
1000
0200
0000
,
0010
0001
0010
0301
,
0010
0000
0100
0000
0010
0000
0000
1000
0000
0000
0100
0000
0002
0000
0000
0000
,
0010
0100
0010
0103
,
0010
0000
1000
0000
0001
0000
0000
1000
0000
0000
0001
0000
0100
0000
0000
0000
,
0010
0000
0001
0000
1000
0100
0020
0000
,
1000
0000
2030
0000
3100
0010
0001
0000
,
0010
1000
0001
0000
0100
0000
0010
0000
,
1000
0000
0100
0000
0001
0000
0000
0010
0000
0000
1000
0000
0200
0000
0000
0000
,
0010
0001
0010
0302
,
1000
0000
0023
0000
0130
1000
0100
0000
,
1000
0001
0010
0001
,
0100
0000
0001
0000
0010
0000
0000
0100
0000
0000
1000
0000
0010
0000
0000
0000
,
0200
0001
0010
0001
,
0310
0000
0100
0001
0010
0200
0000
0000
,
2000
0000
0000
0000
,
0000
0000
0000
0000
,
3300
0000
0000
0000
;

//--------------- dance-single - B. M'Rey ----------------
#NOTES:
     dance-single:
     B. M'Rey:
     Hard:
     9:
     0,0,0,0,0:
0000
0000
0000
0000
,
0000
0000
0000
0000
,
0000
0000
0000
0000
,
0000
0000
0000
0000
,
0000
0000
0000
0000
,
0000
0000
0000
0000
,
0000
0000
0000
0000
,
0000
0000
0000
0010
,
0010
1000
0100
0010
0001
0100
0010
0000
,
0100
1000
0001
0010
0100
1000
0010
0000
,
0010
0100
0010
0100
0001
1000
0001
0000
,
0010
1000
0100
1000
0001
1000
0110
0000
,
0001
1000
0010
0100
0001
0100
0110
0000
,
0010
1000
0100
0010
0001
1000
0001
1000
,
0001
0100
0010
0100
0010
0100
0001
1000
,
0001
0100
0010
0100
0010
0000
0100
0000
,
0100
0000
0010
1000
0100
0000
0100
1000
,
0010
0000
0010
1000
0100
0000
0100
0010
,
0100
0000
0001
0100
0001
0020
0000
0000
,
0130
0020
0000
0130
0000
1000
0001
0000
,
0010
0000
0001
0010
0100
1000
0001
0000
,
0001
0100
0001
0000
0100
0010
0001
0000
,
0001
1000
0001
0000
0010
0100
0000
0001
,
0000
1000
0000
0100
0000
0010
0001
0000
,
0010
0100
0010
0000
0011
0000
0101
0000
,
0001
1000
0010
1000
0001
0100
0001
0000
,
0010
0100
0001
0000
0010
1000
0010
0000
,
0000
0100
0000
0000
1000
0010
0100
0000
,
0001
0200
0000
0000
0301
0000
0100
0000
,
0001
1000
0100
0000
0010
0100
0001
0100
,
0010
0100
0010
1000
0001
0100
0010
1000
,
0100
1000
0100
0010
0100
0010
0001
0000
,
0001
0010
0100
0000
0010
0100
0020
0000
,
0001
0000
0030
0000
0001
0000
1000
0000
0000
0100
0000
0000
0100
0000
0010
0000
,
0001
0100
0001
0100
0010
0100
0010
1000
,
0010
0100
0001
1000
0100
1000
0200
0000
,
0001
0000
0001
0300
0001
0100
0001
0000
,
0100
0000
0010
0000
0001
0000
0000
0001
0000
0000
1000
0000
0010
0000
1000
0000
,
0001
0100
0010
0100
0001
0100
0001
1000
,
0100
0010
0100
1000
0010
1000
0020
0000
,
0100
0000
0031
0000
0001
1000
0020
0000
,
1030
0000
0100
0000
0001
0000
0000
1000
0000
0000
0010
0000
0200
0000
0000
0000
,
0001
0010
0001
0010
,
0001
0000
0010
0000
0301
0000
0100
0010
,
0100
1000
0100
0010
0001
0100
0001
0010
,
0100
1000
0001
0010
0001
1000
0010
1000
,
0100
0010
0001
0100
0010
0100
0001
0010
,
1000
0000
0100
0000
0001
0010
0002
0000
,
1000
0103
0010
0100
0010
0200
0000
0000
,
0301
0010
0001
1000
0010
0200
0000
0000
,
0000
0000
1300
0000
0100
0000
0000
1000
0000
0000
0010
0000
0000
0000
0100
0000
,
0010
0000
0010
1000
0001
0000
0001
0000
,
0001
0010
0100
0010
0000
1000
0000
1000
,
0020
0000
0000
0000
0000
0000
0130
0000
0000
0010
0000
0000
0002
0000
0000
0000
,
0010
0000
1003
0000
0001
0000
0000
0010
0000
0000
0010
0000
0100
0000
0000
0000
,
0001
1000
0001
0000
0001
0100
0010
0100
,
0001
1000
0001
0100
0001
0100
0010
0100
,
0001
0010
0001
0010
0001
0100
0010
0100
,
0010
1000
0010
0100
0001
0100
0001
0100
,
0010
1000
0010
1000
0010
0100
0001
0100
,
0001
0100
0010
1000
0010
1000
0010
0100
,
0001
1000
0100
1000
0001
1000
0020
0000
,
0000
0000
0130
0000
0010
0000
0000
0001
0000
0000
1000
0000
0002
0000
0000
0000
,
0100
0000
0010
0000
0100
0000
0013
1000
,
0010
0100
0010
0100
0001
0100
0001
1000
,
0010
1000
0010
1000
0001
0100
0010
0100
,
0010
0100
0001
1000
0001
1000
0001
0010
,
0100
0010
0100
0010
0001
0100
0010
0100
,
0010
0100
0001
1000
0010
1000
0010
1000
,
0100
0010
0001
0010
0001
1000
0001
1000
,
0100
1000
0100
0010
0100
0010
0001
0010
,
0001
0000
0100
0000
0001
0000
0000
0010
0000
0000
0100
0000
0010
0000
1000
0000
,
0001
1000
0001
1000
0001
0100
0010
0100
,
0010
0100
0001
1000
0001
1000
0001
0010
,
0100
0010
0100
0010
0001
1000
0001
1000
,
0001
0100
0010
0100
0010
0100
0001
1000
,
0001
0100
0001
0100
0010
0100
0010
1000
,
0010
1000
0001
1000
0001
0020
0000
0000
,
0200
0000
0000
0000
,
0000
0000
0000
0000
,
0330
0000
0000
0000
;
