#VERSION:0.83;
#TITLE:CODE RED;
#ARTIST:RAM;
#GENRE:DRUM'N'BASS;
#MUSIC:CODE RED.ogg;
#BANNER:CODE RED-bn.png;
#BACKGROUND:CODE RED-bg.png;
#CDTITLE:./CDTITLES/beatmania 7thMIX -keepin' evolution-.PNG;
#SAMPLESTART:22.892;
#SAMPLELENGTH:15;
#OFFSET:-0.218;
#BPMS:0=172;

//--------------- dance-single - B. M'Rey ----------------
#NOTEDATA:;
#STEPSTYPE:dance-single;
#DESCRIPTION:B. M'Rey;
#DIFFICULTY:Beginner;
#METER:4;
#RADARVALUES:0,0,0,0,0;
#NOTES:
0000
0000
0000
0000
,
0000
0000
0000
0000
,
0000
0000
0000
0000
,
0000
0000
0000
0000
,
0000
0000
0000
0000
,
0000
0000
0000
0000
,
0000
0000
0000
0000
,
0000
0000
0000
0000
,
0000
1000
0000
1000
,
0000
0001
0000
0001
,
0000
0100
0000
0100
,
0000
0010
0000
0010
,
0000
1000
0000
1000
,
0000
0001
0000
0001
,
0000
0100
0000
0000
,
0000
0000
0000
0000
,
0000
0001
0000
1000
,
0000
0001
0000
1000
,
0000
0010
0000
0100
,
0000
0010
0000
0100
,
0000
0001
0000
1000
,
0000
0001
0000
1000
,
0000
0010
0000
0100
,
0000
0010
0000
0100
,
0000
0001
0010
0100
,
0000
0001
0010
0100
,
0000
1000
0100
0010
,
0000
1000
0100
0010
,
0000
0001
0010
0100
,
0000
0001
0010
0100
,
0000
1000
0000
0000
,
0000
0000
0000
0000
,
0000
0001
0010
0000
,
0000
1000
0100
0000
,
0000
0010
0100
0000
,
0000
0001
0010
0000
,
0000
1000
0100
0000
,
0000
0010
0100
0000
,
0000
0001
0010
0000
,
0000
1000
0100
0000
,
0000
0001
0000
1000
,
0000
0010
0100
0010
,
0000
0001
0000
1000
,
0000
0010
0100
0010
,
0000
0010
0000
0100
,
0000
0001
1000
0001
,
0000
0100
0000
0010
,
0000
0001
1000
0001
,
0000
1000
0000
0000
,
0000
0010
0000
0000
,
0000
0100
0000
0000
,
0000
0001
0000
0000
,
0000
1001
0000
0000
,
0000
0010
0000
0000
,
0000
0100
0000
0000
,
0000
1000
0000
0000
,
0000
0001
0000
0000
;

//--------------- dance-single - B. M'Rey ----------------
#NOTEDATA:;
#STEPSTYPE:dance-single;
#DESCRIPTION:B. M'Rey;
#DIFFICULTY:Easy;
#METER:6;
#RADARVALUES:0,0,0,0,0;
#NOTES:
0000
0000
0000
0000
,
0000
0000
0000
0000
,
0000
0000
0000
0000
,
0000
0000
0000
0000
,
0000
1000
0000
0000
,
0000
0000
0000
0000
,
0000
0010
0000
0000
,
0000
0000
0000
0000
,
0000
0001
0001
0001
,
0000
0100
0100
0100
,
0000
0010
0010
0010
,
0000
1000
1000
1000
,
0000
0001
0001
0001
,
0000
0100
0100
0100
,
0000
0010
0000
0000
,
0000
0000
1000
0000
0000
0000
0000
1000
,
0000
0001
1000
0001
,
0000
0001
1000
0001
,
0000
0010
0100
0010
,
0000
0100
0010
0100
,
0000
0001
0010
0001
,
0000
1000
0100
1000
,
0000
0001
0010
0001
,
0000
1000
0100
1000
,
0000
0001
0010
0001
,
0000
1000
0100
1000
,
0000
0010
0100
0010
,
0000
1000
0100
1000
,
0000
0001
0010
0001
,
0000
0100
0010
0100
,
0000
1001
0000
0000
,
0000
0000
0000
0000
,
0000
0010
0100
0010
,
0000
1000
0100
1000
,
0000
0001
0010
0001
,
0000
0100
0010
0100
,
0000
0001
0010
0001
,
0000
1000
0100
1000
,
0000
0010
0100
0010
,
0000
0001
0010
0001
,
0000
1000
0100
1000
,
0100
1000
0100
1000
,
0100
0001
0010
0001
,
0010
0001
0010
0001
,
0010
0001
1000
0001
,
1000
0001
1000
0001
,
1000
0010
0100
0010
,
0100
0010
0100
0010
,
0100
0001
0100
0001
,
0000
1000
0010
1000
,
0000
0010
0100
0010
,
0000
0001
0010
0001
,
0000
1000
0100
1000
,
0000
0010
0100
0010
,
0000
0001
1000
0001
,
0000
0010
0000
0000
,
0000
0100
0000
0000
;

//--------------- dance-single - B. M'Rey ----------------
#NOTEDATA:;
#STEPSTYPE:dance-single;
#DESCRIPTION:B. M'Rey;
#DIFFICULTY:Medium;
#METER:9;
#RADARVALUES:0,0,0,0,0;
#NOTES:
0000
0000
0000
0000
,
0000
0000
0000
0000
,
0000
0000
0000
0000
,
0000
0000
0000
0000
,
0000
1000
0000
0000
,
0000
0000
0000
0000
,
0000
0010
0000
0000
,
0000
0000
0000
0000
,
0000
0001
0100
0010
,
0100
0001
0010
0100
,
1000
0100
1000
0010
,
1000
0100
0010
0100
,
1000
0001
0010
0100
,
0010
0001
0100
0010
,
1000
0100
0000
0001
,
0000
0010
0000
0100
,
0010
0000
0001
0010
0100
0000
0010
0000
,
0100
0000
0001
0100
1000
0000
0001
0000
,
1000
0000
0010
0001
0100
0000
0001
0000
,
0010
0000
0100
1000
0010
0000
0100
0000
,
0010
0000
0001
1000
0100
0000
0001
0000
,
0010
0000
0001
1000
0010
0000
0100
0000
,
0010
0000
0100
0001
1000
0000
0100
0000
,
1000
0000
0001
0010
0100
0000
0001
0000
,
0100
0010
1000
0100
,
1000
0010
1000
0100
,
0010
0100
0010
0100
,
1000
0010
1000
0001
,
1000
0001
0010
0100
,
0010
0001
0100
0001
,
1000
0020
0000
0230
,
0000
0320
0100
0000
,
0130
0000
0001
1000
0100
0000
0001
0000
,
0010
0000
0001
1000
0100
0000
0010
0000
,
0100
0000
0010
0001
0100
0000
0001
0000
,
0010
0000
0100
0010
1000
0000
0010
0000
,
1000
0000
0010
1000
0100
0000
0010
0000
,
0100
0000
0001
1000
0010
0000
0100
0000
,
0010
0000
0001
0010
0100
0000
0001
0000
,
0100
0000
0001
1000
0010
0000
0100
0000
,
0010
0001
1000
0010
,
1000
0001
0100
0010
,
1000
0010
1000
0010
,
0100
0001
1000
0100
,
1000
0100
0010
0100
,
0010
0001
1000
0010
,
1000
0001
0100
0001
,
0010
0100
0010
0001
,
1000
0000
0010
0100
1000
0000
0100
0000
,
0000
0000
0001
1000
0010
0000
0100
0000
,
0000
0000
0001
1000
0010
0000
0100
0000
,
0000
0000
0001
1000
0100
0000
0010
0000
,
0000
0000
0001
1000
0001
0000
0001
0000
,
0000
0000
0010
0100
1000
0000
0001
0000
,
0000
0000
0001
0010
0100
0000
0100
0000
,
0000
0001
0000
0010
,
0000
1001
0000
0000
;

//--------------- dance-single - B. M'Rey ----------------
#NOTEDATA:;
#STEPSTYPE:dance-single;
#DESCRIPTION:B. M'Rey;
#DIFFICULTY:Hard;
#METER:12;
#RADARVALUES:0,0,0,0,0;
#NOTES:
0000
0000
0000
0000
,
0000
0000
0000
0000
,
0000
0000
0000
0000
,
0000
0000
0000
0000
,
0000
0001
1000
0100
,
1100
0100
1000
0001
,
0011
0001
0010
0001
,
1100
0100
1000
0100
,
1001
0000
0001
1000
0001
0000
0001
0000
,
0110
0000
0100
0010
0001
0000
0001
0000
,
0110
0000
0100
0010
0100
0000
0001
0000
,
1001
0000
0001
0100
0010
0000
0010
0000
,
1001
0000
0001
1000
0001
0000
0001
0000
,
0110
0000
0010
1000
0001
0000
0001
0000
,
0011
0002
0000
2003
,
0000
0000
0000
0000
3001
0100
0001
0000
,
0001
0100
0010
0100
0010
1000
0000
0010
,
0000
0010
0001
0010
0100
0010
0000
1000
,
0100
1000
0010
1000
0000
0010
0000
1000
,
0100
1000
0100
1000
0000
0100
0000
0100
,
0010
1000
0100
1000
0100
1000
0000
0100
,
0000
0100
0010
1000
0001
1000
0000
1000
,
0100
0010
0100
0010
0001
0010
0000
1000
,
0000
1000
0010
1000
0010
0100
0000
0100
,
0001
0100
0001
1000
0001
1000
0001
1000
,
0100
1000
0100
0010
0100
1000
0100
0010
,
0001
0010
0001
0010
0100
0010
0100
1000
,
0100
1000
0100
1000
0001
1000
0100
0010
,
0100
0010
0100
0010
0100
1000
0010
1000
,
0100
0010
0100
0010
0100
0010
0100
1000
,
0001
1000
0001
0000
1000
0000
0001
0000
,
1000
0000
0010
0000
0100
0010
0001
0000
,
0001
1000
0010
1000
0010
0100
0000
0010
,
0000
0100
0010
1000
0001
1000
0000
0010
,
0000
0100
0010
0100
0001
0100
0000
1000
,
0000
0001
0010
1000
0100
0010
0000
0010
,
0001
1000
0001
1000
0001
0100
0000
1000
,
0000
1000
0010
0100
0001
0100
0000
0100
,
0010
1000
0001
1000
0010
1000
0000
0100
,
0000
0100
0001
0100
0010
1000
0000
1000
,
0010
0100
0010
0001
1000
0001
1000
0001
,
0010
0001
0100
0010
0100
0010
0100
0010
,
0100
0001
1000
0010
1000
0010
1000
0100
,
1000
0100
0010
0100
1000
0100
1000
0001
,
1000
0001
1000
0001
0100
0001
0100
0010
,
1000
0010
1000
0010
1000
0010
0100
0001
,
0010
0001
0010
0100
0010
0100
0010
0100
,
1000
0100
0010
0001
1000
0001
0010
0001
,
0010
0001
0010
1000
0000
1000
0000
0000
,
0001
0000
0010
0000
0100
0000
0000
0100
0000
0000
0010
0000
0000
0000
0000
0000
,
0100
1000
0100
0000
0010
0100
0000
0100
,
0000
0000
0100
0000
0001
0000
0000
1000
0000
0000
0100
0000
0000
0000
0000
0000
,
0000
0010
0001
0010
0000
1000
0000
0000
,
0000
0000
1000
0000
0100
0000
0000
0010
0000
0000
0100
0000
0000
0000
1000
0000
,
0000
0000
1000
0000
0010
0000
0000
1000
0000
0000
0010
0000
0000
0000
0010
0000
,
0100
0000
0000
0000
0010
0000
0000
1000
0000
0000
0100
0000
0000
0000
0000
0000
,
0001
0010
0011
0000
0000
0000
0000
0000
;
