#VERSION:0.83;
#TITLE:CIELO LIQUIDO;
#ARTIST:FEY;
#GENRE:POP;
#MUSIC:Cielo Liquido.ogg;
#BANNER:Cielo liquido.png;
#BACKGROUND:Cielo liquido-bg.png;
#CDTITLE:./CDTITLES/LICENSED MUSIC.PNG;
#SAMPLESTART:59.884;
#SAMPLELENGTH:15;
#OFFSET:-0.021;
#BPMS:0=129.948;

//--------------- dance-single - B. M'Rey ----------------
#NOTEDATA:;
#STEPSTYPE:dance-single;
#DESCRIPTION:B. M'Rey;
#DIFFICULTY:Beginner;
#METER:2;
#RADARVALUES:0,0,0,0,0;
#NOTES:
0000
0000
0000
0000
,
0000
0000
0000
0000
,
0000
0000
0000
0000
,
0000
0000
0000
0000
,
0000
0000
1000
0000
,
0000
0000
0001
0000
,
0000
0000
0100
0000
,
0000
0000
0010
0000
,
0010
0000
0100
0000
,
0001
0000
1000
0000
,
0010
0000
0100
0000
,
0001
0000
1000
0000
,
0000
1001
0001
0000
,
0010
0000
0001
0000
,
0100
0010
1000
0000
,
0010
0100
0000
0002
,
0000
0000
0103
0000
,
1000
0000
0010
0000
,
0100
0000
0001
0000
,
0000
0000
0010
0000
,
0000
0000
1000
0000
,
0001
0000
0010
0000
,
0001
0000
0100
0010
,
0100
0000
1000
0000
,
0000
0000
0001
0000
,
0010
0000
0001
0000
,
0100
0000
0010
0000
,
0000
0000
0001
0000
,
0000
0000
1000
0000
,
0010
0000
0100
0000
,
0000
0001
0010
0000
,
1000
0000
0000
0001
,
0010
0001
0001
0000
,
1000
0000
0000
0000
,
0010
0000
0100
0000
,
0001
0000
1000
0000
,
0000
0000
0010
0000
,
0100
0000
0010
0000
,
0001
0000
1000
0000
,
0010
0000
0100
0000
,
0010
0000
0001
0000
,
1000
0000
0100
0000
,
0010
1000
0100
0000
,
0001
0000
1000
0000
,
0010
0000
0100
0001
,
0010
0000
1000
0000
,
0010
0100
0001
0000
,
0000
1000
0000
0000
,
0000
0000
0010
0000
,
0100
0000
0001
0000
,
0010
0000
1000
0000
,
0010
0000
0100
0000
,
0001
0000
0000
0000
;

//--------------- dance-single - B. M'Rey ----------------
#NOTEDATA:;
#STEPSTYPE:dance-single;
#DESCRIPTION:B. M'Rey;
#DIFFICULTY:Easy;
#METER:5;
#RADARVALUES:0,0,0,0,0;
#NOTES:
0000
0000
0000
0000
,
0000
0000
0000
0000
,
0000
0000
0000
0000
,
0000
0000
0000
0000
,
0000
0000
0001
0100
,
0010
0100
0001
1000
,
0100
1000
0100
1000
,
0001
0010
0100
0000
,
0100
0000
0010
1000
,
0001
0000
0100
0010
,
0100
0000
0100
1000
,
0010
0000
0001
0000
,
0001
0100
0010
0100
,
0010
1000
0010
0000
,
0001
1000
0010
0000
,
0010
0100
0000
2000
,
0000
0000
3001
1000
,
0100
1000
0001
1000
,
0100
0010
0001
0000
,
0100
1000
0200
0000
,
0000
0000
0301
1000
,
0001
1000
0001
0000
,
0010
1000
0010
1000
,
0100
1000
0010
0200
,
0000
0000
0310
1000
,
0001
1000
0000
0100
,
0010
0100
0010
0000
,
0001
0010
0200
0000
,
0000
0000
0310
0100
,
0001
0100
0010
0000
,
0000
1000
0010
0100
,
0001
0100
0001
0100
,
0010
1000
0001
0010
,
0001
1000
0100
0000
,
0100
1000
0010
1000
,
0010
0100
0001
0000
,
0100
0000
0001
0100
,
0010
0100
0001
0000
,
0010
1000
0001
0010
,
0001
0010
0001
0100
,
0010
0000
0001
0100
,
0001
0010
0000
1000
,
0010
0100
0001
1000
,
0001
1000
0001
0000
,
0100
0000
0001
1000
,
0100
1000
0000
0100
,
0001
0010
0002
0000
,
0000
0203
0000
0000
,
0310
0100
0001
0010
,
0100
1000
0001
1000
,
0001
0010
0100
1000
,
0010
1000
0010
1000
,
0200
0000
0000
0000
,
0000
0000
0000
0000
,
0300
0000
0000
0000
;

//--------------- dance-single - B. M'Rey ----------------
#NOTEDATA:;
#STEPSTYPE:dance-single;
#DESCRIPTION:B. M'Rey;
#DIFFICULTY:Medium;
#METER:7;
#RADARVALUES:0,0,0,0,0;
#NOTES:
0000
0000
0000
0000
,
0000
0000
0000
0000
,
0000
0000
0000
0000
,
0000
0000
0000
0000
,
0000
0000
0010
1000
,
0010
0100
0010
0100
,
0001
0100
0001
0010
,
0001
0000
1000
0000
0010
0001
1000
0000
,
0010
1000
0100
0000
0010
0000
0100
0010
,
0001
0000
0100
0000
0010
0000
1000
0100
,
0001
0000
1000
0000
0100
0000
1000
0001
,
0100
0010
0110
0010
,
0001
0000
0011
0000
0001
0010
0100
0000
,
0010
0100
1000
0000
0100
0000
0010
0000
,
0100
0001
1000
0000
0100
0000
0010
0000
,
0001
1000
0010
0000
0001
0000
0010
0000
,
0100
0010
1000
0000
0001
0000
1000
0000
,
0100
0001
1000
0000
0100
0000
0010
0001
,
0100
0000
0010
1000
0001
0000
0100
0000
,
0010
0001
1000
0000
0100
0000
0010
0000
,
0100
0010
0001
0100
,
0010
1000
0100
0000
0001
0000
1000
0000
,
0010
0001
0100
0000
0010
0000
1000
0000
,
0001
0010
1000
0000
0010
0000
0100
0000
,
0010
1000
0001
0010
,
0100
0010
1000
0000
0001
0000
0100
0001
,
0010
0000
0100
1000
0010
0000
0100
0000
,
0001
1000
0010
0000
0100
0000
0010
0000
,
0001
0010
0100
1000
,
0100
0010
0000
0100
0000
0000
1000
0000
,
0010
0000
0100
1000
0001
0000
0010
0000
,
0001
0100
0000
0020
0000
0000
1030
0000
,
0100
1000
0100
1000
,
0001
0010
0000
0100
0000
0000
0010
0000
,
0001
1000
0100
0000
0001
0000
1000
0100
,
0000
0010
0000
0100
0000
0000
1000
0000
,
0001
0010
0001
0100
,
0001
0010
0000
1100
0000
0000
1000
0000
,
0001
1000
0010
0000
0100
0000
0010
1000
,
0000
0001
0000
0010
0000
0001
0000
0100
,
0000
0001
0000
0000
0100
0000
1000
0000
,
0001
0100
0000
0110
0000
0000
1000
0100
,
0001
0000
0010
0000
0001
0000
1000
0010
,
0001
0100
0010
0100
,
0001
1000
0100
0000
0010
0000
1000
0000
,
0001
0010
0000
0100
0000
0000
0100
0010
,
0001
1000
0100
0010
,
0100
1000
0001
0010
,
0100
0000
0010
0000
0100
0001
0010
0000
,
0001
0000
1000
0000
0001
0010
0100
0000
,
0010
0000
0100
0000
0001
0100
1000
0000
,
0100
0000
1000
0000
0001
0010
0100
0000
,
0020
0000
0000
0000
,
0000
0000
0000
0000
,
0030
0000
0000
0000
;

//--------------- dance-single - B. M'Rey ----------------
#NOTEDATA:;
#STEPSTYPE:dance-single;
#DESCRIPTION:B. M'Rey;
#DIFFICULTY:Hard;
#METER:10;
#RADARVALUES:0,0,0,0,0;
#NOTES:
0000
0000
0000
0000
,
0000
0000
0000
0000
,
0000
0000
0000
0000
,
0000
0000
0000
0000
,
0000
0000
0000
0000
0000
0000
0000
0000
0100
0000
1000
0000
0010
0000
0000
1000
,
0000
0000
1000
0000
0000
0000
0100
0000
0010
0000
0100
0000
0001
0000
0000
0010
,
0000
0000
0100
0000
0000
0000
1000
0000
0010
0000
0100
0000
0010
0000
0000
0100
,
0000
1000
0000
0001
0010
0100
0010
0100
,
1000
0000
0010
0000
0001
0000
0100
0000
0001
0000
0010
0000
0000
0100
0000
0001
,
0000
0000
0010
0000
0000
0000
0001
0000
0010
0000
0100
0000
0000
0001
0000
0100
,
0000
0000
0010
0000
0000
0000
1000
0000
0100
0000
0010
0000
0000
0001
0000
0100
,
0000
1000
0000
0100
0001
0010
0100
0000
,
0010
0000
1000
0000
0110
0000
0000
0000
0001
0000
0100
0001
0010
0000
0100
0000
,
0001
0010
0100
0010
0001
1000
0100
0000
,
0001
0010
0001
0010
0001
0100
0010
0000
,
0001
0010
0100
1000
0001
0000
0001
0010
,
0100
0000
0100
1000
0100
0000
0010
0000
,
0001
0010
0000
1100
0000
0010
0100
1000
,
0000
0010
0001
0100
0000
0010
0100
0000
,
0001
0100
0010
0100
0000
1000
0001
0000
,
0100
1000
0001
0100
0010
0100
0010
0100
,
0001
1000
0100
1000
0010
0000
0001
0000
,
0001
1000
0100
1000
1010
0000
0101
0000
,
0001
0100
0011
0000
1100
0000
0100
1000
,
0100
0010
0001
1000
0100
0000
0010
0000
,
0100
1000
0000
0010
0000
0100
0010
1000
,
0000
0100
0010
0100
0000
0100
0001
0000
,
0001
1000
0010
0100
0000
1000
0100
0000
,
0100
0010
0001
0100
0001
0000
0100
0000
,
0010
0100
0000
0110
0000
0010
0001
0000
,
0001
0010
0001
1000
0100
0000
0100
0000
,
0100
1000
0000
0100
0010
0100
0001
0100
,
0001
0010
0001
0000
1100
0000
1001
0000
,
0010
0100
0000
1010
0000
0100
0001
0000
,
0001
0010
0100
0000
1100
0000
0010
1000
,
0000
0110
0000
1000
0100
1000
0010
0000
,
0100
0010
0100
0010
1100
0000
0110
0000
,
0010
0100
0000
1001
0000
0010
0001
0000
,
0001
1000
0100
0000
0010
0000
0001
0100
,
0000
0010
0000
1000
0000
0100
0000
0010
,
0000
0100
0010
1000
0101
0000
0110
0000
,
0010
0100
0000
0011
0000
0100
0001
0000
,
0100
1000
0001
0000
0001
0000
0010
0100
,
0000
1000
0000
0100
0000
0100
0001
0000
,
0001
0100
0001
0000
1100
0000
0110
0000
,
0010
0100
0000
0101
0000
1000
0100
0000
,
0100
1000
0001
0000
0010
1000
0100
1000
,
0010
0100
0010
0100
0010
1000
0001
0100
,
0010
0000
1000
0000
0011
0000
0000
0000
0100
0000
0010
0000
0000
0100
0000
0001
,
0000
0000
1000
0000
0000
0000
0100
0000
0001
0000
0010
0000
0000
0001
0000
0100
,
0000
0000
1000
0000
0000
0000
0100
0000
0001
0000
0010
0000
0000
0001
0000
0100
,
0000
0010
0000
0100
0001
1000
0000
0010
,
0001
0000
0010
0000
0000
0000
0000
1000
0000
0000
0200
0000
0000
0000
0000
0301
,
0000
0000
0020
0000
0000
0000
0000
0130
0000
0000
0020
0000
0000
0000
0000
0000
,
0030
0000
0000
0000
;
