#VERSION:0.83;
#TITLE:CHIQUITITA (VENTURA MIX);
#ARTIST:E-ROTIC;
#GENRE:EUROBEAT;
#MUSIC:CHIQUITITA (VENTURA MIX).ogg;
#BANNER:CHIQUITITA (VENTURA MIX)-bn.png;
#BACKGROUND:CHIQUITITA (VENTURA MIX)-bg.png;
#CDTITLE:./CDTITLES/DANCEMANIA HAPPY PARADISE 2.PNG;
#SAMPLESTART:64.835;
#SAMPLELENGTH:15;
#OFFSET:-0.235;
#BPMS:0=150;

//--------------- dance-single - B. M'Rey ----------------
#NOTEDATA:;
#STEPSTYPE:dance-single;
#DESCRIPTION:B. M'Rey;
#DIFFICULTY:Beginner;
#METER:2;
#RADARVALUES:0,0,0,0,0;
#NOTES:
0000
0000
0000
0000
,
0000
0000
0000
0000
,
0000
0000
0000
0000
,
0000
0000
0000
0000
,
0000
0000
0000
0000
,
1000
0000
0001
0000
,
0100
0000
0000
0000
,
0010
0000
1000
0000
,
0100
0000
0001
0000
,
0001
0000
0100
0000
,
0010
0000
1000
0000
,
1000
0000
0001
0000
,
0001
0000
0100
0000
,
0100
0000
0010
0000
,
0010
0000
1000
0000
,
1000
0000
0000
0000
,
0001
0000
0010
0000
,
0001
0000
0100
0000
,
0010
0000
1000
0000
,
0100
0000
1000
0000
,
0001
0000
0010
0000
,
0001
0000
0100
0000
,
0010
0000
1000
0000
,
0100
0000
1000
0000
,
0100
0000
1000
0001
,
0010
0000
0001
0000
,
0010
0000
0001
0100
,
1000
0000
0010
0000
,
0100
0000
0010
0000
,
1000
0000
0001
0000
,
0010
0000
0001
0100
,
1000
0000
0010
0000
,
0100
0000
0001
0010
,
1000
0000
0100
0000
,
1000
0000
0010
0100
,
1000
0000
0001
0000
,
0010
0000
0001
0000
,
0100
0000
0010
0000
,
1000
0000
0001
0000
,
0010
0000
0001
0000
,
0010
0000
1000
1000
,
1000
0000
0000
0000
,
0000
0000
0010
0000
,
0100
0001
0001
0001
,
0000
0000
0000
0100
,
0000
0010
0000
1000
,
0000
0100
0000
0001
,
0000
0010
0000
0001
,
0000
0000
0000
0100
,
0100
0100
0000
0000
,
0000
0000
0000
0010
,
0000
0001
1000
1000
,
1000
0000
0000
0000
,
0010
0000
0100
0000
,
0001
0000
0010
0000
,
0001
0000
1000
0001
,
1000
0000
0010
0000
,
0100
0000
0001
0000
,
0010
0000
0001
0000
,
1000
0000
0001
1000
,
0001
0000
1000
0000
,
0001
0000
1000
0000
;

//--------------- dance-single - B. M'Rey ----------------
#NOTEDATA:;
#STEPSTYPE:dance-single;
#DESCRIPTION:B. M'Rey;
#DIFFICULTY:Easy;
#METER:6;
#RADARVALUES:0,0,0,0,0;
#NOTES:
0000
0000
0000
0000
,
0000
0000
0000
0000
,
0000
0000
0000
0000
,
0000
0000
0000
0000
,
0000
0000
0000
0000
,
0001
1000
0001
0000
,
0001
0010
0100
0000
,
0100
0010
0001
0000
,
0100
1000
0100
1000
,
0001
0100
0001
0100
,
0001
1000
0010
1000
,
0010
1000
0100
0010
,
0100
0010
0001
0010
,
0001
1000
0001
1000
,
0100
1000
0100
0010
,
0100
0010
0001
0010
,
0001
1000
0001
1000
,
0100
1000
0010
0100
,
0010
0100
0010
1000
,
0100
1000
0100
1000
,
0001
0010
0100
0010
,
0001
0010
0001
1000
,
0001
1000
0100
1000
,
0100
0010
0100
0010
,
0001
0010
0001
1000
,
0001
1000
0010
1000
,
0010
0100
0010
0100
,
0001
1000
0001
1000
,
0001
0100
0010
0100
,
0010
0100
0001
1000
,
0001
1000
0001
0010
,
0100
1000
0100
1000
,
0100
0010
0001
0100
,
0001
0010
0001
1000
,
0100
1000
0100
1000
,
0001
0010
0001
0010
,
0001
1000
0010
1000
,
0001
1000
0010
0100
,
0010
0100
0010
1000
,
0001
0100
0010
0100
,
0010
0100
0001
1000
,
0002
0000
0000
0000
,
0003
0010
0100
0010
,
0001
1000
0002
0000
,
0003
0000
0100
0010
,
0001
0010
0000
1000
,
0000
1000
0000
1000
,
0001
0010
0100
0010
,
0000
0010
0000
0100
,
0001
2000
0000
0000
,
0000
3000
0100
1000
,
0100
0010
0001
0010
,
0002
0000
0003
1000
,
0010
1000
0010
0000
,
0010
0000
0001
0000
,
0001
0010
0001
0010
,
0100
0010
0100
1000
,
0001
0010
0001
0100
,
0001
0100
0010
0000
,
0001
0000
0001
1000
,
0001
0100
0010
0100
,
0010
0001
0000
0000
;

//--------------- dance-single - B. M'Rey ----------------
#NOTEDATA:;
#STEPSTYPE:dance-single;
#DESCRIPTION:B. M'Rey;
#DIFFICULTY:Medium;
#METER:10;
#RADARVALUES:0,0,0,0,0;
#NOTES:
0000
0000
0000
0000
,
0000
0000
0000
0000
,
0000
0000
0000
0000
,
0000
0000
0000
0000
,
0000
0000
0000
0000
,
0001
1000
0001
1000
0001
0000
0010
0100
,
0000
0100
0001
1000
0001
1000
0000
0100
,
0010
0000
0001
0100
0001
0000
0001
0100
,
0000
0100
0010
0000
0010
1000
0100
1000
,
0010
0000
0001
0100
0001
0000
0010
1000
,
0010
0000
0001
1000
0001
0000
0001
0000
,
0100
0010
0100
1000
0100
0000
0010
1000
,
0100
0000
0100
0010
0100
0000
0010
1000
,
0010
0000
0001
0010
0001
0000
0010
0100
,
0010
0000
0010
1000
0001
0000
0001
0000
,
0001
0100
0010
0100
0010
0000
0010
1000
,
0001
0000
0001
0010
0001
0010
0100
0010
,
0100
0000
0100
1000
0001
0000
0001
0100
,
0001
0000
0010
0100
0010
0000
0010
0000
,
0001
1000
0001
0100
0001
0000
0010
0100
,
0010
0000
0010
1000
0100
0000
0100
0010
,
0100
0000
0010
1000
0001
0000
0001
0010
,
0001
0000
0100
0010
0100
0000
0010
0000
,
0010
0000
0001
0100
0001
0000
0001
1000
,
0010
0000
0001
1000
0001
0010
0001
0010
,
0100
0000
0100
1000
0100
0000
0001
0000
,
0001
0100
0001
0100
0010
0000
0010
0000
,
0010
1000
0001
1000
0010
0000
0010
0100
,
0010
0000
0001
0100
0001
0000
0001
0010
,
0100
0000
0100
0010
0001
0000
0001
0100
,
0001
0010
0010
0001
,
0001
0100
0001
1000
0010
0000
0010
0100
,
0010
1000
0100
1000
0100
1000
0010
0100
,
0010
0000
0010
1000
0001
0000
0001
0000
,
0100
0000
0100
0010
0100
0000
0001
0000
,
0001
0100
0001
1000
0010
0000
0010
1000
,
0100
0000
0100
0010
0001
0000
0001
1000
,
0001
0000
0010
1000
0010
0000
0010
0000
,
1001
0000
0001
1000
0010
0100
0001
0100
,
0001
0100
0010
1000
0000
1000
0010
0000
,
0001
0000
0001
0100
0010
1000
0010
1000
,
0001
1000
0001
0010
,
0001
0000
0100
0010
0100
0010
0100
1000
,
0001
1000
0001
1000
0100
0010
0001
0000
,
1000
0000
0001
0000
1000
1000
0010
0100
,
0010
0100
0010
0000
0001
1000
0001
0000
,
0001
0010
0100
0000
0010
1000
0100
0000
,
0100
0000
0100
0010
0001
0010
0001
0000
,
0001
1000
0010
0000
0010
0100
0010
0100
,
0001
0100
0001
0000
0100
0000
0001
0000
,
0100
0000
0001
0000
1000
0100
0001
0010
,
0100
0010
0100
0010
0001
0100
0001
0100
,
0001
0000
0100
1000
0100
0000
0100
0010
,
0001
1000
0001
0100
0001
0000
0010
1000
,
0001
0000
0001
1000
0100
0000
0001
0010
,
0001
0000
0100
0000
0100
1000
0010
0000
,
0010
0000
0001
0100
0001
0100
0010
1000
,
0010
0000
0010
0000
0001
0000
0010
1000
,
0100
0000
0100
1000
0001
0000
0001
0100
,
0001
0000
0100
0000
0100
0010
0001
1000
,
0001
1000
0001
0010
0100
0010
0100
0000
,
0001
0100
0001
1000
0000
0000
0000
0000
;

//--------------- dance-single - B. M'Rey ----------------
#NOTEDATA:;
#STEPSTYPE:dance-single;
#DESCRIPTION:B. M'Rey;
#DIFFICULTY:Hard;
#METER:14;
#RADARVALUES:0,0,0,0,0;
#NOTES:
0000
0000
0000
0000
,
0000
0000
0000
0000
,
0000
0000
0000
0000
,
0000
0000
0000
0000
,
0000
0000
0000
0000
,
0001
0000
1000
0000
0100
1000
0100
1000
0100
0000
1000
0000
0010
0000
0100
0000
,
0010
0100
0010
1000
0100
1000
0100
1000
,
0001
0000
0100
0000
0001
0100
0001
0100
0001
0000
1000
0000
0100
0000
0010
0000
,
0100
0000
0010
0000
0001
0000
0100
0000
0001
0000
1000
0000
0001
1000
0001
0000
,
0100
0000
1000
0000
0100
0000
0010
0000
0100
0000
0010
0000
0001
0000
1000
0001
,
1000
1000
0001
0100
0010
0100
0010
0100
,
0001
0010
0001
0010
0100
0010
0001
1000
,
0001
1000
0001
0100
0010
0100
0010
0100
,
0001
1000
0100
1000
0001
1000
0001
0010
,
0001
0010
0100
0010
0100
1000
0100
1000
,
0001
0010
0001
0010
0001
0100
0010
0100
,
0010
0000
0100
0000
0001
0000
1000
0001
1000
0000
1000
0000
0001
0100
0001
0000
,
0010
0000
1000
0000
0010
0000
1000
0000
0010
0000
0100
0000
0001
0000
0100
0001
,
0100
1000
0100
1000
0100
0010
0001
0010
,
0001
0010
0100
1000
0100
1000
0100
0010
,
0001
0010
0001
1000
0001
1000
0100
1000
,
0100
0010
0100
0010
0001
0010
0001
1000
,
0001
0000
1000
0000
0100
0000
1000
0100
1000
0000
0010
0000
0100
0000
0010
0000
,
0001
1000
0010
1000
0010
1000
0001
0010
,
0001
0000
0010
0000
0001
0000
1000
0100
1000
0000
1000
0000
0100
1000
0100
0000
,
0001
0000
0100
0000
0001
0100
0001
0000
0001
0000
1000
0000
0100
1000
0100
0000
,
0100
1000
0010
0100
0001
1000
0010
0100
,
0010
0000
0100
0000
0001
0000
0100
0000
0010
0000
1000
0000
0010
1000
0010
0000
,
0010
0000
0100
0000
0001
0100
0001
0000
0001
0000
0100
0000
0010
1000
0010
0000
,
0010
1000
0010
0100
0001
1000
0001
1000
,
0001
0000
0100
0010
0100
0000
0100
0000
0010
0000
0100
0000
0001
0000
0010
0000
,
0001
0010
0001
0100
0010
0100
0010
0100
,
0001
0000
1000
0000
0001
0000
1000
0001
1000
0000
0100
0000
0010
0100
0010
0000
,
0010
0000
0100
0000
1000
0100
1000
0000
0001
0000
1000
0100
1000
0000
1000
0000
,
0001
0010
0001
0010
0001
1000
0100
1000
,
0100
0000
1000
0000
0001
0010
0001
0000
0001
0000
0010
0000
0001
0010
0001
0000
,
0100
0000
1000
0000
0001
0010
1000
0000
0001
0000
0010
0001
0010
0000
0100
0000
,
0010
0100
0010
1000
0010
1000
0001
1000
,
0001
0010
0001
0000
0001
0000
0010
0000
0100
0000
0010
0000
0100
0000
1000
0000
,
0100
0010
0001
1000
0001
1000
0001
0010
,
0100
0000
0010
0000
0100
0000
0010
0001
0010
0000
1000
0000
0001
0010
0001
0000
,
0001
0000
0010
0000
0100
0000
1000
0000
0100
0000
1000
0000
0100
0000
0010
0001
,
0010
0000
1000
0000
0001
0000
1000
0001
1000
0000
0100
0000
0010
0000
0100
0000
,
0010
0100
0001
1000
0001
1000
0001
0100
,
0010
0000
1000
0000
0010
0000
0100
0000
0010
0000
0100
0001
0100
0000
0100
0000
,
0001
0010
0001
0000
0001
0000
1000
0000
0100
0000
1000
0100
1000
0000
1000
0000
,
0001
0000
0010
0001
0010
0000
0010
0000
0001
0000
1000
0000
0100
0000
1000
0000
,
0100
1000
0001
0100
0001
0100
0010
0100
,
0001
0000
0010
0000
0001
0000
0010
0000
0001
0000
1000
0010
1000
0000
1000
0000
,
0010
1000
0010
0000
0001
0000
0100
0000
0001
0000
0100
0000
0001
0000
1000
0000
,
0100
0000
1000
0000
0100
0000
1000
0000
0010
0000
0100
0010
0100
0000
0100
0000
,
0010
1000
0010
0000
0100
0000
0010
0000
0100
0010
0100
0000
0001
0000
1000
0000
,
0100
0010
0100
0000
0001
0000
0100
0000
0001
0010
0001
0000
0001
0000
0100
0010
,
0100
0000
1000
0000
0010
0000
1000
0010
1000
0000
0100
0000
0001
0000
1000
0001
,
1000
0000
1000
0000
0001
0000
0010
0100
0010
0000
0010
0000
0100
0000
0010
0000
,
1001
0000
0000
0000
1001
0000
0000
0000
0001
0000
0010
0100
0000
0100
1000
0000
,
0100
1000
0010
0100
0001
0100
0001
0100
,
0010
0000
1000
0000
0010
0000
1000
0000
0001
0000
1000
0000
0001
0000
0010
0001
,
0010
0010
0100
0010
0100
1000
0100
1000
,
1010
0000
0000
0000
0010
0000
0000
0000
0010
0000
1000
0001
0000
0010
1000
0000
,
0010
0000
1000
0000
0001
0000
0100
0000
0001
0100
0000
0000
0001
0010
1000
0000
,
0010
1000
0000
1000
0010
0000
1010
0000
0000
0000
0000
0000
0000
0000
0000
0000
;
